<?xml version="1.0" standalone="no"?>
<!DOCTYPE svg PUBLIC "-//W3C//DTD SVG 1.1//EN" "http://www.w3.org/Graphics/SVG/1.1/DTD/svg11.dtd" >
<svg xmlns="http://www.w3.org/2000/svg">
<metadata></metadata>
<defs>
<font id="museo_sans_cyrl900_italic" horiz-adv-x="400" >
<font-face units-per-em="1000" ascent="750" descent="-250" />
<missing-glyph horiz-adv-x="250" />
<glyph unicode="ff" horiz-adv-x="763" d="M35 0l74 380h-63l27 135h63l2 13q7 48 30 84t50.5 55.5t63 32t62.5 16t55 3.5t63 -3l-30 -146q-8 2 -26 2q-90 0 -97 -50l-1 -7h210l2 13q7 48 30 84t50.5 55.5t63 32t62.5 16t55 3.5q30 0 63 -3l-30 -146q-8 2 -26 2q-90 0 -97 -50l-1 -7h95l-26 -135h-95l-74 -380h-173 l74 380h-209l-74 -380h-173z" />
<glyph unicode="fi" horiz-adv-x="673" d="M35 0l74 380h-63l27 135h63l2 13q7 48 30 84t50.5 55.5t63 32t62.5 16t55 3.5q31 0 63 -3l-30 -146q-6 2 -26 2q-90 0 -97 -50l-1 -7h350l-100 -515h-172l73 380h-177l-74 -380h-173zM500 580l26 135h169l-26 -135h-169z" />
<glyph unicode="fl" horiz-adv-x="703" d="M37 0l72 371h-63l27 135h63l4 22q9 48 32 84.5t50 56t62.5 31.5t62 15.5t54.5 3.5q33 0 63 -3l-30 -146q-6 2 -26 2q-88 0 -97 -50l-3 -16h95l-26 -135h-95l-72 -371h-173zM412 137q0 29 7 63l100 515h173l-96 -496q-5 -22 -5 -39q0 -33 39 -33q10 0 21 1l-29 -150 q-30 -3 -47 -3q-163 0 -163 142z" />
<glyph unicode="ffi" horiz-adv-x="1056" d="M35 0l74 380h-63l27 135h63l2 13q7 48 30 84t50.5 55.5t63 32t62.5 16t55 3.5q9 0 19.5 -0.5t23 -1.5t20.5 -1l-30 -146q-8 2 -26 2q-90 0 -97 -50l-1 -7h210l2 13q7 48 30 84t50.5 55.5t63 32t62.5 16t55 3.5q30 0 63 -3l-30 -146q-14 2 -26 2q-90 0 -97 -50l-1 -7h351 l-100 -515h-172l73 380h-178l-74 -380h-173l74 380h-209l-74 -380h-173zM883 580l26 135h169l-26 -135h-169z" />
<glyph unicode="ffl" horiz-adv-x="1084" d="M35 0l74 380h-63l27 135h63l2 13q7 48 30 84t50.5 55.5t63 32t62.5 16t55 3.5t63 -3l-30 -146q-8 2 -26 2q-90 0 -97 -50l-1 -7h210l2 13q7 48 30 84t50.5 55.5t63 32t62.5 16t55 3.5q30 0 63 -3l-30 -146q-8 2 -26 2q-90 0 -97 -50l-1 -7h95l-26 -135h-95l-74 -380h-173 l74 380h-209l-74 -380h-173zM793 137q0 29 7 63l100 515h173l-96 -496q-5 -22 -5 -39q0 -33 39 -33q10 0 21 1l-29 -150q-30 -3 -47 -3q-163 0 -163 142z" />
<glyph unicode="fj" horiz-adv-x="675" d="M35 0l74 380h-63l27 135h63l2 13q7 48 30 84t50.5 55.5t63 32t62.5 16t55 3.5q30 0 63 -3l-30 -146q-14 2 -26 2q-90 0 -97 -50l-1 -7h351l-102 -526q-12 -62 -43.5 -104t-73.5 -60.5t-76.5 -25.5t-70.5 -7q-28 0 -61 3l28 144q6 -1 22 -1q92 0 105 66l73 376h-178 l-74 -380h-173zM501 580l26 135h169l-26 -135h-169z" />
<glyph unicode=" "  horiz-adv-x="250" />
<glyph unicode="&#x09;" horiz-adv-x="250" />
<glyph unicode="&#xa0;" horiz-adv-x="250" />
<glyph unicode="!" horiz-adv-x="310" d="M65 221l80 494h180l-112 -494h-148zM19 0l29 150h158l-29 -150h-158z" />
<glyph unicode="&#x22;" horiz-adv-x="437" d="M289 490l47 240h122l-47 -240h-122zM98 490l47 240h122l-47 -240h-122z" />
<glyph unicode="#" horiz-adv-x="714" d="M46 0l66 180h-97l42 120h98l36 95h-96l43 120h96l74 200h137l-74 -200h108l74 200h137l-74 -200h102l-43 -120h-102l-36 -95h100l-43 -120h-100l-66 -180h-137l66 180h-108l-66 -180h-137zM292 300h108l36 95h-108z" />
<glyph unicode="$" horiz-adv-x="600" d="M2 90l104 124q30 -30 76.5 -47.5t92.5 -17.5q32 0 59 15.5t27 47.5q0 17 -20 33.5t-49.5 30.5t-64 35t-64 45t-49.5 62.5t-20 85.5q0 92 68.5 151.5t164.5 69.5l18 90h109l-18 -94q114 -21 168 -77l-94 -129q-27 23 -70.5 37t-82.5 14q-32 0 -60 -16t-28 -46 q0 -18 20 -35t50 -30.5t64.5 -34t64.5 -44t50 -62.5t20 -86q0 -89 -69 -152.5t-176 -70.5l-16 -88h-109l18 95q-110 23 -184 94z" />
<glyph unicode="%" horiz-adv-x="884" d="M256 382q-75 0 -122.5 45t-47.5 114q0 72 60.5 129t136.5 57q75 0 123 -46.5t48 -116.5q0 -72 -61.5 -127t-136.5 -55zM36 0l674 715h159l-674 -715h-159zM264 502q24 0 43 18t19 43q0 19 -13.5 31.5t-36.5 12.5t-42.5 -19t-19.5 -43q0 -19 13.5 -31t36.5 -12zM454 147 q0 72 60.5 129t136.5 57q75 0 123 -46.5t48 -116.5q0 -72 -61.5 -127t-136.5 -55t-122.5 45t-47.5 114zM582 151q0 -19 13.5 -31t36.5 -12q24 0 43 18t19 43q0 19 -13.5 31.5t-36.5 12.5t-42.5 -19t-19.5 -43z" />
<glyph unicode="&#x26;" horiz-adv-x="700" d="M25 194q0 59 45 113.5t111 73.5v2q-3 1 -7 3.5t-14.5 12t-19 21t-15 32.5t-6.5 46q0 59 24.5 105t64 72t85 39t93.5 13q53 0 108 -19l-64 -130q-13 4 -38 4q-39 0 -69 -23t-30 -66q0 -24 15.5 -39t45.5 -15h87l17 88h172l-17 -88h89l-29 -150h-89l-13 -69 q-22 -114 -97.5 -173t-195.5 -59q-118 0 -185.5 57.5t-67.5 148.5zM209 207q0 -26 21 -43t54 -17q48 0 79 23t38 60l11 59h-98q-40 0 -72.5 -19.5t-32.5 -62.5z" />
<glyph unicode="'" horiz-adv-x="249" d="M98 490l47 240h125l-47 -240h-125z" />
<glyph unicode="(" horiz-adv-x="335" d="M95 -95q-59 135 -59 276q0 333 214 569h147q-211 -260 -211 -573q0 -146 46 -272h-137z" />
<glyph unicode=")" horiz-adv-x="334" d="M-51 -95q211 260 211 573q0 146 -46 272h137q59 -135 59 -276q0 -333 -214 -569h-147z" />
<glyph unicode="*" horiz-adv-x="500" d="M195 309l-110 90l93 88l-101 21l73 140l93 -45l11 112h152l-34 -112l112 46l20 -146l-122 -26l60 -81l-131 -88l-41 99z" />
<glyph unicode="+" horiz-adv-x="600" d="M174 0l43 222h-205l25 130h205l43 223h136l-43 -223h205l-25 -130h-205l-43 -222h-136z" />
<glyph unicode="," horiz-adv-x="306" d="M-64 -111l127 277h169l-167 -277h-129z" />
<glyph unicode="-" horiz-adv-x="433" d="M42 212l29 150h314l-29 -150h-314z" />
<glyph unicode="." horiz-adv-x="284" d="M3 0l31 164h164l-31 -164h-164z" />
<glyph unicode="/" horiz-adv-x="476" d="M-32 -42l408 792h154l-409 -792h-153z" />
<glyph unicode="0" horiz-adv-x="642" d="M50 238q0 48 7.5 99.5t22.5 107.5t41.5 106t61.5 89.5t85.5 63t110.5 23.5q237 0 237 -248q0 -58 -10 -121t-35 -130t-61.5 -119.5t-94.5 -86.5t-129 -34q-236 0 -236 250zM231 246q0 -98 61 -98q34 0 62.5 34.5t45 85.5t25.5 104t9 97q0 98 -61 98q-34 0 -62.5 -34.5 t-45 -86t-25.5 -104.5t-9 -96z" />
<glyph unicode="1" horiz-adv-x="553" d="M3 0l27 150h152l57 285l12 55h-2q-13 -20 -36 -38l-50 -39l-87 118l236 184h151l-110 -565h152l-29 -150h-473z" />
<glyph unicode="2" horiz-adv-x="603" d="M3 0q0 58 15.5 109t37 86t58 68.5t65.5 53.5t71 46q11 6 36 21t34 21t27.5 18t25.5 19.5t16.5 18t13 21t3.5 22.5q0 27 -18.5 42.5t-48.5 15.5q-71 0 -125 -76l-123 96q24 29 43 48t52.5 44.5t77 39t93.5 13.5q94 0 163 -54t69 -149q0 -51 -20.5 -94t-62 -79.5t-72.5 -57 t-84 -50.5q-59 -34 -86 -53.5t-33 -39.5h295l-29 -150h-494z" />
<glyph unicode="3" horiz-adv-x="589" d="M-12 82l100 124q23 -25 62 -39t80 -14q59 0 91 24.5t32 60.5q0 65 -114 65h-59l-20 85l107 113q18 19 37 35.5t29 23.5l10 8v2q-24 -5 -69 -5h-163l29 150h451l-21 -109l-176 -177q54 -14 94.5 -61t40.5 -122q0 -103 -77.5 -180.5t-217.5 -77.5q-155 0 -246 94z" />
<glyph unicode="4" horiz-adv-x="634" d="M2 173l19 106l346 436h229l-77 -397h85l-28 -145h-85l-34 -173h-173l34 173h-316zM216 318h130l31 160l21 80h-2q-25 -43 -49 -74l-131 -164v-2z" />
<glyph unicode="5" horiz-adv-x="589" d="M-1 82l102 125q58 -54 134 -54q52 0 89.5 29t37.5 72q0 36 -28 56t-73 20q-24 0 -49 -6t-38 -12l-13 -6l-92 36l102 373h405l-29 -150h-248l-17 -64l-9 -28h2q25 5 54 5q92 0 153 -60.5t61 -154.5q0 -114 -89.5 -194.5t-220.5 -80.5q-66 0 -128.5 24t-105.5 70z" />
<glyph unicode="6" horiz-adv-x="619" d="M45 260q0 79 29 160.5t80 150.5t129.5 112.5t168.5 43.5q104 0 170 -33l-71 -142q-50 15 -97 15q-114 0 -177 -118h2q30 25 88 25q99 0 151 -60.5t52 -154.5q0 -103 -74.5 -187t-189.5 -84q-111 0 -186 70.5t-75 201.5zM223 258q0 -48 25.5 -79t60.5 -31q39 0 64 32 t25 72q0 35 -21.5 58t-67.5 23q-41 0 -63.5 -21.5t-22.5 -53.5z" />
<glyph unicode="7" horiz-adv-x="569" d="M-2 0l349 501q15 22 30 38.5t22 21.5l7 5v2q-10 -3 -46 -3h-271l29 150h513l-24 -122l-415 -593h-194z" />
<glyph unicode="8" horiz-adv-x="627" d="M26 196q0 34 16 67.5t41 59.5t43.5 41.5t35.5 26.5q-48 51 -48 116q0 86 70 153t189 67q102 0 166.5 -50.5t64.5 -139.5q0 -39 -23.5 -83t-43.5 -66.5t-38 -39.5q64 -52 64 -126q0 -90 -79 -162t-207 -72q-121 0 -186 59t-65 149zM377 416q51 54 51 104q0 25 -16.5 39 t-47.5 14q-35 0 -55.5 -19.5t-20.5 -47.5t22.5 -47.5t66.5 -42.5zM210 209q0 -29 20 -48t52 -19q41 0 71 22t30 58q0 18 -17.5 35.5t-34.5 27.5t-56 30q-65 -53 -65 -106z" />
<glyph unicode="9" horiz-adv-x="620" d="M20 21l71 142q43 -15 97 -15q114 0 177 118h-2q-40 -25 -88 -25q-99 0 -151 60.5t-52 154.5q0 65 32 126.5t95 103t140 41.5q111 0 184.5 -70.5t73.5 -201.5q0 -79 -29 -160.5t-80 -150.5t-129.5 -112.5t-168.5 -43.5q-104 0 -170 33zM333 382q41 0 63.5 21.5t22.5 53.5 q0 48 -25.5 79t-60.5 31q-39 0 -64 -32t-25 -72q0 -35 21.5 -58t67.5 -23z" />
<glyph unicode=":" horiz-adv-x="283" d="M70 351l32 164h164l-32 -164h-164zM1 0l32 164h164l-32 -164h-164z" />
<glyph unicode=";" horiz-adv-x="317" d="M100 351l32 164h158l-32 -164h-158zM-64 -111l127 277h169l-167 -277h-129z" />
<glyph unicode="&#x3c;" horiz-adv-x="600" d="M24 234v107l504 223v-145l-330 -131v-2l330 -130v-145z" />
<glyph unicode="=" horiz-adv-x="600" d="M42 337v130h506v-130h-506zM42 107v130h506v-130h-506z" />
<glyph unicode="&#x3e;" horiz-adv-x="600" d="M67 11v145l330 130v2l-330 131v145l504 -223v-107z" />
<glyph unicode="?" horiz-adv-x="518" d="M128 221l9 50q9 48 43 88t69.5 62t64 49t28.5 54q0 22 -17 35.5t-43 13.5q-44 0 -103 -43l-79 127q37 29 94.5 51t115.5 22q88 0 151 -48t63 -132q0 -49 -21.5 -90t-53 -67t-63 -48t-56.5 -44t-29 -44l-7 -36h-166zM90 0l29 150h158l-29 -150h-158z" />
<glyph unicode="@" horiz-adv-x="850" d="M32 177q0 179 133 308.5t320 129.5q273 0 273 -204q0 -26 -7 -61l-33 -173h74l-23 -119h-268q-101 0 -155 47.5t-54 118.5q0 75 67 133.5t181 58.5h64q1 4 1 7q0 27 -37.5 42t-85.5 15q-113 0 -196 -92.5t-83 -199.5q0 -83 54 -136.5t156 -53.5l-25 -128 q-157 0 -256.5 86.5t-99.5 220.5zM464 228q0 -23 14 -37t41 -14h39l26 134h-37q-37 0 -60 -25t-23 -58z" />
<glyph unicode="A" horiz-adv-x="668" d="M-57 0l372 715h201l99 -715h-175l-15 150h-223l-72 -150h-187zM270 290h141l-14 139l-6 123h-2q-29 -78 -51 -123z" />
<glyph unicode="B" horiz-adv-x="650" d="M18 0l139 715h230q78 0 125 -16q54 -19 83.5 -59.5t29.5 -94.5q0 -50 -30 -96.5t-81 -72.5v-2q44 -16 65 -53.5t21 -83.5q0 -82 -48.5 -139t-126.5 -82q-48 -16 -114 -16h-293zM278 438h90q35 0 56 24.5t21 55.5q0 47 -55 47h-87zM222 150h105q28 0 49 12q44 28 44 80 q0 25 -16 40.5t-47 15.5h-106z" />
<glyph unicode="C" horiz-adv-x="717" d="M45 305q0 173 124 297.5t296 124.5q79 0 153 -25.5t123 -77.5l-99 -120q-74 63 -171 63q-111 0 -178 -78t-67 -172q0 -73 42.5 -121t123.5 -48q102 0 209 85l68 -139q-51 -46 -130.5 -76t-156.5 -30q-155 0 -246 88t-91 229z" />
<glyph unicode="D" horiz-adv-x="738" d="M19 0l138 715h229q156 0 243.5 -74.5t87.5 -208.5q0 -182 -118 -307t-301 -125h-279zM223 150h72q108 0 175 77t67 189q0 73 -42.5 111t-118.5 38h-72z" />
<glyph unicode="E" horiz-adv-x="575" d="M18 0l140 715h447l-29 -150h-273l-25 -130h217l-30 -150h-217l-26 -135h287l-29 -150h-462z" />
<glyph unicode="F" horiz-adv-x="540" d="M19 0l138 715h437l-28 -150h-263l-29 -150h217l-28 -150h-218l-52 -265h-174z" />
<glyph unicode="G" horiz-adv-x="773" d="M45 304q0 174 124.5 298.5t306.5 124.5q75 0 150.5 -23t124.5 -69l-101 -121q-28 23 -75.5 38t-94.5 15q-120 0 -186.5 -76t-66.5 -175q0 -82 48 -125t120 -43q79 0 155 52l11 55h-101l29 149h256l-79 -404h-146l4 20l7 30h-2q-62 -62 -175 -62q-125 0 -217 85.5 t-92 230.5z" />
<glyph unicode="H" horiz-adv-x="762" d="M18 0l139 715h175l-56 -286h260l56 286h175l-139 -715h-175l54 280h-260l-54 -280h-175z" />
<glyph unicode="I" horiz-adv-x="327" d="M18 0l139 715h175l-139 -715h-175z" />
<glyph unicode="J" horiz-adv-x="563" d="M-3 178q0 28 5 52l8 42h175l-7 -37q-4 -24 -4 -33q0 -54 53 -54q62 0 76 75l67 342h-191l29 150h366l-98 -505q-21 -108 -91 -165t-162 -57q-94 0 -160 50t-66 140z" />
<glyph unicode="K" horiz-adv-x="682" d="M18 0l139 715h175l-54 -276h67l205 276h203l-271 -351v-2l130 -362h-186l-95 290h-82l-56 -290h-175z" />
<glyph unicode="L" horiz-adv-x="549" d="M18 0l139 715h175l-110 -565h292l-30 -150h-466z" />
<glyph unicode="M" horiz-adv-x="878" d="M-7 0l191 715h191l47 -302l12 -118h2q35 71 60 118l163 302h192l-81 -715h-172l41 322l23 120h-2q-38 -76 -63 -120l-116 -207h-152l-36 207l-15 122h-2q-9 -68 -23 -122l-84 -322h-176z" />
<glyph unicode="N" horiz-adv-x="749" d="M18 0l139 715h170l133 -334q8 -21 17 -51.5t14 -50.5l5 -20h2q7 77 16 122l65 334h175l-139 -715h-169l-134 333q-8 21 -17.5 51.5t-14.5 50.5l-5 20h-2q-6 -77 -15 -122l-65 -333h-175z" />
<glyph unicode="O" horiz-adv-x="820" d="M44 307q0 111 58.5 208.5t155.5 154.5t205 57q152 0 244.5 -87.5t92.5 -224.5q0 -113 -59.5 -212t-156.5 -157t-204 -58q-152 0 -244 89.5t-92 229.5zM224 317q0 -75 44 -122t114 -47q91 0 164 75.5t73 180.5q0 73 -44 118t-114 45q-92 0 -164.5 -73.5t-72.5 -176.5z" />
<glyph unicode="P" horiz-adv-x="631" d="M18 0l139 715h273q64 0 109 -22q50 -24 77 -71t27 -110q0 -88 -45.5 -160.5t-118.5 -106.5q-51 -24 -110 -24h-133l-43 -221h-175zM265 371h85q37 0 59 15q54 36 54 110q0 32 -18.5 50.5t-53.5 18.5h-88z" />
<glyph unicode="Q" horiz-adv-x="820" d="M44 307q0 111 58.5 208.5t155.5 154.5t205 57q152 0 244.5 -87.5t92.5 -224.5q0 -153 -111 -274l60 -61l-110 -102l-59 70q-88 -60 -200 -60q-152 0 -244 89.5t-92 229.5zM224 317q0 -75 44 -122t114 -47q45 0 91 22l-62 67l110 102l59 -71q39 63 39 136t-44 118t-114 45 q-92 0 -164.5 -73.5t-72.5 -176.5z" />
<glyph unicode="R" horiz-adv-x="653" d="M18 0l139 715h266q63 0 105 -17q107 -43 107 -164q0 -73 -37 -142.5t-112 -99.5v-2q7 -12 18 -43l92 -247h-188l-80 241h-88l-47 -241h-175zM269 391h75q48 0 79.5 29t31.5 81q0 31 -19.5 47.5t-53.5 16.5h-79z" />
<glyph unicode="S" horiz-adv-x="580" d="M-7 90l104 124q30 -29 76.5 -47t92.5 -18q32 0 59 15.5t27 47.5q0 17 -20 34t-49.5 31t-64 35t-64 44.5t-49.5 62t-20 85.5q0 101 80 162t186 61q154 0 244 -83l-94 -129q-26 21 -68.5 36t-84.5 15q-32 0 -60 -16t-28 -46q0 -18 20 -35t50 -31t64.5 -34.5t64.5 -44 t50 -62t20 -85.5q0 -93 -76 -158.5t-190 -65.5q-76 0 -150.5 26t-119.5 76z" />
<glyph unicode="T" horiz-adv-x="630" d="M169 0l110 565h-216l29 150h607l-29 -150h-216l-110 -565h-175z" />
<glyph unicode="U" horiz-adv-x="734" d="M56 210q0 28 6 58l87 447h175l-88 -452q-3 -15 -3 -28q0 -42 28 -64.5t77 -22.5q58 0 96.5 29.5t49.5 85.5l88 452h175l-89 -457q-24 -122 -111.5 -196t-214.5 -74q-118 0 -197 59t-79 163z" />
<glyph unicode="V" horiz-adv-x="685" d="M188 0l-115 715h187l47 -407l5 -115h2q27 70 49 115l206 407h199l-392 -715h-188z" />
<glyph unicode="W" horiz-adv-x="995" d="M134 0l-46 715h182l11 -447l-2 -75h2q7 31 26 75l196 447h145l21 -447l-2 -75h2q7 35 23 75l179 447h191l-314 -715h-203l-19 361q-2 49 2 84h-2q-11 -38 -31 -84l-160 -361h-201z" />
<glyph unicode="X" horiz-adv-x="655" d="M-49 0l286 360l-149 355h191l52 -144l28 -91h2q25 45 59 91l105 144h204l-291 -364l151 -351h-187l-56 147l-28 88h-2q-25 -43 -59 -88l-109 -147h-197z" />
<glyph unicode="Y" horiz-adv-x="625" d="M162 0l57 293l-149 422h189l48 -172l23 -103h2q31 53 63 103l109 172h210l-322 -429l-55 -286h-175z" />
<glyph unicode="Z" horiz-adv-x="634" d="M-21 0l22 110l340 391q18 20 35 36t25 23l8 6v2q-22 -3 -54 -3h-253l28 150h540l-22 -108l-343 -393q-17 -20 -34 -36t-25 -22l-9 -7v-2q23 3 55 3h273l-29 -150h-557z" />
<glyph unicode="[" horiz-adv-x="354" d="M-6 -95l165 845h246l-24 -120h-102l-117 -605h102l-24 -120h-246z" />
<glyph unicode="\" horiz-adv-x="447" d="M216 -42l-103 792h138l103 -792h-138z" />
<glyph unicode="]" horiz-adv-x="353" d="M-16 25h102l117 605h-102l24 120h246l-165 -845h-245z" />
<glyph unicode="^" horiz-adv-x="630" d="M56 241l203 474h107l203 -474h-145l-112 300l-111 -300h-145z" />
<glyph unicode="_" horiz-adv-x="614" d="M-43 0h596l-25 -130h-595z" />
<glyph unicode="`" horiz-adv-x="484" d="M168 761l-88 150h165l51 -150h-128z" />
<glyph unicode="a" horiz-adv-x="547" d="M-8 124q0 54 31.5 94.5t83 61.5t105 31t107.5 10h8q3 14 3 21q0 45 -66 45q-55 0 -149 -47l-37 130q34 19 97.5 38t122.5 19q36 0 69 -8t65 -25t51 -51t19 -80q0 -20 -5 -50l-60 -313h-158l6 31l9 32h-2q-22 -28 -61.5 -51.5t-90.5 -23.5q-61 0 -104.5 36.5t-43.5 99.5z M161 153q0 -36 43 -36q33 0 64.5 28.5t37.5 60.5l3 16h-18q-18 0 -36.5 -2.5t-41.5 -9t-37.5 -21.5t-14.5 -36z" />
<glyph unicode="b" horiz-adv-x="634" d="M1 0l138 715h173l-38 -194l-11 -46h2q54 52 135 52q93 0 146 -60.5t53 -163.5q0 -135 -86 -225t-196 -90q-100 0 -145 63h-2q-1 -13 -4 -29l-4 -22h-161zM214 221q0 -39 20.5 -64.5t60.5 -25.5q48 0 88.5 44t40.5 115q0 42 -22 66.5t-59 24.5q-45 0 -87 -44.5t-42 -115.5 z" />
<glyph unicode="c" horiz-adv-x="554" d="M19 224q0 117 91 210t231 93q134 0 210 -76l-87 -108q-21 18 -53.5 29t-61.5 11q-68 0 -111.5 -46.5t-43.5 -102.5q0 -43 27 -72.5t79 -29.5q67 0 154 62l44 -131q-39 -32 -101 -53.5t-121 -21.5q-123 0 -190 66.5t-67 169.5z" />
<glyph unicode="d" horiz-adv-x="636" d="M20 209q0 139 85.5 228.5t203.5 89.5q92 0 130 -46h2q1 13 3 23l41 211h173l-139 -715h-162l7 34l7 30h-2q-57 -76 -149 -76q-94 0 -147 60t-53 161zM195 222q0 -42 22 -66.5t59 -24.5q45 0 86.5 45.5t41.5 113.5q0 40 -20 65.5t-60 25.5q-48 0 -88.5 -44t-40.5 -115z " />
<glyph unicode="e" horiz-adv-x="566" d="M19 213q0 134 85 224t212 90q107 0 163.5 -55t56.5 -147q0 -42 -19 -101h-325v-6q0 -39 27 -62.5t74 -23.5q71 0 153 52l44 -129q-33 -26 -92.5 -46.5t-115.5 -20.5q-126 0 -194.5 64.5t-68.5 160.5zM215 323h152q1 6 1 18q0 27 -14.5 43t-40.5 16q-70 0 -98 -77z" />
<glyph unicode="f" horiz-adv-x="385" d="M38 0l72 371h-63l27 135h63l4 22q9 48 32 84.5t50 56t62.5 31.5t62 15.5t54.5 3.5q33 0 63 -3l-30 -146q-6 2 -26 2q-88 0 -97 -50l-3 -16h95l-26 -135h-95l-72 -371h-173z" />
<glyph unicode="g" horiz-adv-x="624" d="M62 -33q50 -33 141 -33q52 0 90.5 23t47.5 76l3 17l4 19h-1q-51 -54 -124 -54q-98 0 -149 60.5t-51 155.5q0 116 75.5 206t199.5 90q97 0 138 -55h3q1 10 2 16l5 27h162l-93 -478q-26 -129 -112 -188t-196 -59q-134 0 -213 53zM198 246q0 -39 19.5 -63t59.5 -24 q53 0 86 47.5t33 101.5q0 75 -83 75q-52 0 -83.5 -39.5t-31.5 -97.5z" />
<glyph unicode="h" horiz-adv-x="627" d="M1 0l139 715h173l-44 -226l-10 -44h2q22 35 68 58.5t95 23.5q73 0 117.5 -35t44.5 -111q0 -20 -7 -57l-63 -324h-173l58 296q3 18 3 30q0 44 -46 44q-50 0 -89.5 -42t-50.5 -100l-44 -228h-173z" />
<glyph unicode="i" horiz-adv-x="289" d="M115 580l26 135h169l-26 -135h-169zM1 0l99 515h173l-100 -515h-172z" />
<glyph unicode="j" horiz-adv-x="290" d="M115 580l26 135h169l-26 -135h-169zM1 4l99 511h173l-102 -526q-12 -62 -43.5 -104t-73.5 -60.5t-76.5 -25.5t-70.5 -7q-28 0 -61 3l28 144q6 -1 22 -1q92 0 105 66z" />
<glyph unicode="k" horiz-adv-x="596" d="M1 0l139 715h173l-72 -370h47l136 170h201l-207 -244v-2l115 -269h-183l-75 200h-62l-39 -200h-173z" />
<glyph unicode="l" horiz-adv-x="324" d="M31 137q0 29 7 63l100 515h173l-96 -496q-5 -22 -5 -39q0 -33 39 -33q10 0 21 1l-29 -150q-30 -3 -47 -3q-163 0 -163 142z" />
<glyph unicode="m" horiz-adv-x="909" d="M1 0l100 515h167l-8 -40l-10 -37h2q69 89 156 89q110 0 137 -87h2q27 36 74 61.5t98 25.5q147 0 147 -141q0 -29 -8 -72l-60 -314h-173l59 300q3 16 3 30q0 40 -34 40q-45 0 -78.5 -45.5t-46.5 -111.5l-42 -213h-173l59 300q3 16 3 30q0 40 -34 40q-44 0 -78 -45.5 t-47 -111.5l-42 -213h-173z" />
<glyph unicode="n" horiz-adv-x="627" d="M1 0l100 515h167l-5 -26l-13 -51h2q23 36 72 62.5t100 26.5q73 0 117.5 -35t44.5 -111q0 -20 -7 -57l-63 -324h-173l58 296q3 18 3 30q0 44 -46 44q-50 0 -89.5 -42t-50.5 -100l-44 -228h-173z" />
<glyph unicode="o" horiz-adv-x="640" d="M18 219q0 131 97.5 219.5t223.5 88.5q117 0 192 -63.5t75 -167.5q0 -132 -98 -220t-223 -88q-118 0 -192.5 63t-74.5 168zM193 227q0 -44 26.5 -69.5t68.5 -25.5q55 0 99 43t44 110q0 45 -26.5 71.5t-67.5 26.5q-54 0 -99 -44.5t-45 -111.5z" />
<glyph unicode="p" horiz-adv-x="633" d="M172 -2l-38 -198h-172l138 715h156l-5 -26l-9 -33h2q58 71 155 71q92 0 145.5 -60.5t53.5 -163.5q0 -135 -86 -225t-196 -90q-85 0 -135 54h-2q-2 -18 -7 -44zM214 222q0 -40 20 -65.5t60 -25.5q49 0 89 44t40 115q0 42 -21.5 66.5t-58.5 24.5q-45 0 -87 -44.5 t-42 -114.5z" />
<glyph unicode="q" horiz-adv-x="635" d="M20 209q0 139 85.5 228.5t203.5 89.5q93 0 139 -55h2q1 11 4 28l3 15h162l-139 -715h-173l39 202l11 44h-2q-55 -58 -135 -58q-94 0 -147 60t-53 161zM195 222q0 -42 22 -66.5t59 -24.5q45 0 86.5 45.5t41.5 113.5q0 40 -20 65.5t-60 25.5q-48 0 -88.5 -44t-40.5 -115z " />
<glyph unicode="r" horiz-adv-x="428" d="M1 0l100 515h166l-17 -87l-8 -32h1q25 54 75.5 91t103.5 37q8 0 30 -2l-33 -170q-30 3 -34 3q-30 0 -63 -14.5t-67.5 -58t-46.5 -107.5l-34 -175h-173z" />
<glyph unicode="s" horiz-adv-x="468" d="M-17 58l82 116q23 -21 59.5 -33.5t72.5 -12.5q55 0 55 30q0 13 -21 24t-51 22.5t-60 27.5t-51 48.5t-21 77.5q0 75 62.5 122t155.5 47q104 0 189 -57l-68 -120q-47 37 -126 37q-53 0 -53 -29q0 -13 21 -23.5t51 -21.5t60.5 -27.5t51.5 -50.5t21 -81q0 -75 -58 -120.5 t-151 -45.5q-126 0 -221 70z" />
<glyph unicode="t" horiz-adv-x="407" d="M60 160q0 17 5 40l34 171h-65l26 135h71l29 148h166l-29 -148h109l-26 -135h-109l-28 -147q-3 -14 -3 -27q0 -50 76 -50q14 0 27 1l-29 -150q-42 -3 -46 -3q-92 0 -150 40.5t-58 124.5z" />
<glyph unicode="u" horiz-adv-x="620" d="M25 134q0 20 7 57l63 324h173l-58 -296q-3 -18 -3 -30q0 -44 46 -44q48 0 85.5 42t48.5 100l44 228h173l-100 -515h-167l5 26l13 51h-2q-23 -37 -69 -63t-97 -26q-73 0 -117.5 35t-44.5 111z" />
<glyph unicode="v" horiz-adv-x="563" d="M122 0l-77 515h171l26 -274l2 -89h2q19 55 36 89l133 274h183l-276 -515h-200z" />
<glyph unicode="w" horiz-adv-x="825" d="M95 0l-44 515h172l4 -304l-4 -54h2l3 7q2 7 6.5 21t9.5 26l131 304h145l11 -304l-2 -54h2q5 26 17 54l123 304h184l-245 -515h-192l-11 238v55h-2q-8 -27 -20 -55l-105 -238h-185z" />
<glyph unicode="x" horiz-adv-x="549" d="M-47 0l216 260l-122 255h182l42 -110l11 -38h2q13 25 22 38l78 110h200l-220 -265l119 -250h-178l-46 111l-9 30h-2q-11 -21 -18 -30l-80 -111h-197z" />
<glyph unicode="y" horiz-adv-x="567" d="M-4 -50q21 -16 51 -16q61 0 93 52l15 24l-121 505h180l42 -255l5 -76h2q18 45 31 73l115 258h194l-322 -570q-45 -79 -105 -117t-120 -38q-73 0 -135 40z" />
<glyph unicode="z" horiz-adv-x="544" d="M-22 0l16 86l229 237q14 14 27.5 26t19.5 17l6 4v2q-12 -2 -44 -2h-176l29 145h459l-16 -87l-229 -237q-14 -14 -28 -25.5t-21 -16.5l-7 -5v-2q14 3 47 3h187l-29 -145h-470z" />
<glyph unicode="{" horiz-adv-x="395" d="M70 38q0 20 4 39l16 83q3 15 3 26q0 30 -18.5 49.5t-50.5 20.5l29 150q40 1 67.5 28t36.5 71l20 103q9 47 33.5 78.5t59.5 45t66 18.5t69 5q16 0 42 -2l-24 -124q-6 2 -25 2q-72 0 -83 -54l-26 -132q-9 -42 -39 -71.5t-70 -42.5v-2q29 -10 46 -39.5t17 -67.5 q0 -14 -3 -32l-22 -112q-1 -4 -1 -12q0 -42 64 -42q7 0 25 2l-24 -124q-18 -2 -44 -2q-23 0 -47.5 5t-54 18.5t-48 43t-18.5 71.5z" />
<glyph unicode="|" horiz-adv-x="356" d="M109 -165v967h144v-967h-144z" />
<glyph unicode="}" horiz-adv-x="395" d="M8 24q72 0 83 54l28 139q9 42 38.5 71.5t70.5 42.5v2q-27 10 -45 37.5t-18 69.5q0 14 3 32l20 105q1 4 1 12q0 42 -64 42q-13 0 -25 -2l24 124q20 2 44 2q23 0 47.5 -5t54 -18.5t48 -43t18.5 -71.5q0 -11 -4 -39l-14 -76q-3 -15 -3 -26q0 -31 18.5 -49.5t50.5 -20.5 l-29 -150q-11 0 -24 -4t-29.5 -13.5t-30.5 -31t-20 -50.5l-22 -110q-30 -147 -228 -147q-12 0 -42 2l24 124q14 -2 25 -2z" />
<glyph unicode="~" horiz-adv-x="622" d="M43 191q0 203 174 203q31 0 58.5 -12.5t43 -27.5t34.5 -27.5t36 -12.5q25 0 40 19.5t15 56.5h133q0 -203 -173 -203q-31 0 -58.5 12.5t-43 27.5t-35 27.5t-36.5 12.5q-24 0 -39 -19.5t-15 -56.5h-134z" />
<glyph unicode="&#xa1;" horiz-adv-x="291" d="M78 365l29 150h158l-29 -150h-158zM-41 -200l112 494h148l-80 -494h-180z" />
<glyph unicode="&#xa2;" horiz-adv-x="600" d="M192 -12l18 92q-74 23 -119 85.5t-45 150.5q0 69 24.5 128.5t64.5 100t87.5 65.5t96.5 32l16 84h110l-17 -91q57 -14 100 -61t54 -107l-155 -56q-5 32 -25.5 52.5t-54.5 20.5q-45 0 -86 -47.5t-41 -115.5q0 -43 21.5 -66t56.5 -23q71 0 113 71l149 -63 q-41 -69 -103 -115.5t-139 -55.5l-16 -81h-110z" />
<glyph unicode="&#xa3;" horiz-adv-x="600" d="M-12 0l29 150h54l29 149h-43l22 112h42l22 110q18 92 91 149t173 57q55 0 106.5 -24t87.5 -66l-109 -108q-39 41 -90 41q-29 0 -53 -17.5t-30 -46.5l-19 -95h166l-22 -112h-165l-29 -149h290l-29 -150h-523z" />
<glyph unicode="&#xa4;" horiz-adv-x="647" d="M54 0l28 142h-65l21 111h65l11 57h-65l26 134h65l53 271h272q102 0 153 -46.5t51 -127.5q0 -105 -79 -168.5t-194 -63.5h-107l-11 -56h244l-21 -111h-244l-28 -142h-175zM315 444h71q39 0 71.5 22t32.5 60q0 54 -74 54h-74z" />
<glyph unicode="&#xa5;" horiz-adv-x="600" d="M151 0l33 167h-163l18 96h163l6 28l-15 49h-139l19 96h92l-83 279h191l28 -143l22 -133h2q29 68 66 133l79 143h208l-192 -279h93l-19 -96h-140l-33 -49l-6 -28h164l-18 -96h-164l-33 -167h-179z" />
<glyph unicode="&#xa7;" horiz-adv-x="529" d="M125 179l-22 263q-10 120 54 202.5t189 82.5q126 0 213 -82l-86 -98q-47 42 -127 42q-65 0 -94 -40t-23 -110l22 -260h-126zM-15 20l86 98q21 -19 57 -30.5t70 -11.5q65 0 94 40t23 110l-22 260h126l22 -263q10 -120 -54 -202.5t-189 -82.5q-59 0 -116 21.5t-97 60.5z " />
<glyph unicode="&#xa8;" horiz-adv-x="485" d="M217 771l28 140h126l-28 -140h-126zM8 771l28 140h126l-28 -140h-126z" />
<glyph unicode="&#xa9;" horiz-adv-x="820" d="M61 358q0 153 105 260.5t254 107.5q151 0 257 -107.5t106 -260.5t-106 -261.5t-257 -108.5q-148 0 -253.5 108.5t-105.5 261.5zM174 358q0 -112 71 -189.5t175 -77.5q106 0 178.5 77.5t72.5 189.5q0 111 -72.5 188t-178.5 77q-104 0 -175 -77t-71 -188zM250 355 q0 78 51 132.5t121 54.5q57 0 101 -30.5t61 -84.5l-100 -39q-6 20 -21.5 34.5t-36.5 14.5q-23 0 -41 -23t-18 -59q0 -39 16.5 -60.5t42.5 -21.5q20 0 35.5 13.5t22.5 35.5l100 -39q-16 -47 -57 -81t-105 -34q-70 0 -121 54.5t-51 132.5z" />
<glyph unicode="&#xaa;" horiz-adv-x="431" d="M185 383q-38 0 -65 24t-27 63q0 34 17 58.5t39 36.5t53.5 19t50.5 8.5t39 1.5h10q3 11 3 17q0 27 -41 27q-32 0 -86 -25l-25 78q60 34 148 34q60 0 90.5 -28t30.5 -79q0 -15 -3 -33l-38 -195h-108l7 39h-2q-13 -19 -38.5 -32.5t-54.5 -13.5zM233 472q18 0 34 14t19 31 l1 5h-10q-64 0 -64 -35q0 -15 20 -15zM57 268l16 85h305l-17 -85h-304z" />
<glyph unicode="&#xab;" horiz-adv-x="664" d="M418 77l-130 205l213 206h167l-227 -213l130 -198h-153zM158 77l-130 205l191 206h164l-202 -213l130 -198h-153z" />
<glyph unicode="&#xac;" horiz-adv-x="652" d="M65 337v130h506v-335h-135v205h-371z" />
<glyph unicode="&#xad;" horiz-adv-x="433" d="M42 212l29 150h314l-29 -150h-314z" />
<glyph unicode="&#xae;" horiz-adv-x="820" d="M61 358q0 153 105 260.5t254 107.5q151 0 257 -107.5t106 -260.5t-106 -261.5t-257 -108.5q-148 0 -253.5 108.5t-105.5 261.5zM174 358q0 -112 71 -189.5t175 -77.5q106 0 178.5 77.5t72.5 189.5q0 111 -72.5 188t-178.5 77q-104 0 -175 -77t-71 -188zM290 187v347h163 q56 0 89 -31t33 -84q0 -37 -19.5 -60.5t-38.5 -28.5v-2q4 -3 13 -20l63 -121h-118l-49 118h-28v-118h-108zM398 377h27q40 0 40 42q0 41 -38 41h-29v-83z" />
<glyph unicode="&#xaf;" horiz-adv-x="485" d="M42 782l22 112h275l-22 -112h-275z" />
<glyph unicode="&#xb0;" horiz-adv-x="437" d="M253 385q-74 0 -121 44t-47 111q0 74 60.5 132t134.5 58t121.5 -44.5t47.5 -111.5q0 -75 -61 -132t-135 -57zM261 505q23 0 42.5 17.5t19.5 40.5q0 21 -14 34t-37 13q-24 0 -42.5 -18.5t-18.5 -41.5q0 -20 13.5 -32.5t36.5 -12.5z" />
<glyph unicode="&#xb1;" horiz-adv-x="600" d="M196 0v222h-205v130h205v223h136v-223h205v-130h-205v-222h-136zM1 -70h526v-130h-526v130z" />
<glyph unicode="&#xb2;" d="M63 423q0 55 18.5 98.5t47 68t61 45.5t61 33.5t47 29t18.5 34.5q0 13 -11.5 20t-27.5 7q-33 0 -80 -45l-75 78q80 82 166 82q63 0 111 -33.5t48 -95.5q0 -34 -15.5 -63.5t-38.5 -48t-50.5 -34.5t-52 -26.5t-43 -21.5t-22.5 -20h186l-21 -108h-327z" />
<glyph unicode="&#xb3;" d="M223 413q-100 0 -162 68l72 83q12 -15 37 -25.5t54 -10.5q27 0 43.5 12.5t16.5 32.5q0 16 -15.5 24.5t-39.5 8.5h-37l-18 57l74 69l28 23v2q-21 -2 -34 -2h-103l21 109h294l-15 -79l-99 -92q35 -12 54.5 -44t19.5 -72q0 -64 -52 -114t-139 -50z" />
<glyph unicode="&#xb4;" horiz-adv-x="484" d="M44 761l111 150h177l-148 -150h-140z" />
<glyph unicode="&#xb6;" horiz-adv-x="678" d="M202 -50l57 291q-76 0 -134 60.5t-58 149.5q0 107 83 185.5t186 78.5h372l-29 -150h-237l-120 -615h-120zM384 -50l110 565h120l-110 -565h-120z" />
<glyph unicode="&#xb7;" horiz-adv-x="278" d="M43 213l31 164h158l-31 -164h-158z" />
<glyph unicode="&#xb8;" horiz-adv-x="484" d="M106 -82l57 111l70 -17l-21 -48q24 -5 43 -21t19 -45q0 -56 -40.5 -82t-91.5 -26q-39 0 -75 9l16 85q16 -8 44 -8q43 0 43 26q0 18 -37 18q-7 0 -27 -2z" />
<glyph unicode="&#xb9;" d="M83 423l21 108h89l26 136l10 32h-2q-7 -10 -14 -15l-27 -20l-59 84l148 116h108l-64 -333h90l-21 -108h-305z" />
<glyph unicode="&#xba;" horiz-adv-x="477" d="M266 385q-71 0 -116.5 40t-45.5 106q0 83 63 138.5t144 55.5q71 0 116.5 -40t45.5 -106q0 -83 -63 -138.5t-144 -55.5zM276 488q30 0 53.5 23t23.5 59q0 24 -14.5 38.5t-36.5 14.5q-29 0 -53.5 -24t-24.5 -60q0 -24 14.5 -37.5t37.5 -13.5zM64 268l17 85h338l-17 -85 h-338z" />
<glyph unicode="&#xbb;" horiz-adv-x="664" d="M275 77l202 213l-130 198h153l130 -205l-191 -206h-164zM-10 77l227 213l-130 198h153l130 -205l-213 -206h-167z" />
<glyph unicode="&#xbc;" horiz-adv-x="1020" d="M750 0l17 87h-196l15 84l216 270h157l-48 -247h53l-20 -107h-53l-17 -87h-124zM717 194h70l18 90l14 50h-2q-14 -28 -30 -46l-70 -92v-2zM344 0h-126l474 715h126zM51 274l21 108h89l26 136l10 32h-2q-7 -10 -14 -15l-27 -20l-59 84l148 116h108l-64 -333h90l-21 -108 h-305z" />
<glyph unicode="&#xbd;" horiz-adv-x="1010" d="M346 0h-126l474 715h126zM49 274l21 108h89l26 136l10 32h-2q-7 -10 -14 -15l-27 -20l-59 84l148 116h108l-64 -333h90l-21 -108h-305zM587 0q0 55 18.5 98.5t47 68t61 45.5t61 33.5t47 29t18.5 34.5q0 13 -11.5 20t-27.5 7q-33 0 -80 -45l-75 78q80 82 166 82 q63 0 111 -33.5t48 -95.5q0 -34 -15.5 -63.5t-38.5 -48t-50.5 -34.5t-52 -26.5t-43 -21.5t-22.5 -20h186l-21 -108h-327z" />
<glyph unicode="&#xbe;" horiz-adv-x="1023" d="M203 264q-100 0 -162 68l72 83q12 -15 37 -25.5t54 -10.5q27 0 43.5 12.5t16.5 32.5q0 16 -15.5 24.5t-39.5 8.5h-37l-18 57l74 69l28 23v2q-21 -2 -34 -2h-103l21 109h294l-15 -79l-99 -92q35 -12 54.5 -44t19.5 -72q0 -64 -52 -114t-139 -50zM346 0h-126l474 715h126z M752 0l17 87h-196l15 84l216 270h157l-48 -247h53l-20 -107h-53l-17 -87h-124zM719 194h70l18 90l14 50h-2q-14 -28 -30 -46l-70 -92v-2z" />
<glyph unicode="&#xbf;" horiz-adv-x="512" d="M223 365l29 150h158l-29 -150h-158zM-23 -30q0 49 21.5 90t53 67t63 48t56.5 44t29 44l6 31h166l-8 -45q-9 -48 -43 -88t-69.5 -62t-64 -49t-28.5 -54q0 -22 17 -35.5t43 -13.5q44 0 103 43l79 -127q-37 -29 -95.5 -51t-114.5 -22q-88 0 -151 48t-63 132z" />
<glyph unicode="&#xc0;" horiz-adv-x="668" d="M-57 0l372 715h201l99 -715h-175l-15 150h-223l-72 -150h-187zM270 290h141l-14 139l-6 123h-2q-29 -78 -51 -123zM354 761l-88 150h165l51 -150h-128z" />
<glyph unicode="&#xc1;" horiz-adv-x="668" d="M-57 0l372 715h201l99 -715h-175l-15 150h-223l-72 -150h-187zM270 290h141l-14 139l-6 123h-2q-29 -78 -51 -123zM351 761l111 150h177l-148 -150h-140z" />
<glyph unicode="&#xc2;" horiz-adv-x="668" d="M-57 0l372 715h201l99 -715h-175l-15 150h-223l-72 -150h-187zM270 290h141l-14 139l-6 123h-2q-29 -78 -51 -123zM238 761l129 150h168l69 -150h-130l-31 82h-2l-63 -82h-140z" />
<glyph unicode="&#xc3;" horiz-adv-x="668" d="M-57 0l372 715h201l99 -715h-175l-15 150h-223l-72 -150h-187zM270 290h141l-14 139l-6 123h-2q-29 -78 -51 -123zM233 761q31 153 149 153q21 0 38 -9.5t26.5 -20.5t21 -20.5t22.5 -9.5q34 0 44 57h113q-30 -153 -148 -153q-25 0 -45 15t-35.5 30t-28.5 15 q-32 0 -44 -57h-113z" />
<glyph unicode="&#xc4;" horiz-adv-x="668" d="M-57 0l372 715h201l99 -715h-175l-15 150h-223l-72 -150h-187zM270 290h141l-14 139l-6 123h-2q-29 -78 -51 -123zM470 771l28 140h126l-28 -140h-126zM261 771l28 140h126l-28 -140h-126z" />
<glyph unicode="&#xc5;" horiz-adv-x="668" d="M-57 0l372 715h201l99 -715h-175l-15 150h-223l-72 -150h-187zM270 290h141l-14 139l-6 123h-2q-29 -78 -51 -123zM428 747q-41 0 -70 19t-29 54q0 47 37.5 72.5t84.5 25.5q42 0 71 -19.5t29 -56.5q0 -46 -38.5 -70.5t-84.5 -24.5zM433 797q18 0 30.5 12.5t12.5 30.5 q0 28 -29 28q-17 0 -29.5 -12.5t-12.5 -32.5q0 -26 28 -26z" />
<glyph unicode="&#xc6;" horiz-adv-x="963" d="M-64 0l432 715h626l-29 -150h-273l-25 -130h218l-30 -150h-218l-26 -135h286l-29 -150h-461l56 288h-166l-167 -288h-194zM378 428h112l26 137h-58z" />
<glyph unicode="&#xc7;" horiz-adv-x="717" d="M261 -82l39 77q-119 22 -187 105.5t-68 204.5q0 173 124 297.5t296 124.5q79 0 153 -25.5t123 -77.5l-99 -120q-74 63 -171 63q-111 0 -178 -78t-67 -172q0 -73 42.5 -121t123.5 -48q102 0 209 85l68 -139q-51 -46 -130.5 -76t-156.5 -30h-5l-10 -24q24 -5 43 -21t19 -45 q0 -56 -40.5 -82t-91.5 -26q-39 0 -75 9l16 85q16 -8 44 -8q43 0 43 26q0 18 -37 18q-7 0 -27 -2z" />
<glyph unicode="&#xc8;" horiz-adv-x="575" d="M18 0l140 715h447l-29 -150h-273l-25 -130h217l-30 -150h-217l-26 -135h287l-29 -150h-462zM326 761l-88 150h165l51 -150h-128z" />
<glyph unicode="&#xc9;" horiz-adv-x="575" d="M18 0l140 715h447l-29 -150h-273l-25 -130h217l-30 -150h-217l-26 -135h287l-29 -150h-462zM323 761l111 150h177l-148 -150h-140z" />
<glyph unicode="&#xca;" horiz-adv-x="575" d="M18 0l140 715h447l-29 -150h-273l-25 -130h217l-30 -150h-217l-26 -135h287l-29 -150h-462zM210 761l129 150h168l69 -150h-130l-31 82h-2l-63 -82h-140z" />
<glyph unicode="&#xcb;" horiz-adv-x="575" d="M18 0l140 715h447l-29 -150h-273l-25 -130h217l-30 -150h-217l-26 -135h287l-29 -150h-462zM442 771l28 140h126l-28 -140h-126zM233 771l28 140h126l-28 -140h-126z" />
<glyph unicode="&#xcc;" horiz-adv-x="327" d="M18 0l139 715h175l-139 -715h-175zM182 761l-88 150h165l51 -150h-128z" />
<glyph unicode="&#xcd;" horiz-adv-x="327" d="M18 0l139 715h175l-139 -715h-175zM178 761l111 150h177l-148 -150h-140z" />
<glyph unicode="&#xce;" horiz-adv-x="327" d="M18 0l139 715h175l-139 -715h-175zM65 761l129 150h168l69 -150h-130l-31 82h-2l-63 -82h-140z" />
<glyph unicode="&#xcf;" horiz-adv-x="327" d="M18 0l139 715h175l-139 -715h-175zM297 771l28 140h126l-28 -140h-126zM88 771l28 140h126l-28 -140h-126z" />
<glyph unicode="&#xd0;" horiz-adv-x="742" d="M23 0l55 284h-57l27 140h57l56 291h229q156 0 243.5 -74.5t87.5 -208.5q0 -182 -118 -307t-301 -125h-279zM227 150h72q108 0 175 77t67 189q0 73 -42.5 111t-118.5 38h-72l-28 -141h104l-27 -140h-104z" />
<glyph unicode="&#xd1;" horiz-adv-x="749" d="M18 0l139 715h170l133 -334q8 -21 17 -51.5t14 -50.5l5 -20h2q7 77 16 122l65 334h175l-139 -715h-169l-134 333q-8 21 -17.5 51.5t-14.5 50.5l-5 20h-2q-6 -77 -15 -122l-65 -333h-175zM270 761q31 153 149 153q21 0 38 -9.5t26.5 -20.5t21 -20.5t22.5 -9.5q33 0 44 57 h113q-30 -153 -148 -153q-25 0 -45 15t-35.5 30t-28.5 15q-32 0 -44 -57h-113z" />
<glyph unicode="&#xd2;" horiz-adv-x="820" d="M44 307q0 111 58.5 208.5t155.5 154.5t205 57q152 0 244.5 -87.5t92.5 -224.5q0 -113 -59.5 -212t-156.5 -157t-204 -58q-152 0 -244 89.5t-92 229.5zM224 317q0 -75 44 -122t114 -47q91 0 164 75.5t73 180.5q0 73 -44 118t-114 45q-92 0 -164.5 -73.5t-72.5 -176.5z M427 761l-88 150h165l51 -150h-128z" />
<glyph unicode="&#xd3;" horiz-adv-x="820" d="M44 307q0 111 58.5 208.5t155.5 154.5t205 57q152 0 244.5 -87.5t92.5 -224.5q0 -113 -59.5 -212t-156.5 -157t-204 -58q-152 0 -244 89.5t-92 229.5zM224 317q0 -75 44 -122t114 -47q91 0 164 75.5t73 180.5q0 73 -44 118t-114 45q-92 0 -164.5 -73.5t-72.5 -176.5z M424 761l111 150h177l-148 -150h-140z" />
<glyph unicode="&#xd4;" horiz-adv-x="820" d="M44 307q0 111 58.5 208.5t155.5 154.5t205 57q152 0 244.5 -87.5t92.5 -224.5q0 -113 -59.5 -212t-156.5 -157t-204 -58q-152 0 -244 89.5t-92 229.5zM224 317q0 -75 44 -122t114 -47q91 0 164 75.5t73 180.5q0 73 -44 118t-114 45q-92 0 -164.5 -73.5t-72.5 -176.5z M311 761l129 150h168l69 -150h-130l-31 82h-2l-63 -82h-140z" />
<glyph unicode="&#xd5;" horiz-adv-x="820" d="M44 307q0 111 58.5 208.5t155.5 154.5t205 57q152 0 244.5 -87.5t92.5 -224.5q0 -113 -59.5 -212t-156.5 -157t-204 -58q-152 0 -244 89.5t-92 229.5zM224 317q0 -75 44 -122t114 -47q91 0 164 75.5t73 180.5q0 73 -44 118t-114 45q-92 0 -164.5 -73.5t-72.5 -176.5z M306 761q31 153 149 153q21 0 38 -9.5t26.5 -20.5t21 -20.5t22.5 -9.5q33 0 44 57h113q-30 -153 -148 -153q-25 0 -45 15t-35.5 30t-28.5 15q-32 0 -44 -57h-113z" />
<glyph unicode="&#xd6;" horiz-adv-x="820" d="M44 307q0 111 58.5 208.5t155.5 154.5t205 57q152 0 244.5 -87.5t92.5 -224.5q0 -113 -59.5 -212t-156.5 -157t-204 -58q-152 0 -244 89.5t-92 229.5zM224 317q0 -75 44 -122t114 -47q91 0 164 75.5t73 180.5q0 73 -44 118t-114 45q-92 0 -164.5 -73.5t-72.5 -176.5z M543 771l28 140h126l-28 -140h-126zM334 771l28 140h126l-28 -140h-126z" />
<glyph unicode="&#xd7;" horiz-adv-x="600" d="M26 92l182 195l-182 196l92 92l179 -192l180 192l92 -92l-183 -196l183 -195l-92 -92l-180 192l-179 -192z" />
<glyph unicode="&#xd8;" horiz-adv-x="820" d="M46 25l69 74q-71 85 -71 208q0 111 58.5 208.5t155.5 154.5t205 57q109 0 191 -48l59 64l65 -52l-59 -64q81 -84 81 -212q0 -113 -59.5 -212t-156.5 -157t-204 -58q-119 0 -203 56l-66 -72zM241 235l293 316q-34 16 -73 16q-92 0 -164.5 -73.5t-72.5 -176.5q0 -46 17 -82 zM296 171q37 -23 86 -23q91 0 164 75.5t73 180.5q0 49 -23 90z" />
<glyph unicode="&#xd9;" horiz-adv-x="734" d="M56 210q0 28 6 58l87 447h175l-88 -452q-3 -15 -3 -28q0 -42 28 -64.5t77 -22.5q58 0 96.5 29.5t49.5 85.5l88 452h175l-89 -457q-24 -122 -111.5 -196t-214.5 -74q-118 0 -197 59t-79 163zM385 761l-88 150h165l51 -150h-128z" />
<glyph unicode="&#xda;" horiz-adv-x="734" d="M56 210q0 28 6 58l87 447h175l-88 -452q-3 -15 -3 -28q0 -42 28 -64.5t77 -22.5q58 0 96.5 29.5t49.5 85.5l88 452h175l-89 -457q-24 -122 -111.5 -196t-214.5 -74q-118 0 -197 59t-79 163zM382 761l111 150h177l-148 -150h-140z" />
<glyph unicode="&#xdb;" horiz-adv-x="734" d="M56 210q0 28 6 58l87 447h175l-88 -452q-3 -15 -3 -28q0 -42 28 -64.5t77 -22.5q58 0 96.5 29.5t49.5 85.5l88 452h175l-89 -457q-24 -122 -111.5 -196t-214.5 -74q-118 0 -197 59t-79 163zM269 761l129 150h168l69 -150h-130l-31 82h-2l-63 -82h-140z" />
<glyph unicode="&#xdc;" horiz-adv-x="734" d="M56 210q0 28 6 58l87 447h175l-88 -452q-3 -15 -3 -28q0 -42 28 -64.5t77 -22.5q58 0 96.5 29.5t49.5 85.5l88 452h175l-89 -457q-24 -122 -111.5 -196t-214.5 -74q-118 0 -197 59t-79 163zM501 771l28 140h126l-28 -140h-126zM292 771l28 140h126l-28 -140h-126z" />
<glyph unicode="&#xdd;" horiz-adv-x="625" d="M162 0l57 293l-149 422h189l48 -172l23 -103h2q31 53 63 103l109 172h210l-322 -429l-55 -286h-175zM321 761l111 150h177l-148 -150h-140z" />
<glyph unicode="&#xde;" horiz-adv-x="631" d="M18 0l139 715h175l-21 -106h99q100 0 156.5 -55t56.5 -148q0 -122 -80.5 -206.5t-193.5 -84.5h-134l-22 -115h-175zM245 265h85q51 0 82 35.5t31 89.5q0 32 -18.5 50.5t-53.5 18.5h-89z" />
<glyph unicode="&#xdf;" horiz-adv-x="626" d="M1 0l104 537q17 90 94 140t173 50q94 0 156.5 -46.5t62.5 -122.5q0 -39 -16.5 -71t-36 -48t-36 -35t-16.5 -35q0 -18 15 -39t33.5 -38t33.5 -46t15 -61q0 -80 -65 -136t-150 -56q-82 0 -135 21l28 139q38 -16 91 -16q22 0 40 11t18 36q0 18 -15.5 38.5t-34.5 37 t-34.5 42.5t-15.5 54t11 53t27 42t31.5 32t26.5 30t11 28q0 19 -14 30.5t-39 11.5q-77 0 -90 -68l-100 -515h-173z" />
<glyph unicode="&#xe0;" horiz-adv-x="547" d="M-8 124q0 54 31.5 94.5t83 61.5t105 31t107.5 10h8q3 14 3 21q0 45 -66 45q-55 0 -149 -47l-37 130q34 19 97.5 38t122.5 19q36 0 69 -8t65 -25t51 -51t19 -80q0 -20 -5 -50l-60 -313h-158l6 31l9 32h-2q-22 -28 -61.5 -51.5t-90.5 -23.5q-61 0 -104.5 36.5t-43.5 99.5z M161 153q0 -36 43 -36q33 0 64.5 28.5t37.5 60.5l3 16h-18q-18 0 -36.5 -2.5t-41.5 -9t-37.5 -21.5t-14.5 -36zM249 565l-88 150h165l51 -150h-128z" />
<glyph unicode="&#xe1;" horiz-adv-x="547" d="M-8 124q0 54 31.5 94.5t83 61.5t105 31t107.5 10h8q3 14 3 21q0 45 -66 45q-55 0 -149 -47l-37 130q34 19 97.5 38t122.5 19q36 0 69 -8t65 -25t51 -51t19 -80q0 -20 -5 -50l-60 -313h-158l6 31l9 32h-2q-22 -28 -61.5 -51.5t-90.5 -23.5q-61 0 -104.5 36.5t-43.5 99.5z M161 153q0 -36 43 -36q33 0 64.5 28.5t37.5 60.5l3 16h-18q-18 0 -36.5 -2.5t-41.5 -9t-37.5 -21.5t-14.5 -36zM246 565l111 150h177l-148 -150h-140z" />
<glyph unicode="&#xe2;" horiz-adv-x="547" d="M-8 124q0 54 31.5 94.5t83 61.5t105 31t107.5 10h8q3 14 3 21q0 45 -66 45q-55 0 -149 -47l-37 130q34 19 97.5 38t122.5 19q36 0 69 -8t65 -25t51 -51t19 -80q0 -20 -5 -50l-60 -313h-158l6 31l9 32h-2q-22 -28 -61.5 -51.5t-90.5 -23.5q-61 0 -104.5 36.5t-43.5 99.5z M161 153q0 -36 43 -36q33 0 64.5 28.5t37.5 60.5l3 16h-18q-18 0 -36.5 -2.5t-41.5 -9t-37.5 -21.5t-14.5 -36zM133 565l129 150h168l69 -150h-130l-31 82h-2l-63 -82h-140z" />
<glyph unicode="&#xe3;" horiz-adv-x="547" d="M-8 124q0 54 31.5 94.5t83 61.5t105 31t107.5 10h8q3 14 3 21q0 45 -66 45q-55 0 -149 -47l-37 130q34 19 97.5 38t122.5 19q36 0 69 -8t65 -25t51 -51t19 -80q0 -20 -5 -50l-60 -313h-158l6 31l9 32h-2q-22 -28 -61.5 -51.5t-90.5 -23.5q-61 0 -104.5 36.5t-43.5 99.5z M161 153q0 -36 43 -36q33 0 64.5 28.5t37.5 60.5l3 16h-18q-18 0 -36.5 -2.5t-41.5 -9t-37.5 -21.5t-14.5 -36zM128 565q31 153 149 153q21 0 38 -9.5t26.5 -20.5t21 -20.5t22.5 -9.5q33 0 44 57h113q-30 -153 -148 -153q-25 0 -45 15t-35.5 30t-28.5 15q-32 0 -44 -57h-113 z" />
<glyph unicode="&#xe4;" horiz-adv-x="547" d="M-8 124q0 54 31.5 94.5t83 61.5t105 31t107.5 10h8q3 14 3 21q0 45 -66 45q-55 0 -149 -47l-37 130q34 19 97.5 38t122.5 19q36 0 69 -8t65 -25t51 -51t19 -80q0 -20 -5 -50l-60 -313h-158l6 31l9 32h-2q-22 -28 -61.5 -51.5t-90.5 -23.5q-61 0 -104.5 36.5t-43.5 99.5z M161 153q0 -36 43 -36q33 0 64.5 28.5t37.5 60.5l3 16h-18q-18 0 -36.5 -2.5t-41.5 -9t-37.5 -21.5t-14.5 -36zM365 575l28 140h126l-28 -140h-126zM156 575l28 140h126l-28 -140h-126z" />
<glyph unicode="&#xe5;" horiz-adv-x="547" d="M-8 124q0 54 31.5 94.5t83 61.5t105 31t107.5 10h8q3 14 3 21q0 45 -66 45q-55 0 -149 -47l-37 130q34 19 97.5 38t122.5 19q36 0 69 -8t65 -25t51 -51t19 -80q0 -20 -5 -50l-60 -313h-158l6 31l9 32h-2q-22 -28 -61.5 -51.5t-90.5 -23.5q-61 0 -104.5 36.5t-43.5 99.5z M161 153q0 -36 43 -36q33 0 64.5 28.5t37.5 60.5l3 16h-18q-18 0 -36.5 -2.5t-41.5 -9t-37.5 -21.5t-14.5 -36zM323 551q-41 0 -70 19t-29 54q0 47 37.5 72.5t84.5 25.5q42 0 71 -19.5t29 -56.5q0 -46 -38.5 -70.5t-84.5 -24.5zM328 601q18 0 30.5 12.5t12.5 30.5 q0 28 -29 28q-17 0 -29.5 -12.5t-12.5 -32.5q0 -26 28 -26z" />
<glyph unicode="&#xe6;" horiz-adv-x="852" d="M-9 121q0 55 32.5 96.5t84.5 63.5t106 32t108 10h7q2 10 2 18q0 46 -65 46t-149 -47l-37 130q112 57 220 57q87 0 146 -53h2q72 53 153 53q107 0 163.5 -55t56.5 -147q0 -47 -19 -101h-325q0 -12 4 -30q17 -62 97 -62q74 0 153 52l44 -129q-32 -25 -92 -46t-116 -21 q-143 0 -214 91h-2q-7 -11 -17.5 -22.5t-32.5 -29t-58.5 -28.5t-80.5 -11q-71 0 -121 35.5t-50 97.5zM500 323h152q1 12 1 18q0 25 -14.5 40.5t-40.5 15.5q-69 0 -98 -74zM165 153q0 -33 42 -33q33 0 64.5 29t37.5 62l2 13h-16q-17 0 -36.5 -3t-42 -9.5t-37 -22t-14.5 -36.5 z" />
<glyph unicode="&#xe7;" horiz-adv-x="555" d="M162 -82l40 78q-88 18 -135.5 80t-47.5 148q0 117 91 210t231 93q134 0 210 -76l-87 -108q-21 18 -53.5 29t-61.5 11q-68 0 -111.5 -46.5t-43.5 -102.5q0 -43 27 -72.5t79 -29.5q67 0 154 62l44 -131q-39 -32 -100 -53t-120 -22l-10 -24q24 -5 43 -21t19 -45 q0 -56 -40.5 -82t-91.5 -26q-39 0 -75 9l16 85q16 -8 44 -8q43 0 43 26q0 18 -37 18q-7 0 -27 -2z" />
<glyph unicode="&#xe8;" horiz-adv-x="566" d="M19 213q0 134 85 224t212 90q107 0 163.5 -55t56.5 -147q0 -42 -19 -101h-325v-6q0 -39 27 -62.5t74 -23.5q71 0 153 52l44 -129q-33 -26 -92.5 -46.5t-115.5 -20.5q-126 0 -194.5 64.5t-68.5 160.5zM272 565l-88 150h165l51 -150h-128zM215 323h152q1 6 1 18 q0 27 -14.5 43t-40.5 16q-70 0 -98 -77z" />
<glyph unicode="&#xe9;" horiz-adv-x="566" d="M19 213q0 134 85 224t212 90q107 0 163.5 -55t56.5 -147q0 -42 -19 -101h-325v-6q0 -39 27 -62.5t74 -23.5q71 0 153 52l44 -129q-33 -26 -92.5 -46.5t-115.5 -20.5q-126 0 -194.5 64.5t-68.5 160.5zM269 565l111 150h177l-148 -150h-140zM215 323h152q1 6 1 18 q0 27 -14.5 43t-40.5 16q-70 0 -98 -77z" />
<glyph unicode="&#xea;" horiz-adv-x="566" d="M19 213q0 134 85 224t212 90q107 0 163.5 -55t56.5 -147q0 -42 -19 -101h-325v-6q0 -39 27 -62.5t74 -23.5q71 0 153 52l44 -129q-33 -26 -92.5 -46.5t-115.5 -20.5q-126 0 -194.5 64.5t-68.5 160.5zM156 565l129 150h168l69 -150h-130l-31 82h-2l-63 -82h-140zM215 323 h152q1 6 1 18q0 27 -14.5 43t-40.5 16q-70 0 -98 -77z" />
<glyph unicode="&#xeb;" horiz-adv-x="566" d="M19 213q0 134 85 224t212 90q107 0 163.5 -55t56.5 -147q0 -42 -19 -101h-325v-6q0 -39 27 -62.5t74 -23.5q71 0 153 52l44 -129q-33 -26 -92.5 -46.5t-115.5 -20.5q-126 0 -194.5 64.5t-68.5 160.5zM179 575l28 140h126l-28 -140h-126zM388 575l28 140h126l-28 -140 h-126zM215 323h152q1 6 1 18q0 27 -14.5 43t-40.5 16q-70 0 -98 -77z" />
<glyph unicode="&#xec;" horiz-adv-x="289" d="M1 0l99 515h173l-100 -515h-172zM124 565l-88 150h165l51 -150h-128z" />
<glyph unicode="&#xed;" horiz-adv-x="289" d="M1 0l99 515h173l-100 -515h-172zM120 565l111 150h177l-148 -150h-140z" />
<glyph unicode="&#xee;" horiz-adv-x="289" d="M1 0l99 515h173l-100 -515h-172zM8 565l129 150h168l69 -150h-130l-31 82h-2l-63 -82h-140z" />
<glyph unicode="&#xef;" horiz-adv-x="289" d="M1 0l99 515h173l-100 -515h-172zM240 575l28 140h126l-28 -140h-126zM31 575l28 140h126l-28 -140h-126z" />
<glyph unicode="&#xf0;" horiz-adv-x="589" d="M15 202q0 102 79 182t200 80q17 0 36 -4t30 -8l10 -4h2q-15 37 -62 76l-213 -80l20 98l104 39q-49 25 -90 33l70 124q120 -31 201 -89l188 70l-19 -98l-98 -37q85 -98 85 -237q0 -44 -10 -90.5t-33.5 -95t-57.5 -87t-86.5 -62.5t-115.5 -24q-114 0 -177 61t-63 153z M190 204q0 -72 66 -72q51 0 84.5 43.5t33.5 93.5q0 29 -18 46t-52 17q-54 0 -84 -38t-30 -90z" />
<glyph unicode="&#xf1;" horiz-adv-x="627" d="M1 0l100 515h167l-5 -26l-13 -51h2q23 36 72 62.5t100 26.5q73 0 117.5 -35t44.5 -111q0 -20 -7 -57l-63 -324h-173l58 296q3 18 3 30q0 44 -46 44q-50 0 -89.5 -42t-50.5 -100l-44 -228h-173zM178 565q31 153 149 153q21 0 38 -9.5t26.5 -20.5t21 -20.5t22.5 -9.5 q33 0 44 57h113q-30 -153 -148 -153q-25 0 -45 15t-35.5 30t-28.5 15q-32 0 -44 -57h-113z" />
<glyph unicode="&#xf2;" horiz-adv-x="640" d="M18 219q0 131 97.5 219.5t223.5 88.5q117 0 192 -63.5t75 -167.5q0 -132 -98 -220t-223 -88q-118 0 -192.5 63t-74.5 168zM193 227q0 -44 26.5 -69.5t68.5 -25.5q55 0 99 43t44 110q0 45 -26.5 71.5t-67.5 26.5q-54 0 -99 -44.5t-45 -111.5zM300 565l-88 150h165l51 -150 h-128z" />
<glyph unicode="&#xf3;" horiz-adv-x="640" d="M18 219q0 131 97.5 219.5t223.5 88.5q117 0 192 -63.5t75 -167.5q0 -132 -98 -220t-223 -88q-118 0 -192.5 63t-74.5 168zM193 227q0 -44 26.5 -69.5t68.5 -25.5q55 0 99 43t44 110q0 45 -26.5 71.5t-67.5 26.5q-54 0 -99 -44.5t-45 -111.5zM297 565l111 150h177 l-148 -150h-140z" />
<glyph unicode="&#xf4;" horiz-adv-x="640" d="M18 219q0 131 97.5 219.5t223.5 88.5q117 0 192 -63.5t75 -167.5q0 -132 -98 -220t-223 -88q-118 0 -192.5 63t-74.5 168zM193 227q0 -44 26.5 -69.5t68.5 -25.5q55 0 99 43t44 110q0 45 -26.5 71.5t-67.5 26.5q-54 0 -99 -44.5t-45 -111.5zM184 565l129 150h168l69 -150 h-130l-31 82h-2l-63 -82h-140z" />
<glyph unicode="&#xf5;" horiz-adv-x="640" d="M18 219q0 131 97.5 219.5t223.5 88.5q117 0 192 -63.5t75 -167.5q0 -132 -98 -220t-223 -88q-118 0 -192.5 63t-74.5 168zM193 227q0 -44 26.5 -69.5t68.5 -25.5q55 0 99 43t44 110q0 45 -26.5 71.5t-67.5 26.5q-54 0 -99 -44.5t-45 -111.5zM179 565q31 153 149 153 q21 0 38 -9.5t26.5 -20.5t21 -20.5t22.5 -9.5q34 0 44 57h113q-30 -153 -148 -153q-25 0 -45 15t-35.5 30t-28.5 15q-32 0 -44 -57h-113z" />
<glyph unicode="&#xf6;" horiz-adv-x="640" d="M18 219q0 131 97.5 219.5t223.5 88.5q117 0 192 -63.5t75 -167.5q0 -132 -98 -220t-223 -88q-118 0 -192.5 63t-74.5 168zM193 227q0 -44 26.5 -69.5t68.5 -25.5q55 0 99 43t44 110q0 45 -26.5 71.5t-67.5 26.5q-54 0 -99 -44.5t-45 -111.5zM416 575l28 140h126l-28 -140 h-126zM207 575l28 140h126l-28 -140h-126z" />
<glyph unicode="&#xf7;" horiz-adv-x="600" d="M225 440v135h146v-135h-146zM25 222v130h546v-130h-546zM225 0v135h146v-135h-146z" />
<glyph unicode="&#xf8;" horiz-adv-x="640" d="M23 1l57 61q-62 64 -62 157q0 131 97.5 219.5t223.5 88.5q83 0 145 -32l60 64l62 -50l-58 -62q58 -63 58 -151q0 -132 -98 -220t-223 -88q-77 0 -138 28l-62 -66zM199 189l175 187q-15 7 -37 7q-54 0 -99 -44.5t-45 -111.5q0 -22 6 -38zM258 135q14 -3 30 -3q55 0 99 43 t44 110q0 12 -4 32z" />
<glyph unicode="&#xf9;" horiz-adv-x="620" d="M25 134q0 20 7 57l63 324h173l-58 -296q-3 -18 -3 -30q0 -44 46 -44q48 0 85.5 42t48.5 100l44 228h173l-100 -515h-167l5 26l13 51h-2q-23 -37 -69 -63t-97 -26q-73 0 -117.5 35t-44.5 111zM287 565l-88 150h165l51 -150h-128z" />
<glyph unicode="&#xfa;" horiz-adv-x="620" d="M25 134q0 20 7 57l63 324h173l-58 -296q-3 -18 -3 -30q0 -44 46 -44q48 0 85.5 42t48.5 100l44 228h173l-100 -515h-167l5 26l13 51h-2q-23 -37 -69 -63t-97 -26q-73 0 -117.5 35t-44.5 111zM284 565l111 150h177l-148 -150h-140z" />
<glyph unicode="&#xfb;" horiz-adv-x="620" d="M25 134q0 20 7 57l63 324h173l-58 -296q-3 -18 -3 -30q0 -44 46 -44q48 0 85.5 42t48.5 100l44 228h173l-100 -515h-167l5 26l13 51h-2q-23 -37 -69 -63t-97 -26q-73 0 -117.5 35t-44.5 111zM171 565l129 150h168l69 -150h-130l-31 82h-2l-63 -82h-140z" />
<glyph unicode="&#xfc;" horiz-adv-x="620" d="M25 134q0 20 7 57l63 324h173l-58 -296q-3 -18 -3 -30q0 -44 46 -44q48 0 85.5 42t48.5 100l44 228h173l-100 -515h-167l5 26l13 51h-2q-23 -37 -69 -63t-97 -26q-73 0 -117.5 35t-44.5 111zM403 575l28 140h126l-28 -140h-126zM194 575l28 140h126l-28 -140h-126z" />
<glyph unicode="&#xfd;" horiz-adv-x="567" d="M-4 -50q21 -16 51 -16q61 0 93 52l15 24l-121 505h180l42 -255l5 -76h2q18 45 31 73l115 258h194l-322 -570q-45 -79 -105 -117t-120 -38q-73 0 -135 40zM260 565l111 150h177l-148 -150h-140z" />
<glyph unicode="&#xfe;" horiz-adv-x="633" d="M172 -2l-38 -198h-172l177 915h170l-40 -208l-9 -33h2q55 53 137 53q92 0 145.5 -60.5t53.5 -163.5q0 -135 -86 -225t-196 -90q-37 0 -74.5 14t-60.5 40h-2q-2 -18 -7 -44zM214 222q0 -40 20 -65.5t60 -25.5q49 0 89 44t40 115q0 42 -21.5 66.5t-58.5 24.5 q-45 0 -87 -44.5t-42 -114.5z" />
<glyph unicode="&#xff;" horiz-adv-x="567" d="M-4 -50q21 -16 51 -16q61 0 93 52l15 24l-121 505h180l42 -255l5 -76h2q18 45 31 73l115 258h194l-322 -570q-45 -79 -105 -117t-120 -38q-73 0 -135 40zM379 575l28 140h126l-28 -140h-126zM170 575l28 140h126l-28 -140h-126z" />
<glyph unicode="&#x100;" horiz-adv-x="668" d="M-57 0l372 715h201l99 -715h-175l-15 150h-223l-72 -150h-187zM270 290h141l-14 139l-6 123h-2q-29 -78 -51 -123zM293 782l22 112h275l-22 -112h-275z" />
<glyph unicode="&#x101;" horiz-adv-x="547" d="M-8 124q0 54 31.5 94.5t83 61.5t105 31t107.5 10h8q3 14 3 21q0 45 -66 45q-55 0 -149 -47l-37 130q34 19 97.5 38t122.5 19q36 0 69 -8t65 -25t51 -51t19 -80q0 -20 -5 -50l-60 -313h-158l6 31l9 32h-2q-22 -28 -61.5 -51.5t-90.5 -23.5q-61 0 -104.5 36.5t-43.5 99.5z M161 153q0 -36 43 -36q33 0 64.5 28.5t37.5 60.5l3 16h-18q-18 0 -36.5 -2.5t-41.5 -9t-37.5 -21.5t-14.5 -36zM188 586l22 112h275l-22 -112h-275z" />
<glyph unicode="&#x102;" horiz-adv-x="668" d="M-57 0l372 715h201l99 -715h-175l-15 150h-223l-72 -150h-187zM270 290h141l-14 139l-6 123h-2q-29 -78 -51 -123zM437 756q-70 0 -117 32t-47 88q0 15 5 35h117q-4 -12 -4 -24q0 -23 14 -34t33 -11q24 0 45 17t26 52h117q-14 -77 -65.5 -116t-123.5 -39z" />
<glyph unicode="&#x103;" horiz-adv-x="547" d="M-8 124q0 54 31.5 94.5t83 61.5t105 31t107.5 10h8q3 14 3 21q0 45 -66 45q-55 0 -149 -47l-37 130q34 19 97.5 38t122.5 19q36 0 69 -8t65 -25t51 -51t19 -80q0 -20 -5 -50l-60 -313h-158l6 31l9 32h-2q-22 -28 -61.5 -51.5t-90.5 -23.5q-61 0 -104.5 36.5t-43.5 99.5z M161 153q0 -36 43 -36q33 0 64.5 28.5t37.5 60.5l3 16h-18q-18 0 -36.5 -2.5t-41.5 -9t-37.5 -21.5t-14.5 -36zM332 560q-70 0 -117 32t-47 88q0 15 5 35h117q-4 -12 -4 -24q0 -23 14 -34t33 -11q24 0 45 17t26 52h117q-14 -77 -65.5 -116t-123.5 -39z" />
<glyph unicode="&#x104;" horiz-adv-x="668" d="M-57 0l372 715h201l99 -715q-54 -44 -54 -64q0 -8 8.5 -13.5t16.5 -6.5l8 -2l-66 -124q-5 0 -12.5 1.5t-27.5 7t-35 14t-27.5 25t-12.5 36.5q0 66 87 126h-60l-15 150h-223l-72 -150h-187zM270 290h141l-14 139l-6 123h-2q-29 -78 -51 -123z" />
<glyph unicode="&#x105;" horiz-adv-x="547" d="M-8 124q0 54 31.5 94.5t83 61.5t105 31t107.5 10h8q3 14 3 21q0 45 -66 45q-55 0 -149 -47l-37 130q34 19 97.5 38t122.5 19q36 0 69 -8t65 -25t51 -51t19 -80q0 -20 -5 -50l-60 -313q-54 -44 -54 -64q0 -8 8.5 -13.5t16.5 -6.5l8 -2l-66 -124q-5 0 -12.5 1.5t-27.5 7 t-35 14t-27.5 25t-12.5 36.5q0 66 87 126h-43l6 31l9 32h-2q-22 -28 -61.5 -51.5t-90.5 -23.5q-61 0 -104.5 36.5t-43.5 99.5zM161 153q0 -36 43 -36q33 0 64.5 28.5t37.5 60.5l3 16h-18q-18 0 -36.5 -2.5t-41.5 -9t-37.5 -21.5t-14.5 -36z" />
<glyph unicode="&#x106;" horiz-adv-x="717" d="M45 305q0 173 124 297.5t296 124.5q79 0 153 -25.5t123 -77.5l-99 -120q-74 63 -171 63q-111 0 -178 -78t-67 -172q0 -73 42.5 -121t123.5 -48q102 0 209 85l68 -139q-51 -46 -130.5 -76t-156.5 -30q-155 0 -246 88t-91 229zM417 761l111 150h177l-148 -150h-140z" />
<glyph unicode="&#x107;" horiz-adv-x="554" d="M19 224q0 117 91 210t231 93q134 0 210 -76l-87 -108q-21 18 -53.5 29t-61.5 11q-68 0 -111.5 -46.5t-43.5 -102.5q0 -43 27 -72.5t79 -29.5q67 0 154 62l44 -131q-39 -32 -101 -53.5t-121 -21.5q-123 0 -190 66.5t-67 169.5zM273 565l111 150h177l-148 -150h-140z" />
<glyph unicode="&#x108;" horiz-adv-x="717" d="M45 305q0 173 124 297.5t296 124.5q79 0 153 -25.5t123 -77.5l-99 -120q-74 63 -171 63q-111 0 -178 -78t-67 -172q0 -73 42.5 -121t123.5 -48q102 0 209 85l68 -139q-51 -46 -130.5 -76t-156.5 -30q-155 0 -246 88t-91 229zM304 761l129 150h168l69 -150h-130l-31 82h-2 l-63 -82h-140z" />
<glyph unicode="&#x109;" horiz-adv-x="554" d="M19 224q0 117 91 210t231 93q134 0 210 -76l-87 -108q-21 18 -53.5 29t-61.5 11q-68 0 -111.5 -46.5t-43.5 -102.5q0 -43 27 -72.5t79 -29.5q67 0 154 62l44 -131q-39 -32 -101 -53.5t-121 -21.5q-123 0 -190 66.5t-67 169.5zM160 565l129 150h168l69 -150h-130l-31 82 h-2l-63 -82h-140z" />
<glyph unicode="&#x10a;" horiz-adv-x="717" d="M45 305q0 173 124 297.5t296 124.5q79 0 153 -25.5t123 -77.5l-99 -120q-74 63 -171 63q-111 0 -178 -78t-67 -172q0 -73 42.5 -121t123.5 -48q102 0 209 85l68 -139q-51 -46 -130.5 -76t-156.5 -30q-155 0 -246 88t-91 229zM425 779l26 132h143l-26 -132h-143z" />
<glyph unicode="&#x10b;" horiz-adv-x="554" d="M19 224q0 117 91 210t231 93q134 0 210 -76l-87 -108q-21 18 -53.5 29t-61.5 11q-68 0 -111.5 -46.5t-43.5 -102.5q0 -43 27 -72.5t79 -29.5q67 0 154 62l44 -131q-39 -32 -101 -53.5t-121 -21.5q-123 0 -190 66.5t-67 169.5zM281 583l26 132h143l-26 -132h-143z" />
<glyph unicode="&#x10c;" horiz-adv-x="717" d="M45 305q0 173 124 297.5t296 124.5q79 0 153 -25.5t123 -77.5l-99 -120q-74 63 -171 63q-111 0 -178 -78t-67 -172q0 -73 42.5 -121t123.5 -48q102 0 209 85l68 -139q-51 -46 -130.5 -76t-156.5 -30q-155 0 -246 88t-91 229zM413 761l-69 150h130l31 -82h2l63 82h140 l-129 -150h-168z" />
<glyph unicode="&#x10d;" horiz-adv-x="554" d="M19 224q0 117 91 210t231 93q134 0 210 -76l-87 -108q-21 18 -53.5 29t-61.5 11q-68 0 -111.5 -46.5t-43.5 -102.5q0 -43 27 -72.5t79 -29.5q67 0 154 62l44 -131q-39 -32 -101 -53.5t-121 -21.5q-123 0 -190 66.5t-67 169.5zM269 565l-69 150h130l31 -82h2l63 82h140 l-129 -150h-168z" />
<glyph unicode="&#x10e;" horiz-adv-x="738" d="M19 0l138 715h229q156 0 243.5 -74.5t87.5 -208.5q0 -182 -118 -307t-301 -125h-279zM223 150h72q108 0 175 77t67 189q0 73 -42.5 111t-118.5 38h-72zM355 761l-69 150h130l31 -82h2l63 82h140l-129 -150h-168z" />
<glyph unicode="&#x10f;" horiz-adv-x="656" d="M20 209q0 139 85.5 228.5t203.5 89.5q92 0 130 -46h2q1 13 3 23l41 211h173l-139 -715h-162l7 34l7 30h-2q-57 -76 -149 -76q-94 0 -147 60t-53 161zM195 222q0 -42 22 -66.5t59 -24.5q45 0 86.5 45.5t41.5 113.5q0 40 -20 65.5t-60 25.5q-48 0 -88.5 -44t-40.5 -115z M703 715h136v-18q0 -39 -12 -70t-41 -73h-123q23 41 32.5 68.5t9.5 62.5q0 8 -2 30z" />
<glyph unicode="&#x110;" horiz-adv-x="742" d="M23 0l55 284h-57l27 140h57l56 291h229q156 0 243.5 -74.5t87.5 -208.5q0 -182 -118 -307t-301 -125h-279zM227 150h72q108 0 175 77t67 189q0 73 -42.5 111t-118.5 38h-72l-28 -141h104l-27 -140h-104z" />
<glyph unicode="&#x111;" horiz-adv-x="635" d="M20 209q0 139 85.5 228.5t203.5 89.5q92 0 130 -46h2q1 13 3 23l9 50h-125l19 95h125l13 66h173l-13 -66h67l-19 -95h-67l-107 -554h-162l7 34l6 29h-2q-56 -75 -148 -75q-94 0 -147 60t-53 161zM195 222q0 -42 22 -66.5t59 -24.5q45 0 86.5 45.5t41.5 113.5 q0 40 -20 65.5t-60 25.5q-48 0 -88.5 -44t-40.5 -115z" />
<glyph unicode="&#x112;" horiz-adv-x="575" d="M18 0l140 715h447l-29 -150h-273l-25 -130h217l-30 -150h-217l-26 -135h287l-29 -150h-462zM265 782l22 112h275l-22 -112h-275z" />
<glyph unicode="&#x113;" horiz-adv-x="566" d="M19 213q0 134 85 224t212 90q107 0 163.5 -55t56.5 -147q0 -42 -19 -101h-325v-6q0 -39 27 -62.5t74 -23.5q71 0 153 52l44 -129q-33 -26 -92.5 -46.5t-115.5 -20.5q-126 0 -194.5 64.5t-68.5 160.5zM211 586l22 112h275l-22 -112h-275zM215 323h152q1 6 1 18 q0 27 -14.5 43t-40.5 16q-70 0 -98 -77z" />
<glyph unicode="&#x114;" horiz-adv-x="575" d="M18 0l140 715h447l-29 -150h-273l-25 -130h217l-30 -150h-217l-26 -135h287l-29 -150h-462zM409 756q-70 0 -117 32t-47 88q0 15 5 35h117q-4 -12 -4 -24q0 -23 14 -34t33 -11q24 0 45 17t26 52h117q-14 -77 -65.5 -116t-123.5 -39z" />
<glyph unicode="&#x115;" horiz-adv-x="566" d="M19 213q0 134 85 224t212 90q107 0 163.5 -55t56.5 -147q0 -42 -19 -101h-325v-6q0 -39 27 -62.5t74 -23.5q71 0 153 52l44 -129q-33 -26 -92.5 -46.5t-115.5 -20.5q-126 0 -194.5 64.5t-68.5 160.5zM355 560q-70 0 -117 32t-47 88q0 15 5 35h117q-4 -12 -4 -24 q0 -23 14 -34t33 -11q24 0 45 17t26 52h117q-14 -77 -65.5 -116t-123.5 -39zM215 323h152q1 6 1 18q0 27 -14.5 43t-40.5 16q-70 0 -98 -77z" />
<glyph unicode="&#x116;" horiz-adv-x="575" d="M18 0l140 715h447l-29 -150h-273l-25 -130h217l-30 -150h-217l-26 -135h287l-29 -150h-462zM331 779l26 132h143l-26 -132h-143z" />
<glyph unicode="&#x117;" horiz-adv-x="566" d="M19 213q0 134 85 224t212 90q107 0 163.5 -55t56.5 -147q0 -42 -19 -101h-325v-6q0 -39 27 -62.5t74 -23.5q71 0 153 52l44 -129q-33 -26 -92.5 -46.5t-115.5 -20.5q-126 0 -194.5 64.5t-68.5 160.5zM277 583l26 132h143l-26 -132h-143zM215 323h152q1 6 1 18 q0 27 -14.5 43t-40.5 16q-70 0 -98 -77z" />
<glyph unicode="&#x118;" horiz-adv-x="575" d="M18 0l140 715h447l-29 -150h-273l-25 -130h217l-30 -150h-217l-26 -135h287l-29 -150q-56 -45 -56 -64q0 -8 9 -13.5t18 -6.5l9 -2l-66 -124q-5 0 -12.5 1.5t-27.5 7t-35 14t-27.5 25t-12.5 36.5q0 63 84 124v2h-345z" />
<glyph unicode="&#x119;" horiz-adv-x="567" d="M19 213q0 134 85 224t212 90q107 0 163.5 -55t56.5 -147q0 -21 -5 -46t-9 -40l-5 -15h-323q-1 -4 -1 -12q0 -36 27 -58t73 -22q33 0 71.5 13t59.5 26l22 13l44 -129q-5 -4 -47 -28t-68 -47t-26 -44q0 -8 9.5 -13.5t19.5 -6.5l9 -2l-66 -124q-5 0 -12.5 1.5t-27.5 7 t-35 14t-27.5 25t-12.5 36.5q0 59 71 112v2q-124 1 -191 65.5t-67 159.5zM215 323h152q1 12 1 18q0 25 -14.5 40.5t-40.5 15.5q-69 0 -98 -74z" />
<glyph unicode="&#x11a;" horiz-adv-x="575" d="M18 0l140 715h447l-29 -150h-273l-25 -130h217l-30 -150h-217l-26 -135h287l-29 -150h-462zM319 761l-69 150h130l31 -82h2l63 82h140l-129 -150h-168z" />
<glyph unicode="&#x11b;" horiz-adv-x="566" d="M19 213q0 134 85 224t212 90q107 0 163.5 -55t56.5 -147q0 -42 -19 -101h-325v-6q0 -39 27 -62.5t74 -23.5q71 0 153 52l44 -129q-33 -26 -92.5 -46.5t-115.5 -20.5q-126 0 -194.5 64.5t-68.5 160.5zM265 565l-69 150h130l31 -82h2l63 82h140l-129 -150h-168zM215 323 h152q1 6 1 18q0 27 -14.5 43t-40.5 16q-70 0 -98 -77z" />
<glyph unicode="&#x11c;" horiz-adv-x="773" d="M45 304q0 174 124.5 298.5t306.5 124.5q75 0 150.5 -23t124.5 -69l-101 -121q-28 23 -75.5 38t-94.5 15q-120 0 -186.5 -76t-66.5 -175q0 -82 48 -125t120 -43q79 0 155 52l11 55h-101l29 149h256l-79 -404h-146l4 20l7 30h-2q-62 -62 -175 -62q-125 0 -217 85.5 t-92 230.5zM303 761l129 150h168l69 -150h-130l-31 82h-2l-63 -82h-140z" />
<glyph unicode="&#x11d;" horiz-adv-x="624" d="M62 -33q50 -33 141 -33q52 0 90.5 23t47.5 76l3 17l4 19h-1q-51 -54 -124 -54q-98 0 -149 60.5t-51 155.5q0 116 75.5 206t199.5 90q97 0 138 -55h3q1 10 2 16l5 27h162l-93 -478q-26 -129 -112 -188t-196 -59q-134 0 -213 53zM198 246q0 -39 19.5 -63t59.5 -24 q53 0 86 47.5t33 101.5q0 75 -83 75q-52 0 -83.5 -39.5t-31.5 -97.5zM167 565l129 150h168l69 -150h-130l-31 82h-2l-63 -82h-140z" />
<glyph unicode="&#x11e;" horiz-adv-x="773" d="M45 304q0 174 124.5 298.5t306.5 124.5q75 0 150.5 -23t124.5 -69l-101 -121q-28 23 -75.5 38t-94.5 15q-120 0 -186.5 -76t-66.5 -175q0 -82 48 -125t120 -43q79 0 155 52l11 55h-101l29 149h256l-79 -404h-146l4 20l7 30h-2q-62 -62 -175 -62q-125 0 -217 85.5 t-92 230.5zM502 756q-70 0 -117 32t-47 88q0 15 5 35h117q-4 -12 -4 -24q0 -23 14 -34t33 -11q24 0 45 17t26 52h117q-14 -77 -65.5 -116t-123.5 -39z" />
<glyph unicode="&#x11f;" horiz-adv-x="624" d="M62 -33q50 -33 141 -33q52 0 90.5 23t47.5 76l3 17l4 19h-1q-51 -54 -124 -54q-98 0 -149 60.5t-51 155.5q0 116 75.5 206t199.5 90q97 0 138 -55h3q1 10 2 16l5 27h162l-93 -478q-26 -129 -112 -188t-196 -59q-134 0 -213 53zM198 246q0 -39 19.5 -63t59.5 -24 q53 0 86 47.5t33 101.5q0 75 -83 75q-52 0 -83.5 -39.5t-31.5 -97.5zM366 560q-70 0 -117 32t-47 88q0 15 5 35h117q-4 -12 -4 -24q0 -23 14 -34t33 -11q24 0 45 17t26 52h117q-14 -77 -65.5 -116t-123.5 -39z" />
<glyph unicode="&#x120;" horiz-adv-x="773" d="M45 304q0 174 124.5 298.5t306.5 124.5q75 0 150.5 -23t124.5 -69l-101 -121q-28 23 -75.5 38t-94.5 15q-120 0 -186.5 -76t-66.5 -175q0 -82 48 -125t120 -43q79 0 155 52l11 55h-101l29 149h256l-79 -404h-146l4 20l7 30h-2q-62 -62 -175 -62q-125 0 -217 85.5 t-92 230.5zM424 779l26 132h143l-26 -132h-143z" />
<glyph unicode="&#x121;" horiz-adv-x="624" d="M62 -33q50 -33 141 -33q52 0 90.5 23t47.5 76l3 17l4 19h-1q-51 -54 -124 -54q-98 0 -149 60.5t-51 155.5q0 116 75.5 206t199.5 90q97 0 138 -55h3q1 10 2 16l5 27h162l-93 -478q-26 -129 -112 -188t-196 -59q-134 0 -213 53zM198 246q0 -39 19.5 -63t59.5 -24 q53 0 86 47.5t33 101.5q0 75 -83 75q-52 0 -83.5 -39.5t-31.5 -97.5zM288 583l26 132h143l-26 -132h-143z" />
<glyph unicode="&#x122;" horiz-adv-x="773" d="M45 304q0 174 124.5 298.5t306.5 124.5q75 0 150.5 -23t124.5 -69l-101 -121q-28 23 -75.5 38t-94.5 15q-120 0 -186.5 -76t-66.5 -175q0 -82 48 -125t120 -43q79 0 155 52l11 55h-101l29 149h256l-79 -404h-146l4 20l7 30h-2q-62 -62 -175 -62q-125 0 -217 85.5 t-92 230.5zM251 -49h136v-18q0 -39 -12 -70t-41 -73h-123q23 41 32.5 68.5t9.5 62.5q0 8 -2 30z" />
<glyph unicode="&#x123;" horiz-adv-x="624" d="M62 -33q50 -33 141 -33q52 0 90.5 23t47.5 76l3 17l4 19h-1q-51 -54 -124 -54q-98 0 -149 60.5t-51 155.5q0 116 75.5 206t199.5 90q97 0 138 -55h3q1 10 2 16l5 27h162l-93 -478q-26 -129 -112 -188t-196 -59q-134 0 -213 53zM198 246q0 -39 19.5 -63t59.5 -24 q53 0 86 47.5t33 101.5q0 75 -83 75q-52 0 -83.5 -39.5t-31.5 -97.5zM418 560h-135v18q0 37 12 67t41 70h122q-42 -73 -42 -126q0 -7 2 -29z" />
<glyph unicode="&#x124;" horiz-adv-x="762" d="M18 0l139 715h175l-56 -286h260l56 286h175l-139 -715h-175l54 280h-260l-54 -280h-175zM283 761l129 150h168l69 -150h-130l-31 82h-2l-63 -82h-140z" />
<glyph unicode="&#x125;" horiz-adv-x="627" d="M1 0l139 715h173l-44 -226l-10 -44h2q22 35 68 58.5t95 23.5q73 0 117.5 -35t44.5 -111q0 -20 -7 -57l-63 -324h-173l58 296q3 18 3 30q0 44 -46 44q-50 0 -89.5 -42t-50.5 -100l-44 -228h-173zM48 761l129 150h168l69 -150h-130l-31 82h-2l-63 -82h-140z" />
<glyph unicode="&#x126;" horiz-adv-x="772" d="M24 0l100 517h-61l21 107h61l18 91h175l-18 -91h260l18 91h175l-18 -91h60l-21 -107h-60l-100 -517h-175l54 280h-260l-54 -280h-175zM282 429h260l17 88h-260z" />
<glyph unicode="&#x127;" horiz-adv-x="627" d="M1 0l107 554h-57l18 95h58l13 66h173l-13 -66h134l-18 -95h-135l-12 -65l-10 -44h2q22 35 68 58.5t95 23.5q73 0 117.5 -35t44.5 -111q0 -20 -7 -57l-63 -324h-173l58 296q3 18 3 30q0 44 -46 44q-50 0 -89.5 -42t-50.5 -100l-44 -228h-173z" />
<glyph unicode="&#x128;" horiz-adv-x="327" d="M18 0l139 715h175l-139 -715h-175zM60 761q31 153 149 153q21 0 38 -9.5t26.5 -20.5t21 -20.5t22.5 -9.5q33 0 44 57h113q-30 -153 -148 -153q-25 0 -45 15t-35.5 30t-28.5 15q-32 0 -44 -57h-113z" />
<glyph unicode="&#x129;" horiz-adv-x="289" d="M1 0l99 515h173l-100 -515h-172zM3 565q31 153 149 153q21 0 38 -9.5t26.5 -20.5t21 -20.5t22.5 -9.5q34 0 44 57h113q-30 -153 -148 -153q-25 0 -45 15t-35.5 30t-28.5 15q-32 0 -44 -57h-113z" />
<glyph unicode="&#x12a;" horiz-adv-x="327" d="M18 0l139 715h175l-139 -715h-175zM120 782l22 112h275l-22 -112h-275z" />
<glyph unicode="&#x12b;" horiz-adv-x="289" d="M1 0l99 515h173l-100 -515h-172zM63 586l22 112h275l-22 -112h-275z" />
<glyph unicode="&#x12c;" horiz-adv-x="327" d="M18 0l139 715h175l-139 -715h-175zM264 756q-70 0 -117 32t-47 88q0 15 5 35h117q-4 -12 -4 -24q0 -23 14 -34t33 -11q24 0 45 17t26 52h117q-14 -77 -65.5 -116t-123.5 -39z" />
<glyph unicode="&#x12d;" horiz-adv-x="289" d="M1 0l99 515h173l-100 -515h-172zM207 560q-70 0 -117 32t-47 88q0 15 5 35h117q-4 -12 -4 -24q0 -23 14 -34t33 -11q24 0 45 17t26 52h117q-14 -77 -65.5 -116t-123.5 -39z" />
<glyph unicode="&#x12e;" horiz-adv-x="327" d="M18 0l139 715h175l-139 -715q-54 -44 -54 -64q0 -8 8.5 -13.5t16.5 -6.5l8 -2l-66 -124q-5 0 -12.5 1.5t-27.5 7t-35 14t-27.5 25t-12.5 36.5q0 66 87 126h-60z" />
<glyph unicode="&#x12f;" horiz-adv-x="289" d="M1 0l99 515h173l-100 -515q-54 -44 -54 -64q0 -8 8.5 -13.5t16.5 -6.5l8 -2l-66 -124q-5 0 -12.5 1.5t-27.5 7t-35 14t-27.5 25t-12.5 36.5q0 66 87 126h-57zM115 580l26 135h169l-26 -135h-169z" />
<glyph unicode="&#x130;" horiz-adv-x="327" d="M18 0l139 715h175l-139 -715h-175zM186 779l26 132h143l-26 -132h-143z" />
<glyph unicode="&#x131;" horiz-adv-x="289" d="M1 0l99 515h173l-100 -515h-172z" />
<glyph unicode="&#x132;" horiz-adv-x="681" d="M261 -4l30 158q42 0 85.5 27.5t55.5 88.5l86 445h175l-87 -447q-13 -67 -39 -117t-57.5 -79t-74.5 -46.5t-83.5 -23.5t-90.5 -6zM18 0l139 715h175l-139 -715h-175z" />
<glyph unicode="&#x133;" horiz-adv-x="579" d="M115 580l26 135h169l-26 -135h-169zM1 0l99 515h173l-100 -515h-172zM404 580l26 135h169l-26 -135h-169zM290 4l99 511h173l-102 -526q-12 -62 -43.5 -104t-73.5 -60.5t-76.5 -25.5t-70.5 -7q-28 0 -61 3l28 144q6 -1 22 -1q92 0 105 66z" />
<glyph unicode="&#x134;" horiz-adv-x="563" d="M-3 178q0 28 5 52l8 42h175l-7 -37q-4 -24 -4 -33q0 -54 53 -54q62 0 76 75l67 342h-191l29 150h366l-98 -505q-21 -108 -91 -165t-162 -57q-94 0 -160 50t-66 140zM207 761l129 150h168l69 -150h-130l-31 82h-2l-63 -82h-140z" />
<glyph unicode="&#x135;" horiz-adv-x="290" d="M7 565l129 150h168l69 -150h-130l-31 82h-2l-63 -82h-140zM1 4l99 511h173l-102 -526q-12 -62 -43.5 -104t-73.5 -60.5t-76.5 -25.5t-70.5 -7l-61 3l28 144q9 -1 22 -1q92 0 105 66z" />
<glyph unicode="&#x136;" horiz-adv-x="682" d="M18 0l139 715h175l-54 -276h67l205 276h203l-271 -351v-2l130 -362h-186l-95 290h-82l-56 -290h-175zM216 -49h136v-18q0 -39 -12 -70t-41 -73h-123q23 41 32.5 68.5t9.5 62.5q0 8 -2 30z" />
<glyph unicode="&#x137;" horiz-adv-x="596" d="M1 0l139 715h173l-72 -370h47l136 170h201l-207 -244v-2l115 -269h-183l-75 200h-62l-39 -200h-173zM202 -49h136v-18q0 -39 -12 -70t-41 -73h-123q23 41 32.5 68.5t9.5 62.5q0 8 -2 30z" />
<glyph unicode="&#x138;" horiz-adv-x="594" d="M0 0l101 515h173l-35 -180h49l140 180h201l-215 -254v-2l113 -259h-187l-67 190h-63l-37 -190h-173z" />
<glyph unicode="&#x139;" horiz-adv-x="549" d="M18 0l139 715h175l-110 -565h292l-30 -150h-466zM177 761l111 150h177l-148 -150h-140z" />
<glyph unicode="&#x13a;" horiz-adv-x="322" d="M31 137q0 29 7 63l100 515h173l-96 -496q-5 -22 -5 -39q0 -33 39 -33q10 0 21 1l-29 -150q-30 -3 -47 -3q-163 0 -163 142zM157 761l111 150h177l-148 -150h-140z" />
<glyph unicode="&#x13b;" horiz-adv-x="549" d="M18 0l139 715h175l-110 -565h292l-30 -150h-466zM176 -49h136v-18q0 -39 -12 -70t-41 -73h-123q23 41 32.5 68.5t9.5 62.5q0 8 -2 30z" />
<glyph unicode="&#x13c;" horiz-adv-x="322" d="M31 137q0 29 7 63l100 515h173l-96 -496q-5 -22 -5 -39q0 -33 39 -33q10 0 21 1l-29 -150q-30 -3 -47 -3q-163 0 -163 142zM48 -49h136v-18q0 -39 -12 -70t-41 -73h-123q23 41 32.5 68.5t9.5 62.5q0 8 -2 30z" />
<glyph unicode="&#x13d;" horiz-adv-x="550" d="M18 0l139 715h175l-110 -565h292l-30 -150h-466zM402 715h136v-18q0 -39 -12 -70t-41 -73h-123q23 41 32.5 68.5t9.5 62.5q0 8 -2 30z" />
<glyph unicode="&#x13e;" horiz-adv-x="342" d="M31 137q0 29 7 63l100 515h173l-96 -496q-5 -22 -5 -39q0 -33 39 -33q10 0 21 1l-29 -150q-30 -3 -47 -3q-163 0 -163 142zM358 715h136v-18q0 -39 -12 -70t-41 -73h-123q23 41 32.5 68.5t9.5 62.5q0 8 -2 30z" />
<glyph unicode="&#x13f;" horiz-adv-x="552" d="M18 0l139 715h175l-110 -565h292l-30 -150h-466zM348 315l31 164h158l-31 -164h-158z" />
<glyph unicode="&#x140;" horiz-adv-x="497" d="M31 137q0 29 7 63l100 515h173l-96 -496q-5 -22 -5 -39q0 -33 39 -33q10 0 21 1l-29 -150q-30 -3 -47 -3q-163 0 -163 142zM316 315l31 164h158l-31 -164h-158z" />
<glyph unicode="&#x141;" horiz-adv-x="553" d="M23 0l39 204l-56 -29l31 166l58 30l67 344h175l-48 -244l113 58l-32 -166l-113 -58l-30 -155h292l-29 -150h-467z" />
<glyph unicode="&#x142;" horiz-adv-x="337" d="M41 137q0 29 7 63l4 23l-54 -28l32 166l54 28l64 326h173l-44 -226l77 40l-32 -166l-77 -40l-20 -104q-5 -22 -5 -39q0 -33 39 -33q11 0 21 1l-29 -150q-19 -3 -47 -3q-163 0 -163 142z" />
<glyph unicode="&#x143;" horiz-adv-x="749" d="M18 0l139 715h170l133 -334q8 -21 17 -51.5t14 -50.5l5 -20h2q7 77 16 122l65 334h175l-139 -715h-169l-134 333q-8 21 -17.5 51.5t-14.5 50.5l-5 20h-2q-6 -77 -15 -122l-65 -333h-175zM388 761l111 150h177l-148 -150h-140z" />
<glyph unicode="&#x144;" horiz-adv-x="627" d="M1 0l100 515h167l-5 -26l-13 -51h2q23 36 72 62.5t100 26.5q73 0 117.5 -35t44.5 -111q0 -20 -7 -57l-63 -324h-173l58 296q3 18 3 30q0 44 -46 44q-50 0 -89.5 -42t-50.5 -100l-44 -228h-173zM296 565l111 150h177l-148 -150h-140z" />
<glyph unicode="&#x145;" horiz-adv-x="749" d="M18 0l139 715h170l133 -334q8 -21 17 -51.5t14 -50.5l5 -20h2q7 77 16 122l65 334h175l-139 -715h-169l-134 333q-8 21 -17.5 51.5t-14.5 50.5l-5 20h-2q-6 -77 -15 -122l-65 -333h-175zM252 -49h136v-18q0 -39 -12 -70t-41 -73h-123q23 41 32.5 68.5t9.5 62.5q0 8 -2 30 z" />
<glyph unicode="&#x146;" horiz-adv-x="627" d="M1 0l100 515h167l-5 -26l-13 -51h2q23 36 72 62.5t100 26.5q73 0 117.5 -35t44.5 -111q0 -20 -7 -57l-63 -324h-173l58 296q3 18 3 30q0 44 -46 44q-50 0 -89.5 -42t-50.5 -100l-44 -228h-173zM188 -49h136v-18q0 -39 -12 -70t-41 -73h-123q23 41 32.5 68.5t9.5 62.5 q0 8 -2 30z" />
<glyph unicode="&#x147;" horiz-adv-x="749" d="M18 0l139 715h170l133 -334q8 -21 17 -51.5t14 -50.5l5 -20h2q7 77 16 122l65 334h175l-139 -715h-169l-134 333q-8 21 -17.5 51.5t-14.5 50.5l-5 20h-2q-6 -77 -15 -122l-65 -333h-175zM384 761l-69 150h130l31 -82h2l63 82h140l-129 -150h-168z" />
<glyph unicode="&#x148;" horiz-adv-x="627" d="M1 0l100 515h167l-5 -26l-13 -51h2q23 36 72 62.5t100 26.5q73 0 117.5 -35t44.5 -111q0 -20 -7 -57l-63 -324h-173l58 296q3 18 3 30q0 44 -46 44q-50 0 -89.5 -42t-50.5 -100l-44 -228h-173zM292 565l-69 150h130l31 -82h2l63 82h140l-129 -150h-168z" />
<glyph unicode="&#x149;" horiz-adv-x="627" d="M1 0l100 515h167l-5 -26l-13 -51h2q23 36 72 62.5t100 26.5q73 0 117.5 -35t44.5 -111q0 -20 -7 -57l-63 -324h-173l58 296q3 18 3 30q0 44 -46 44q-50 0 -89.5 -42t-50.5 -100l-44 -228h-173zM44 715h136v-18q0 -39 -12 -70t-41 -73h-123q23 41 32.5 68.5t9.5 62.5 q0 8 -2 30z" />
<glyph unicode="&#x14a;" horiz-adv-x="749" d="M18 0l139 715h170l133 -334q8 -21 17 -51.5t14 -50.5l5 -20h2q7 77 16 122l65 334h175l-126 -647q-14 -71 -42 -123t-60.5 -80t-77.5 -44t-81.5 -20.5t-83.5 -4.5l30 158q32 0 69 14t59 45l-129 320q-8 21 -17.5 51.5t-14.5 50.5l-5 20h-2q-6 -77 -15 -122l-65 -333h-175 z" />
<glyph unicode="&#x14b;" horiz-adv-x="627" d="M1 0l100 515h167l-5 -26l-13 -51h2q23 36 72 62.5t100 26.5q73 0 117.5 -35t44.5 -111q0 -20 -7 -57l-65 -335q-12 -62 -43.5 -104t-73.5 -60.5t-76.5 -25.5t-70.5 -7l-61 3l28 144q9 -1 22 -1q92 0 105 66l57 292q3 18 3 30q0 44 -46 44q-50 0 -89.5 -42t-50.5 -100 l-44 -228h-173z" />
<glyph unicode="&#x14c;" horiz-adv-x="820" d="M44 307q0 111 58.5 208.5t155.5 154.5t205 57q152 0 244.5 -87.5t92.5 -224.5q0 -113 -59.5 -212t-156.5 -157t-204 -58q-152 0 -244 89.5t-92 229.5zM224 317q0 -75 44 -122t114 -47q91 0 164 75.5t73 180.5q0 73 -44 118t-114 45q-92 0 -164.5 -73.5t-72.5 -176.5z M366 782l22 112h275l-22 -112h-275z" />
<glyph unicode="&#x14d;" horiz-adv-x="640" d="M18 219q0 131 97.5 219.5t223.5 88.5q117 0 192 -63.5t75 -167.5q0 -132 -98 -220t-223 -88q-118 0 -192.5 63t-74.5 168zM193 227q0 -44 26.5 -69.5t68.5 -25.5q55 0 99 43t44 110q0 45 -26.5 71.5t-67.5 26.5q-54 0 -99 -44.5t-45 -111.5zM239 586l22 112h275l-22 -112 h-275z" />
<glyph unicode="&#x14e;" horiz-adv-x="820" d="M44 307q0 111 58.5 208.5t155.5 154.5t205 57q152 0 244.5 -87.5t92.5 -224.5q0 -113 -59.5 -212t-156.5 -157t-204 -58q-152 0 -244 89.5t-92 229.5zM224 317q0 -75 44 -122t114 -47q91 0 164 75.5t73 180.5q0 73 -44 118t-114 45q-92 0 -164.5 -73.5t-72.5 -176.5z M510 756q-70 0 -117 32t-47 88q0 15 5 35h117q-4 -12 -4 -24q0 -23 14 -34t33 -11q24 0 45 17t26 52h117q-14 -77 -65.5 -116t-123.5 -39z" />
<glyph unicode="&#x14f;" horiz-adv-x="640" d="M18 219q0 131 97.5 219.5t223.5 88.5q117 0 192 -63.5t75 -167.5q0 -132 -98 -220t-223 -88q-118 0 -192.5 63t-74.5 168zM193 227q0 -44 26.5 -69.5t68.5 -25.5q55 0 99 43t44 110q0 45 -26.5 71.5t-67.5 26.5q-54 0 -99 -44.5t-45 -111.5zM383 560q-70 0 -117 32 t-47 88q0 15 5 35h117q-4 -12 -4 -24q0 -23 14 -34t33 -11q24 0 45 17t26 52h117q-14 -77 -65.5 -116t-123.5 -39z" />
<glyph unicode="&#x150;" horiz-adv-x="820" d="M44 307q0 111 58.5 208.5t155.5 154.5t205 57q152 0 244.5 -87.5t92.5 -224.5q0 -113 -59.5 -212t-156.5 -157t-204 -58q-152 0 -244 89.5t-92 229.5zM224 317q0 -75 44 -122t114 -47q91 0 164 75.5t73 180.5q0 73 -44 118t-114 45q-92 0 -164.5 -73.5t-72.5 -176.5z M522 761l111 150h169l-148 -150h-132zM314 761l106 150h145l-109 -150h-142z" />
<glyph unicode="&#x151;" horiz-adv-x="640" d="M18 219q0 131 97.5 219.5t223.5 88.5q117 0 192 -63.5t75 -167.5q0 -132 -98 -220t-223 -88q-118 0 -192.5 63t-74.5 168zM193 227q0 -44 26.5 -69.5t68.5 -25.5q55 0 99 43t44 110q0 45 -26.5 71.5t-67.5 26.5q-54 0 -99 -44.5t-45 -111.5zM395 565l111 150h169 l-148 -150h-132zM187 565l106 150h145l-109 -150h-142z" />
<glyph unicode="&#x152;" horiz-adv-x="989" d="M43 306q0 111 61.5 208t159 153t202.5 56q48 0 94 -4t71 -4h388l-29 -150h-273l-25 -130h218l-30 -150h-218l-26 -135h288l-29 -150h-388q-19 0 -58 -4t-76 -4q-144 0 -237 89t-93 225zM222 313q0 -73 46 -120t120 -47q39 0 74 7l79 409q-37 7 -70 7q-97 0 -173 -76 t-76 -180z" />
<glyph unicode="&#x153;" horiz-adv-x="974" d="M18 219q0 131 97.5 219.5t223.5 88.5q119 0 193 -80h2q80 80 190 80q107 0 163.5 -55t56.5 -147q0 -47 -19 -101h-325q0 -12 4 -30q17 -62 97 -62q66 0 153 52l44 -129q-35 -26 -93.5 -46.5t-114.5 -20.5q-129 0 -199 83h-2q-89 -83 -204 -83q-118 0 -192.5 63t-74.5 168 zM623 323h152q1 6 1 18q0 25 -14.5 40.5t-40.5 15.5q-69 0 -98 -74zM193 227q0 -44 26.5 -69.5t68.5 -25.5q55 0 99 43t44 110q0 45 -26.5 71.5t-67.5 26.5q-54 0 -99 -44.5t-45 -111.5z" />
<glyph unicode="&#x154;" horiz-adv-x="653" d="M18 0l139 715h266q63 0 105 -17q107 -43 107 -164q0 -73 -37 -142.5t-112 -99.5v-2q7 -12 18 -43l92 -247h-188l-80 241h-88l-47 -241h-175zM269 391h75q48 0 79.5 29t31.5 81q0 31 -19.5 47.5t-53.5 16.5h-79zM332 761l111 150h177l-148 -150h-140z" />
<glyph unicode="&#x155;" horiz-adv-x="428" d="M1 0l100 515h166l-17 -87l-8 -32h1q25 54 75.5 91t103.5 37q8 0 30 -2l-33 -170q-30 3 -34 3q-30 0 -63 -14.5t-67.5 -58t-46.5 -107.5l-34 -175h-173zM229 565l111 150h177l-148 -150h-140z" />
<glyph unicode="&#x156;" horiz-adv-x="653" d="M18 0l139 715h266q63 0 105 -17q107 -43 107 -164q0 -73 -37 -142.5t-112 -99.5v-2q7 -12 18 -43l92 -247h-188l-80 241h-88l-47 -241h-175zM269 391h75q48 0 79.5 29t31.5 81q0 31 -19.5 47.5t-53.5 16.5h-79zM216 -49h136v-18q0 -39 -12 -70t-41 -73h-123 q23 41 32.5 68.5t9.5 62.5q0 8 -2 30z" />
<glyph unicode="&#x157;" horiz-adv-x="428" d="M1 0l100 515h166l-17 -87l-8 -32h1q25 54 75.5 91t103.5 37q8 0 30 -2l-33 -170q-30 3 -34 3q-30 0 -63 -14.5t-67.5 -58t-46.5 -107.5l-34 -175h-173zM14 -49h136v-18q0 -39 -12 -70t-41 -73h-123q23 41 32.5 68.5t9.5 62.5q0 8 -2 30z" />
<glyph unicode="&#x158;" horiz-adv-x="653" d="M18 0l139 715h266q63 0 105 -17q107 -43 107 -164q0 -73 -37 -142.5t-112 -99.5v-2q7 -12 18 -43l92 -247h-188l-80 241h-88l-47 -241h-175zM269 391h75q48 0 79.5 29t31.5 81q0 31 -19.5 47.5t-53.5 16.5h-79zM328 761l-69 150h130l31 -82h2l63 82h140l-129 -150h-168z " />
<glyph unicode="&#x159;" horiz-adv-x="428" d="M1 0l100 515h166l-17 -87l-8 -32h1q25 54 75.5 91t103.5 37q8 0 30 -2l-33 -170q-30 3 -34 3q-30 0 -63 -14.5t-67.5 -58t-46.5 -107.5l-34 -175h-173zM225 565l-69 150h130l31 -82h2l63 82h140l-129 -150h-168z" />
<glyph unicode="&#x15a;" horiz-adv-x="580" d="M-7 90l104 124q30 -29 76.5 -47t92.5 -18q32 0 59 15.5t27 47.5q0 17 -20 34t-49.5 31t-64 35t-64 44.5t-49.5 62t-20 85.5q0 101 80 162t186 61q154 0 244 -83l-94 -129q-26 21 -68.5 36t-84.5 15q-32 0 -60 -16t-28 -46q0 -18 20 -35t50 -31t64.5 -34.5t64.5 -44 t50 -62t20 -85.5q0 -93 -76 -158.5t-190 -65.5q-76 0 -150.5 26t-119.5 76zM307 761l111 150h177l-148 -150h-140z" />
<glyph unicode="&#x15b;" horiz-adv-x="468" d="M-17 58l82 116q23 -21 59.5 -33.5t72.5 -12.5q55 0 55 30q0 13 -21 24t-51 22.5t-60 27.5t-51 48.5t-21 77.5q0 75 62.5 122t155.5 47q104 0 189 -57l-68 -120q-47 37 -126 37q-53 0 -53 -29q0 -13 21 -23.5t51 -21.5t60.5 -27.5t51.5 -50.5t21 -81q0 -75 -58 -120.5 t-151 -45.5q-126 0 -221 70zM209 565l111 150h177l-148 -150h-140z" />
<glyph unicode="&#x15c;" horiz-adv-x="580" d="M-7 90l104 124q30 -29 76.5 -47t92.5 -18q32 0 59 15.5t27 47.5q0 17 -20 34t-49.5 31t-64 35t-64 44.5t-49.5 62t-20 85.5q0 101 80 162t186 61q154 0 244 -83l-94 -129q-26 21 -68.5 36t-84.5 15q-32 0 -60 -16t-28 -46q0 -18 20 -35t50 -31t64.5 -34.5t64.5 -44 t50 -62t20 -85.5q0 -93 -76 -158.5t-190 -65.5q-76 0 -150.5 26t-119.5 76zM194 761l129 150h168l69 -150h-130l-31 82h-2l-63 -82h-140z" />
<glyph unicode="&#x15d;" horiz-adv-x="468" d="M-17 58l82 116q23 -21 59.5 -33.5t72.5 -12.5q55 0 55 30q0 13 -21 24t-51 22.5t-60 27.5t-51 48.5t-21 77.5q0 75 62.5 122t155.5 47q104 0 189 -57l-68 -120q-47 37 -126 37q-53 0 -53 -29q0 -13 21 -23.5t51 -21.5t60.5 -27.5t51.5 -50.5t21 -81q0 -75 -58 -120.5 t-151 -45.5q-126 0 -221 70zM96 565l129 150h168l69 -150h-130l-31 82h-2l-63 -82h-140z" />
<glyph unicode="&#x15e;" horiz-adv-x="581" d="M157 -82l38 76q-133 19 -201 96l104 124q30 -29 76.5 -47t92.5 -18q32 0 59 15.5t27 47.5q0 20 -27.5 39.5t-66.5 39.5t-78.5 45.5t-67 69t-27.5 98.5q0 101 80 162t186 61q154 0 244 -83l-94 -129q-26 21 -68.5 36t-84.5 15q-32 0 -60 -16t-28 -46q0 -18 20 -35t50 -31 t64.5 -34.5t64.5 -44t50 -62t20 -85.5q0 -92 -73 -156.5t-184 -67.5l-10 -24q24 -5 43 -21t19 -45q0 -56 -40.5 -82t-91.5 -26q-39 0 -75 9l16 85q16 -8 44 -8q43 0 43 26q0 18 -37 18q-7 0 -27 -2z" />
<glyph unicode="&#x15f;" horiz-adv-x="469" d="M87 -82l40 78q-85 18 -144 62l82 116q23 -21 59.5 -33.5t72.5 -12.5q55 0 55 30q0 13 -21 24t-51 22.5t-60 27.5t-51 48.5t-21 77.5q0 75 62.5 122t155.5 47q104 0 189 -57l-68 -120q-47 37 -126 37q-53 0 -53 -29q0 -13 21 -23.5t51 -21.5t60.5 -27.5t51.5 -50.5t21 -81 q0 -75 -58 -120.5t-151 -45.5h-1l-10 -24q24 -5 43 -21t19 -45q0 -56 -40.5 -82t-91.5 -26q-39 0 -75 9l16 85q16 -8 44 -8q43 0 43 26q0 18 -37 18q-7 0 -27 -2z" />
<glyph unicode="&#x160;" horiz-adv-x="580" d="M-7 90l104 124q30 -29 76.5 -47t92.5 -18q32 0 59 15.5t27 47.5q0 17 -20 34t-49.5 31t-64 35t-64 44.5t-49.5 62t-20 85.5q0 101 80 162t186 61q154 0 244 -83l-94 -129q-26 21 -68.5 36t-84.5 15q-32 0 -60 -16t-28 -46q0 -18 20 -35t50 -31t64.5 -34.5t64.5 -44 t50 -62t20 -85.5q0 -93 -76 -158.5t-190 -65.5q-76 0 -150.5 26t-119.5 76zM303 761l-69 150h130l31 -82h2l63 82h140l-129 -150h-168z" />
<glyph unicode="&#x161;" horiz-adv-x="468" d="M-17 58l82 116q23 -21 59.5 -33.5t72.5 -12.5q55 0 55 30q0 13 -21 24t-51 22.5t-60 27.5t-51 48.5t-21 77.5q0 75 62.5 122t155.5 47q104 0 189 -57l-68 -120q-47 37 -126 37q-53 0 -53 -29q0 -13 21 -23.5t51 -21.5t60.5 -27.5t51.5 -50.5t21 -81q0 -75 -58 -120.5 t-151 -45.5q-126 0 -221 70zM205 565l-69 150h130l31 -82h2l63 82h140l-129 -150h-168z" />
<glyph unicode="&#x162;" horiz-adv-x="630" d="M169 0l110 565h-216l29 150h607l-29 -150h-216l-110 -565h-51l-15 -36q24 -5 43 -21t19 -45q0 -56 -40.5 -82t-91.5 -26q-39 0 -75 9l16 85q16 -8 44 -8q43 0 43 26q0 18 -37 18q-7 0 -27 -2l42 82h-45z" />
<glyph unicode="&#x163;" horiz-adv-x="407" d="M79 -82l55 107q-74 41 -74 135q0 17 5 40l34 171h-65l26 135h71l29 148h166l-29 -148h109l-26 -135h-109l-28 -147q-3 -14 -3 -27q0 -50 76 -50q14 0 27 1l-29 -150q-42 -3 -46 -3q-36 0 -67 6l-16 -37q24 -5 43 -21t19 -45q0 -56 -40.5 -82t-91.5 -26q-39 0 -75 9l16 85 q16 -8 44 -8q43 0 43 26q0 18 -37 18q-7 0 -27 -2z" />
<glyph unicode="&#x164;" horiz-adv-x="630" d="M169 0l110 565h-216l29 150h607l-29 -150h-216l-110 -565h-175zM324 761l-69 150h130l31 -82h2l63 82h140l-129 -150h-168z" />
<glyph unicode="&#x165;" horiz-adv-x="407" d="M60 160q0 17 5 40l34 171h-65l26 135h71l29 148h166l-29 -148h109l-26 -135h-109l-28 -147q-3 -14 -3 -27q0 -50 76 -50q14 0 27 1l-29 -150q-42 -3 -46 -3q-92 0 -150 40.5t-58 124.5zM381 715h136v-17q0 -37 -12 -66t-41 -68h-123q23 39 32.5 64.5t9.5 58.5q0 8 -2 28z " />
<glyph unicode="&#x166;" horiz-adv-x="641" d="M174 0l53 272h-142l25 127h141l33 166h-216l29 150h607l-29 -150h-216l-33 -166h149l-25 -127h-148l-53 -272h-175z" />
<glyph unicode="&#x167;" horiz-adv-x="409" d="M62 160q0 17 5 40l2 9h-66l21 107h66l11 55h-65l26 135h71l29 148h166l-29 -148h109l-26 -135h-109l-11 -55h109l-21 -107h-108q-1 -6 -1 -17q5 -45 77 -45l27 1l-29 -150q-26 -3 -46 -3q-92 0 -150 40.5t-58 124.5z" />
<glyph unicode="&#x168;" horiz-adv-x="734" d="M56 210q0 28 6 58l87 447h175l-88 -452q-3 -15 -3 -28q0 -42 28 -64.5t77 -22.5q58 0 96.5 29.5t49.5 85.5l88 452h175l-89 -457q-24 -122 -111.5 -196t-214.5 -74q-118 0 -197 59t-79 163zM264 761q31 153 149 153q21 0 38 -9.5t26.5 -20.5t21 -20.5t22.5 -9.5 q33 0 44 57h113q-30 -153 -148 -153q-25 0 -45 15t-35.5 30t-28.5 15q-32 0 -44 -57h-113z" />
<glyph unicode="&#x169;" horiz-adv-x="620" d="M25 134q0 20 7 57l63 324h173l-58 -296q-3 -18 -3 -30q0 -44 46 -44q48 0 85.5 42t48.5 100l44 228h173l-100 -515h-167l5 26l13 51h-2q-23 -37 -69 -63t-97 -26q-73 0 -117.5 35t-44.5 111zM166 565q31 153 149 153q21 0 38 -9.5t26.5 -20.5t21 -20.5t22.5 -9.5 q33 0 44 57h113q-30 -153 -148 -153q-25 0 -45 15t-35.5 30t-28.5 15q-32 0 -44 -57h-113z" />
<glyph unicode="&#x16a;" horiz-adv-x="734" d="M56 210q0 28 6 58l87 447h175l-88 -452q-3 -15 -3 -28q0 -42 28 -64.5t77 -22.5q58 0 96.5 29.5t49.5 85.5l88 452h175l-89 -457q-24 -122 -111.5 -196t-214.5 -74q-118 0 -197 59t-79 163zM324 782l22 112h275l-22 -112h-275z" />
<glyph unicode="&#x16b;" horiz-adv-x="620" d="M25 134q0 20 7 57l63 324h173l-58 -296q-3 -18 -3 -30q0 -44 46 -44q48 0 85.5 42t48.5 100l44 228h173l-100 -515h-167l5 26l13 51h-2q-23 -37 -69 -63t-97 -26q-73 0 -117.5 35t-44.5 111zM226 586l22 112h275l-22 -112h-275z" />
<glyph unicode="&#x16c;" horiz-adv-x="734" d="M56 210q0 28 6 58l87 447h175l-88 -452q-3 -15 -3 -28q0 -42 28 -64.5t77 -22.5q58 0 96.5 29.5t49.5 85.5l88 452h175l-89 -457q-24 -122 -111.5 -196t-214.5 -74q-118 0 -197 59t-79 163zM468 756q-70 0 -117 32t-47 88q0 15 5 35h117q-4 -12 -4 -24q0 -23 14 -34 t33 -11q24 0 45 17t26 52h117q-14 -77 -65.5 -116t-123.5 -39z" />
<glyph unicode="&#x16d;" horiz-adv-x="620" d="M25 134q0 20 7 57l63 324h173l-58 -296q-3 -18 -3 -30q0 -44 46 -44q48 0 85.5 42t48.5 100l44 228h173l-100 -515h-167l5 26l13 51h-2q-23 -37 -69 -63t-97 -26q-73 0 -117.5 35t-44.5 111zM370 560q-70 0 -117 32t-47 88q0 15 5 35h117q-4 -12 -4 -24q0 -23 14 -34 t33 -11q24 0 45 17t26 52h117q-14 -77 -65.5 -116t-123.5 -39z" />
<glyph unicode="&#x16e;" horiz-adv-x="734" d="M56 210q0 28 6 58l87 447h175l-88 -452q-3 -15 -3 -28q0 -42 28 -64.5t77 -22.5q58 0 96.5 29.5t49.5 85.5l88 452h175l-89 -457q-24 -122 -111.5 -196t-214.5 -74q-118 0 -197 59t-79 163zM459 747q-41 0 -70 19t-29 54q0 47 37.5 72.5t84.5 25.5q42 0 71 -19.5 t29 -56.5q0 -46 -38.5 -70.5t-84.5 -24.5zM464 797q18 0 30.5 12.5t12.5 30.5q0 28 -29 28q-17 0 -29.5 -12.5t-12.5 -32.5q0 -26 28 -26z" />
<glyph unicode="&#x16f;" horiz-adv-x="620" d="M25 134q0 20 7 57l63 324h173l-58 -296q-3 -18 -3 -30q0 -44 46 -44q48 0 85.5 42t48.5 100l44 228h173l-100 -515h-167l5 26l13 51h-2q-23 -37 -69 -63t-97 -26q-73 0 -117.5 35t-44.5 111zM361 551q-41 0 -70 19t-29 54q0 47 37.5 72.5t84.5 25.5q42 0 71 -19.5 t29 -56.5q0 -46 -38.5 -70.5t-84.5 -24.5zM366 601q18 0 30.5 12.5t12.5 30.5q0 28 -29 28q-17 0 -29.5 -12.5t-12.5 -32.5q0 -26 28 -26z" />
<glyph unicode="&#x170;" horiz-adv-x="734" d="M56 210q0 28 6 58l87 447h175l-88 -452q-3 -15 -3 -28q0 -42 28 -64.5t77 -22.5q58 0 96.5 29.5t49.5 85.5l88 452h175l-89 -457q-24 -122 -111.5 -196t-214.5 -74q-118 0 -197 59t-79 163zM480 761l111 150h169l-148 -150h-132zM272 761l106 150h145l-109 -150h-142z " />
<glyph unicode="&#x171;" horiz-adv-x="620" d="M25 134q0 20 7 57l63 324h173l-58 -296q-3 -18 -3 -30q0 -44 46 -44q48 0 85.5 42t48.5 100l44 228h173l-100 -515h-167l5 26l13 51h-2q-23 -37 -69 -63t-97 -26q-73 0 -117.5 35t-44.5 111zM382 565l111 150h169l-148 -150h-132zM174 565l106 150h145l-109 -150h-142z " />
<glyph unicode="&#x172;" horiz-adv-x="733" d="M55 210q0 28 6 58l88 447h174l-88 -452q-3 -15 -3 -28q0 -42 28 -64.5t77 -22.5q58 0 96 29.5t49 85.5l89 452h175l-90 -457q-18 -91 -64 -144.5t-110 -92.5q-46 -28 -69.5 -47.5t-23.5 -37.5q0 -8 9.5 -13.5t19.5 -6.5l9 -2l-66 -124q-5 0 -12.5 1.5t-27.5 7t-35 14 t-27.5 25t-12.5 36.5q0 59 71 112v2q-113 4 -187.5 62.5t-74.5 159.5z" />
<glyph unicode="&#x173;" horiz-adv-x="620" d="M25 134q0 20 7 57l63 324h173l-58 -296q-3 -18 -3 -30q0 -44 46 -44q48 0 85.5 42t48.5 100l44 228h173l-100 -515q-54 -44 -54 -64q0 -8 8 -13.5t16 -6.5l9 -2l-66 -124q-5 0 -12.5 1.5t-27.5 7t-35 14t-27.5 25t-12.5 36.5q0 66 87 126h-52l5 26l13 51h-2 q-23 -37 -69 -63t-97 -26q-73 0 -117.5 35t-44.5 111z" />
<glyph unicode="&#x174;" horiz-adv-x="995" d="M134 0l-46 715h182l11 -447l-2 -75h2q7 31 26 75l196 447h145l21 -447l-2 -75h2q7 35 23 75l179 447h191l-314 -715h-203l-19 361q-2 49 2 84h-2q-11 -38 -31 -84l-160 -361h-201zM396 761l129 150h168l69 -150h-130l-31 82h-2l-63 -82h-140z" />
<glyph unicode="&#x175;" horiz-adv-x="825" d="M95 0l-44 515h172l4 -304l-4 -54h2l3 7q2 7 6.5 21t9.5 26l131 304h145l11 -304l-2 -54h2q5 26 17 54l123 304h184l-245 -515h-192l-11 238v55h-2q-8 -27 -20 -55l-105 -238h-185zM269 565l129 150h168l69 -150h-130l-31 82h-2l-63 -82h-140z" />
<glyph unicode="&#x176;" horiz-adv-x="625" d="M162 0l57 293l-149 422h189l48 -172l23 -103h2q31 53 63 103l109 172h210l-322 -429l-55 -286h-175zM208 761l129 150h168l69 -150h-130l-31 82h-2l-63 -82h-140z" />
<glyph unicode="&#x177;" horiz-adv-x="567" d="M-4 -50q21 -16 51 -16q61 0 93 52l15 24l-121 505h180l42 -255l5 -76h2q18 45 31 73l115 258h194l-322 -570q-45 -79 -105 -117t-120 -38q-73 0 -135 40zM147 565l129 150h168l69 -150h-130l-31 82h-2l-63 -82h-140z" />
<glyph unicode="&#x178;" horiz-adv-x="625" d="M162 0l57 293l-149 422h189l48 -172l23 -103h2q31 53 63 103l109 172h210l-322 -429l-55 -286h-175zM440 771l28 140h126l-28 -140h-126zM231 771l28 140h126l-28 -140h-126z" />
<glyph unicode="&#x179;" horiz-adv-x="634" d="M-21 0l22 110l340 391q18 20 35 36t25 23l8 6v2q-22 -3 -54 -3h-253l28 150h540l-22 -108l-343 -393q-17 -20 -34 -36t-25 -22l-9 -7v-2q23 3 55 3h273l-29 -150h-557zM342 761l111 150h177l-148 -150h-140z" />
<glyph unicode="&#x17a;" horiz-adv-x="544" d="M-22 0l16 86l229 237q14 14 27.5 26t19.5 17l6 4v2q-12 -2 -44 -2h-176l29 145h459l-16 -87l-229 -237q-14 -14 -28 -25.5t-21 -16.5l-7 -5v-2q14 3 47 3h187l-29 -145h-470zM243 565l111 150h177l-148 -150h-140z" />
<glyph unicode="&#x17b;" horiz-adv-x="634" d="M-21 0l22 110l340 391q18 20 35 36t25 23l8 6v2q-22 -3 -54 -3h-253l28 150h540l-22 -108l-343 -393q-17 -20 -34 -36t-25 -22l-9 -7v-2q23 3 55 3h273l-29 -150h-557zM350 779l26 132h143l-26 -132h-143z" />
<glyph unicode="&#x17c;" horiz-adv-x="544" d="M-22 0l16 86l229 237q14 14 27.5 26t19.5 17l6 4v2q-12 -2 -44 -2h-176l29 145h459l-16 -87l-229 -237q-14 -14 -28 -25.5t-21 -16.5l-7 -5v-2q14 3 47 3h187l-29 -145h-470zM251 583l26 132h143l-26 -132h-143z" />
<glyph unicode="&#x17d;" horiz-adv-x="634" d="M-21 0l22 110l340 391q18 20 35 36t25 23l8 6v2q-22 -3 -54 -3h-253l28 150h540l-22 -108l-343 -393q-17 -20 -34 -36t-25 -22l-9 -7v-2q23 3 55 3h273l-29 -150h-557zM338 761l-69 150h130l31 -82h2l63 82h140l-129 -150h-168z" />
<glyph unicode="&#x17e;" horiz-adv-x="544" d="M-22 0l16 86l229 237q14 14 27.5 26t19.5 17l6 4v2q-12 -2 -44 -2h-176l29 145h459l-16 -87l-229 -237q-14 -14 -28 -25.5t-21 -16.5l-7 -5v-2q14 3 47 3h187l-29 -145h-470zM239 565l-69 150h130l31 -82h2l63 82h140l-129 -150h-168z" />
<glyph unicode="&#x17f;" horiz-adv-x="346" d="M37 0l72 371h-63l27 135h63l4 22q9 48 32 84.5t50 56t62.5 31.5t62 15.5t54.5 3.5l63 -3l-30 -146q-10 2 -26 2q-88 0 -97 -50l-101 -522h-173z" />
<glyph unicode="&#x192;" horiz-adv-x="600" d="M-23 27q40 -6 67 -6q88 0 105 64l62 225h-62l27 135h74l29 100q52 182 271 182q26 0 102 -9l-29 -144q-46 6 -74 6q-86 0 -103 -64l-20 -71h95l-27 -135h-107l-70 -254q-13 -46 -38.5 -80.5t-54 -53.5t-64 -30.5t-62.5 -14.5t-55 -3q-31 0 -95 10z" />
<glyph unicode="&#x218;" horiz-adv-x="580" d="M-7 90l104 124q30 -29 76.5 -47t92.5 -18q32 0 59 15.5t27 47.5q0 17 -20 34t-49.5 31t-64 35t-64 44.5t-49.5 62t-20 85.5q0 101 80 162t186 61q154 0 244 -83l-94 -129q-26 21 -68.5 36t-84.5 15q-32 0 -60 -16t-28 -46q0 -18 20 -35t50 -31t64.5 -34.5t64.5 -44 t50 -62t20 -85.5q0 -93 -76 -158.5t-190 -65.5q-76 0 -150.5 26t-119.5 76zM147 -49h136v-18q0 -39 -12 -70t-41 -73h-123q23 41 32.5 68.5t9.5 62.5q0 8 -2 30z" />
<glyph unicode="&#x219;" horiz-adv-x="468" d="M-17 58l82 116q23 -21 59.5 -33.5t72.5 -12.5q55 0 55 30q0 13 -21 24t-51 22.5t-60 27.5t-51 48.5t-21 77.5q0 75 62.5 122t155.5 47q104 0 189 -57l-68 -120q-47 37 -126 37q-53 0 -53 -29q0 -13 21 -23.5t51 -21.5t60.5 -27.5t51.5 -50.5t21 -81q0 -75 -58 -120.5 t-151 -45.5q-126 0 -221 70zM92 -49h136v-18q0 -39 -12 -70t-41 -73h-123q23 41 32.5 68.5t9.5 62.5q0 8 -2 30z" />
<glyph unicode="&#x21a;" horiz-adv-x="630" d="M169 0l110 565h-216l29 150h607l-29 -150h-216l-110 -565h-175zM175 -49h136v-18q0 -39 -12 -70t-41 -73h-123q23 41 32.5 68.5t9.5 62.5q0 8 -2 30z" />
<glyph unicode="&#x21b;" horiz-adv-x="407" d="M60 160q0 17 5 40l34 171h-65l26 135h71l29 148h166l-29 -148h109l-26 -135h-109l-28 -147q-3 -14 -3 -27q0 -50 76 -50q14 0 27 1l-29 -150q-42 -3 -46 -3q-92 0 -150 40.5t-58 124.5zM96 -49h136v-18q0 -39 -12 -70t-41 -73h-123q23 41 32.5 68.5t9.5 62.5q0 8 -2 30z " />
<glyph unicode="&#x2c6;" horiz-adv-x="486" d="M-14 761l129 150h168l69 -150h-130l-31 82h-2l-63 -82h-140z" />
<glyph unicode="&#x2c7;" horiz-adv-x="486" d="M95 761l-69 150h130l31 -82h2l63 82h140l-129 -150h-168z" />
<glyph unicode="&#x2d8;" horiz-adv-x="484" d="M184 756q-70 0 -117 32t-47 88q0 15 5 35h117q-4 -12 -4 -24q0 -23 14 -34t33 -11q24 0 45 17t26 52h117q-14 -77 -65.5 -116t-123.5 -39z" />
<glyph unicode="&#x2d9;" horiz-adv-x="485" d="M106 779l26 132h143l-26 -132h-143z" />
<glyph unicode="&#x2da;" horiz-adv-x="485" d="M175 747q-41 0 -70 19t-29 54q0 47 37.5 72.5t84.5 25.5q42 0 71 -19.5t29 -56.5q0 -46 -38.5 -70.5t-84.5 -24.5zM180 797q18 0 30.5 12.5t12.5 30.5q0 28 -29 28q-17 0 -29.5 -12.5t-12.5 -32.5q0 -26 28 -26z" />
<glyph unicode="&#x2db;" horiz-adv-x="486" d="M82 -126q0 46 40 86t93 68l87 -14q-1 0 -18.5 -14t-35.5 -33.5t-18 -30.5q0 -8 8 -13.5t16 -6.5l9 -2l-66 -124q-5 0 -12.5 1.5t-27.5 7t-35 14t-27.5 25t-12.5 36.5z" />
<glyph unicode="&#x2dc;" horiz-adv-x="485" d="M-23 761q31 153 149 153q21 0 38 -9.5t26.5 -20.5t21 -20.5t22.5 -9.5q34 0 44 57h113q-30 -153 -148 -153q-25 0 -45 15t-35.5 30t-28.5 15q-32 0 -44 -57h-113z" />
<glyph unicode="&#x2dd;" horiz-adv-x="485" d="M153 761l111 150h169l-148 -150h-132zM-55 761l106 150h145l-109 -150h-142z" />
<glyph unicode="&#x3bc;" horiz-adv-x="633" d="M139 -96l-20 -104h-147l139 715h173l-58 -296q-3 -18 -3 -30q0 -44 46 -44q48 0 85.5 42t48.5 100l44 228h173l-100 -515h-167l5 26l13 51h-2q-23 -37 -69 -63t-97 -26q-26 0 -53 5h-2q-1 -49 -9 -89z" />
<glyph unicode="&#x400;" horiz-adv-x="577" d="M18 0l140 715h447l-29 -150h-273l-25 -130h217l-30 -150h-217l-26 -135h287l-29 -150h-462zM354 761l-88 150h165l51 -150h-128z" />
<glyph unicode="&#x401;" horiz-adv-x="577" d="M18 0l140 715h447l-29 -150h-273l-25 -130h217l-30 -150h-217l-26 -135h287l-29 -150h-462zM438 771l28 140h126l-28 -140h-126zM229 771l28 140h126l-28 -140h-126z" />
<glyph unicode="&#x402;" horiz-adv-x="761" d="M127 0l110 565h-176l29 150h567l-29 -150h-216l-21 -108l-9 -32h2q62 31 153 31q90 0 143 -55t53 -141q0 -107 -77 -189.5t-196 -82.5q-24 0 -56 3l29 145q7 -2 19 -2q44 0 74.5 28.5t30.5 68.5q0 33 -22.5 52t-63.5 19q-59 0 -117 -33l-52 -269h-175z" />
<glyph unicode="&#x403;" horiz-adv-x="526" d="M18 0l139 715h438l-29 -150h-263l-110 -565h-175zM284 761l111 150h177l-148 -150h-140z" />
<glyph unicode="&#x404;" horiz-adv-x="721" d="M43 300q0 110 57.5 208t159.5 158.5t222 60.5q73 0 144 -25t116 -74l-95 -131q-31 32 -78 52t-94 20q-74 0 -131 -38.5t-89 -102.5h291l-27 -140h-294q3 -142 167 -142q103 0 207 81l75 -130q-54 -48 -139 -78.5t-166 -30.5q-151 0 -238.5 86.5t-87.5 225.5z" />
<glyph unicode="&#x405;" horiz-adv-x="580" d="M-7 90l104 124q30 -29 76.5 -47t92.5 -18q32 0 59 15.5t27 47.5q0 17 -20 34t-49.5 31t-64 35t-64 44.5t-49.5 62t-20 85.5q0 101 80 162t186 61q154 0 244 -83l-94 -129q-26 21 -68.5 36t-84.5 15q-32 0 -60 -16t-28 -46q0 -18 20 -35t50 -31t64.5 -34.5t64.5 -44 t50 -62t20 -85.5q0 -93 -76 -158.5t-190 -65.5q-76 0 -150.5 26t-119.5 76z" />
<glyph unicode="&#x406;" horiz-adv-x="327" d="M18 0l139 715h175l-139 -715h-175z" />
<glyph unicode="&#x407;" horiz-adv-x="327" d="M18 0l139 715h175l-139 -715h-175zM298 771l28 140h126l-28 -140h-126zM89 771l28 140h126l-28 -140h-126z" />
<glyph unicode="&#x408;" horiz-adv-x="563" d="M-3 178q0 28 5 52l8 42h175l-7 -37q-4 -24 -4 -33q0 -54 53 -54q62 0 76 75l67 342h-191l29 150h366l-98 -505q-21 -108 -91 -165t-162 -57q-94 0 -160 50t-66 140z" />
<glyph unicode="&#x409;" horiz-adv-x="1000" d="M-39 -5l30 159q71 5 114.5 63t74.5 219l54 279h473l-51 -261h109q94 0 150.5 -58.5t56.5 -147.5q0 -102 -78 -175t-191 -73h-310l110 565h-120l-25 -129q-21 -110 -50 -187t-74.5 -136.5t-113 -88.5t-159.5 -29zM597 150h89q42 0 75 25.5t33 67.5q0 28 -21 44.5t-60 16.5 h-86z" />
<glyph unicode="&#x40a;" horiz-adv-x="1040" d="M18 0l139 715h175l-52 -266h241l52 266h174l-51 -266h112q90 0 147 -58.5t57 -145.5q0 -102 -78 -173.5t-194 -71.5h-307l58 299h-240l-58 -299h-175zM637 150h89q41 0 74 23.5t33 62.5q0 63 -80 63h-86z" />
<glyph unicode="&#x40b;" horiz-adv-x="761" d="M127 0l110 565h-176l29 150h567l-29 -150h-216l-21 -106l-9 -34h2q78 31 158 31q90 0 134.5 -47t44.5 -127q0 -35 -7 -69l-42 -213h-179l38 197q4 26 4 37q0 64 -77 64q-55 0 -103 -26l-53 -272h-175z" />
<glyph unicode="&#x40c;" horiz-adv-x="682" d="M372 761l111 150h177l-148 -150h-140zM18 0l139 715h175l-54 -276h67l205 276h203l-271 -351v-2l130 -362h-186l-95 290h-82l-56 -290h-175z" />
<glyph unicode="&#x40d;" horiz-adv-x="756" d="M18 0l139 715h175l-65 -334l-32 -122h2q47 75 84 122l263 334h177l-139 -715h-175l65 333q4 20 11.5 50.5t13.5 50.5l6 21h-2q-46 -75 -83 -122l-264 -333h-176zM415 761l-88 150h165l51 -150h-128z" />
<glyph unicode="&#x40e;" horiz-adv-x="630" d="M4 42l85 125q32 -30 83 -30q41 0 66 40l-171 538h180l71 -257l22 -97h2q18 46 45 96l135 258h195l-311 -536q-23 -41 -43.5 -69.5t-50 -59t-66.5 -46.5t-80 -16q-93 0 -162 54zM415 747q-79 0 -126.5 35.5t-47.5 90.5q0 14 5 38h130q-3 -10 -3 -22q0 -21 13 -35t38 -14 q64 0 75 71h126q-13 -84 -71.5 -124t-138.5 -40z" />
<glyph unicode="&#x40f;" horiz-adv-x="750" d="M18 0l139 715h175l-110 -566h248l110 566h175l-139 -715h-221l-28 -140h-155l28 140h-222z" />
<glyph unicode="&#x410;" horiz-adv-x="668" d="M-57 0l372 715h201l99 -715h-175l-15 150h-223l-72 -150h-187zM270 290h141l-14 139l-6 123h-2q-29 -78 -51 -123z" />
<glyph unicode="&#x411;" horiz-adv-x="635" d="M18 0l139 715h465l-29 -150h-290l-22 -111h112q94 0 149 -54.5t55 -143.5q0 -102 -80 -179t-192 -77h-307zM222 150h89q42 0 73.5 25.5t31.5 67.5q0 28 -19.5 44.5t-58.5 16.5h-86z" />
<glyph unicode="&#x412;" horiz-adv-x="650" d="M18 0l139 715h230q78 0 125 -16q54 -19 83.5 -59.5t29.5 -94.5q0 -50 -30 -96.5t-81 -72.5v-2q44 -16 65 -53.5t21 -83.5q0 -82 -48.5 -139t-126.5 -82q-48 -16 -114 -16h-293zM278 438h90q35 0 56 24.5t21 55.5q0 47 -55 47h-87zM222 150h105q28 0 49 12q44 28 44 80 q0 25 -16 40.5t-47 15.5h-106z" />
<glyph unicode="&#x413;" horiz-adv-x="526" d="M18 0l139 715h438l-29 -150h-263l-110 -565h-175z" />
<glyph unicode="&#x414;" horiz-adv-x="775" d="M242 149h213l80 416h-143l-6 -33q-17 -93 -56 -203t-88 -180zM-75 -140l57 289h74q121 163 166 397l33 169h485l-110 -566h80l-57 -289h-155l28 140h-413l-28 -140h-160z" />
<glyph unicode="&#x415;" horiz-adv-x="577" d="M18 0l140 715h447l-29 -150h-273l-25 -130h217l-30 -150h-217l-26 -135h287l-29 -150h-462z" />
<glyph unicode="&#x416;" horiz-adv-x="1018" d="M-46 0l271 387v2l-132 326h178l109 -276h67l54 276h175l-54 -276h67l177 276h208l-247 -357v-2l119 -356h-180l-90 290h-83l-56 -290h-175l56 290h-67l-192 -290h-205z" />
<glyph unicode="&#x417;" horiz-adv-x="572" d="M-18 97l100 112q27 -32 65 -50t77 -18q47 0 81 25t34 68q0 54 -73 54h-103l27 140h87q39 0 69 25t30 63q0 59 -70 59q-67 0 -151 -59l-62 127q107 84 242 84q98 0 162 -46.5t64 -132.5q0 -60 -34.5 -107.5t-92.5 -71.5l-1 -2q38 -18 61.5 -55t23.5 -85q0 -106 -89 -172.5 t-204 -66.5q-73 0 -138 29t-105 80z" />
<glyph unicode="&#x418;" horiz-adv-x="756" d="M18 0l139 715h175l-65 -334l-32 -122h2q47 75 84 122l263 334h177l-139 -715h-175l65 333q4 20 11.5 50.5t13.5 50.5l6 21h-2q-46 -75 -83 -122l-264 -333h-176z" />
<glyph unicode="&#x419;" horiz-adv-x="756" d="M476 747q-79 0 -126.5 35.5t-47.5 90.5q0 14 5 38h130q-3 -10 -3 -22q0 -21 13 -35t38 -14q64 0 75 71h126q-13 -84 -71.5 -124t-138.5 -40zM18 0l139 715h175l-65 -334l-32 -122h2q47 75 84 122l263 334h177l-139 -715h-175l65 333q4 20 11.5 50.5t13.5 50.5l6 21h-2 q-46 -75 -83 -122l-264 -333h-176z" />
<glyph unicode="&#x41a;" horiz-adv-x="682" d="M18 0l139 715h175l-54 -276h67l205 276h203l-271 -351v-2l130 -362h-186l-95 290h-82l-56 -290h-175z" />
<glyph unicode="&#x41b;" horiz-adv-x="714" d="M580 0h-175l110 565h-139l-17 -87q-51 -260 -147.5 -373t-255.5 -113l31 159q71 9 121.5 80.5t84.5 248.5l46 235h480z" />
<glyph unicode="&#x41c;" horiz-adv-x="878" d="M-7 0l191 715h191l47 -302l12 -118h2q35 71 60 118l163 302h192l-81 -715h-172l41 322l23 120h-2q-38 -76 -63 -120l-116 -207h-152l-36 207l-15 122h-2q-9 -68 -23 -122l-84 -322h-176z" />
<glyph unicode="&#x41d;" horiz-adv-x="762" d="M18 0l139 715h175l-56 -286h260l56 286h175l-139 -715h-175l54 280h-260l-54 -280h-175z" />
<glyph unicode="&#x41e;" horiz-adv-x="820" d="M44 307q0 111 58.5 208.5t155.5 154.5t205 57q152 0 244.5 -87.5t92.5 -224.5q0 -113 -59.5 -212t-156.5 -157t-204 -58q-152 0 -244 89.5t-92 229.5zM224 317q0 -75 44 -122t114 -47q91 0 164 75.5t73 180.5q0 73 -44 118t-114 45q-92 0 -164.5 -73.5t-72.5 -176.5z" />
<glyph unicode="&#x41f;" horiz-adv-x="756" d="M18 0l139 715h604l-139 -715h-175l110 566h-254l-110 -566h-175z" />
<glyph unicode="&#x420;" horiz-adv-x="627" d="M18 0l139 715h273q64 0 109 -22q50 -24 77 -71t27 -110q0 -88 -45.5 -160.5t-118.5 -106.5q-51 -24 -110 -24h-133l-43 -221h-175zM265 371h85q37 0 59 15q54 36 54 110q0 32 -18.5 50.5t-53.5 18.5h-88z" />
<glyph unicode="&#x421;" horiz-adv-x="717" d="M45 305q0 173 124 297.5t296 124.5q79 0 153 -25.5t123 -77.5l-99 -120q-74 63 -171 63q-111 0 -178 -78t-67 -172q0 -73 42.5 -121t123.5 -48q102 0 209 85l68 -139q-51 -46 -130.5 -76t-156.5 -30q-155 0 -246 88t-91 229z" />
<glyph unicode="&#x422;" horiz-adv-x="632" d="M170 0l110 565h-216l29 150h607l-29 -150h-216l-110 -565h-175z" />
<glyph unicode="&#x423;" horiz-adv-x="630" d="M4 42l85 125q32 -30 83 -30q41 0 66 40l-171 538h180l71 -257l22 -97h2q18 46 45 96l135 258h195l-311 -536q-23 -41 -43.5 -69.5t-50 -59t-66.5 -46.5t-80 -16q-93 0 -162 54z" />
<glyph unicode="&#x424;" horiz-adv-x="863" d="M37 342q0 140 107 235t276 100l15 73h175l-15 -73q118 0 193 -72.5t75 -185.5q0 -141 -112 -240.5t-272 -100.5l-18 -90h-175l18 90q-118 0 -192.5 73.5t-74.5 190.5zM507 224q70 1 124 58.5t54 128.5q0 53 -32.5 86.5t-85.5 33.5zM215 348q0 -54 32 -89t85 -35l60 307 q-72 -1 -124.5 -56t-52.5 -127z" />
<glyph unicode="&#x425;" horiz-adv-x="655" d="M-49 0l286 360l-149 355h191l52 -144l28 -91h2q25 45 59 91l105 144h204l-291 -364l151 -351h-187l-56 147l-28 88h-2q-25 -43 -59 -88l-109 -147h-197z" />
<glyph unicode="&#x426;" horiz-adv-x="795" d="M18 0l139 715h175l-110 -566h248l110 566h175l-110 -566h89l-57 -289h-155l28 140h-532z" />
<glyph unicode="&#x427;" horiz-adv-x="689" d="M270 253q-98 0 -152 45t-54 126q0 28 8 68l43 223h179l-38 -197q-4 -17 -4 -36q0 -70 79 -70q70 0 133 38l51 265h179l-139 -715h-179l49 254l9 32h-2q-88 -33 -162 -33z" />
<glyph unicode="&#x428;" horiz-adv-x="1037" d="M18 0l139 715h175l-110 -566h180l110 566h175l-110 -566h180l110 566h175l-139 -715h-885z" />
<glyph unicode="&#x429;" horiz-adv-x="1082" d="M18 0l139 715h175l-110 -566h180l110 566h175l-110 -566h180l110 566h175l-110 -566h89l-57 -289h-155l28 140h-819z" />
<glyph unicode="&#x42a;" horiz-adv-x="734" d="M124 0l110 565h-180l29 150h355l-43 -221h117q91 0 143.5 -57.5t52.5 -152.5q0 -111 -80 -197.5t-202 -86.5h-302zM328 150h89q49 0 81 36t32 87q0 32 -20.5 51.5t-57.5 19.5h-86z" />
<glyph unicode="&#x42b;" horiz-adv-x="927" d="M618 0l139 715h175l-139 -715h-175zM18 0l139 715h175l-43 -221h107q91 0 143.5 -57.5t52.5 -152.5q0 -111 -80.5 -197.5t-201.5 -86.5h-292zM222 150h79q49 0 80.5 36t31.5 87q0 32 -20 51.5t-57 19.5h-76z" />
<glyph unicode="&#x42c;" horiz-adv-x="628" d="M18 0l139 715h175l-43 -221h117q91 0 143.5 -57.5t52.5 -152.5q0 -111 -80 -197.5t-202 -86.5h-302zM222 150h89q49 0 81 36t32 87q0 32 -20.5 51.5t-57.5 19.5h-86z" />
<glyph unicode="&#x42d;" horiz-adv-x="719" d="M196 288l27 140h296q-5 72 -48 106.5t-112 34.5q-101 0 -201 -78l-74 130q65 52 130 79t153 27q159 0 246 -87t87 -222q0 -171 -128 -300.5t-308 -129.5q-77 0 -150.5 28t-126.5 82l96 120q70 -72 183 -72q79 0 137.5 39t89.5 103h-297z" />
<glyph unicode="&#x42e;" horiz-adv-x="1112" d="M18 0l139 715h175l-56 -286h89q42 129 153 213.5t242 84.5q149 0 240.5 -87.5t91.5 -224.5q0 -113 -59 -212t-155 -157t-201 -58q-142 0 -231.5 81t-98.5 211h-100l-54 -280h-175zM526 317q0 -75 42.5 -122t110.5 -47q89 0 160.5 75.5t71.5 180.5q0 73 -42.5 118 t-110.5 45q-90 0 -161 -73.5t-71 -176.5z" />
<glyph unicode="&#x42f;" horiz-adv-x="661" d="M-46 0l181 230l42 47v2q-81 54 -81 163q0 147 107 222q74 51 179 51h284l-139 -715h-175l47 241h-60l-182 -241h-203zM351 386h76l35 179h-59q-63 0 -96 -27q-34 -28 -34 -79q0 -73 78 -73z" />
<glyph unicode="&#x430;" horiz-adv-x="546" d="M-9 124q0 54 31.5 94.5t83 61.5t105 31t107.5 10h8q3 14 3 21q0 45 -66 45q-55 0 -149 -47l-37 130q34 19 97.5 38t122.5 19q36 0 69 -8t65 -25t51 -51t19 -80q0 -20 -5 -50l-60 -313h-158l6 31l9 32h-2q-22 -28 -61.5 -51.5t-90.5 -23.5q-61 0 -104.5 36.5t-43.5 99.5z M160 153q0 -36 43 -36q33 0 64.5 28.5t37.5 60.5l3 16h-18q-18 0 -36.5 -2.5t-41.5 -9t-37.5 -21.5t-14.5 -36z" />
<glyph unicode="&#x431;" horiz-adv-x="619" d="M31 244q0 112 52 218q43 86 117.5 141t192.5 91l182 56l33 -139l-212 -62q-73 -21 -110.5 -46.5t-50.5 -73.5h2q57 45 143 45q92 0 145 -55t53 -144q0 -118 -88 -202.5t-219 -84.5q-115 0 -177.5 69t-62.5 187zM201 213q0 -38 23 -61t59 -23q48 0 84.5 38t36.5 90 q0 39 -23.5 60.5t-60.5 21.5q-51 0 -85 -38.5t-34 -87.5z" />
<glyph unicode="&#x432;" horiz-adv-x="569" d="M0 0l101 515h276q72 0 114 -31.5t42 -87.5q0 -38 -21.5 -73t-63.5 -55v-1q31 -12 46.5 -41t15.5 -63q0 -76 -67.5 -119.5t-156.5 -43.5h-286zM234 312h65q25 0 43.5 17.5t18.5 40.5q0 38 -45 38h-63zM194 108h76q26 0 46.5 18t20.5 45q0 40 -46 40h-77z" />
<glyph unicode="&#x433;" horiz-adv-x="438" d="M0 0l101 515h363l-29 -145h-190l-72 -370h-173z" />
<glyph unicode="&#x434;" horiz-adv-x="652" d="M221 137h132l46 241h-90l-4 -19q-29 -140 -84 -222zM-66 -120l49 257h60q77 101 103 236l27 142h425l-73 -378h74l-50 -257h-154l23 120h-302l-23 -120h-159z" />
<glyph unicode="&#x435;" horiz-adv-x="566" d="M19 213q0 134 85 224t212 90q107 0 163.5 -55t56.5 -147q0 -42 -19 -101h-325v-6q0 -39 27 -62.5t74 -23.5q71 0 153 52l44 -129q-33 -26 -92.5 -46.5t-115.5 -20.5q-126 0 -194.5 64.5t-68.5 160.5zM215 323h152q1 6 1 18q0 27 -14.5 43t-40.5 16q-70 0 -98 -77z" />
<glyph unicode="&#x436;" horiz-adv-x="828" d="M-46 0l186 274v2l-79 239h168l58 -183h47l36 183h161l-36 -183h45l125 183h187l-189 -264v-1l96 -250h-177l-62 187h-53l-37 -187h-161l37 187h-48l-118 -187h-186z" />
<glyph unicode="&#x437;" horiz-adv-x="473" d="M-26 61l75 108q59 -51 121 -51q28 0 50 14t22 42q0 32 -49 32h-63l23 114h52q26 0 46 12.5t20 36.5q0 32 -52 32q-54 0 -125 -39l-41 109q85 56 206 56q86 0 135 -37.5t49 -97.5q0 -85 -91 -126v-2q62 -38 62 -107q0 -80 -68.5 -124.5t-162.5 -44.5q-124 0 -209 73z" />
<glyph unicode="&#x438;" horiz-adv-x="619" d="M0 0l101 515h160l-43 -217l-13 -53h2q14 23 40 53l186 217h170l-101 -515h-160l42 215l13 54h-2q-16 -25 -40 -53l-185 -216h-170z" />
<glyph unicode="&#x439;" horiz-adv-x="619" d="M381 549q-79 0 -126.5 35.5t-47.5 90.5q0 14 5 38h130q-3 -11 -3 -22q0 -21 13 -35t38 -14q64 0 75 71h126q-13 -84 -71.5 -124t-138.5 -40zM0 0l101 515h160l-43 -217l-13 -53h2q14 23 40 53l186 217h170l-101 -515h-160l42 215l13 54h-2q-16 -25 -40 -53l-185 -216 h-170z" />
<glyph unicode="&#x43a;" horiz-adv-x="591" d="M0 0l101 515h173l-36 -181h52l125 181h198l-199 -266v-2l119 -247h-187l-82 189h-54l-37 -189h-173z" />
<glyph unicode="&#x43b;" horiz-adv-x="597" d="M-38 -5l29 151q20 3 36.5 11t36 28t35.5 62t28 103l32 165h422l-100 -515h-173l73 378h-86l-5 -29q-34 -172 -109 -263t-219 -91z" />
<glyph unicode="&#x43c;" horiz-adv-x="762" d="M-22 0l149 515h196l36 -226l6 -62h2q16 36 30 62l124 226h199l-52 -515h-164l35 237l16 88h-2q-22 -44 -41 -76l-103 -180h-140l-33 180l-13 78h-2q-9 -50 -18 -90l-59 -237h-166z" />
<glyph unicode="&#x43d;" horiz-adv-x="622" d="M0 0l101 515h173l-36 -182h159l36 182h173l-101 -515h-173l37 188h-159l-37 -188h-173z" />
<glyph unicode="&#x43e;" horiz-adv-x="640" d="M18 219q0 131 97.5 219.5t223.5 88.5q117 0 192 -63.5t75 -167.5q0 -132 -98 -220t-223 -88q-118 0 -192.5 63t-74.5 168zM193 227q0 -44 26.5 -69.5t68.5 -25.5q55 0 99 43t44 110q0 45 -26.5 71.5t-67.5 26.5q-54 0 -99 -44.5t-45 -111.5z" />
<glyph unicode="&#x43f;" horiz-adv-x="616" d="M0 0l101 515h499l-101 -515h-173l72 370h-153l-72 -370h-173z" />
<glyph unicode="&#x440;" horiz-adv-x="633" d="M172 -2l-38 -198h-172l138 715h156l-5 -26l-9 -33h2q58 71 155 71q92 0 145.5 -60.5t53.5 -163.5q0 -135 -86 -225t-196 -90q-85 0 -135 54h-2q-2 -18 -7 -44zM214 222q0 -40 20 -65.5t60 -25.5q49 0 89 44t40 115q0 42 -21.5 66.5t-58.5 24.5q-45 0 -87 -44.5 t-42 -114.5z" />
<glyph unicode="&#x441;" horiz-adv-x="554" d="M19 224q0 117 91 210t231 93q134 0 210 -76l-87 -108q-21 18 -53.5 29t-61.5 11q-68 0 -111.5 -46.5t-43.5 -102.5q0 -43 27 -72.5t79 -29.5q67 0 154 62l44 -131q-39 -32 -101 -53.5t-121 -21.5q-123 0 -190 66.5t-67 169.5z" />
<glyph unicode="&#x442;" horiz-adv-x="516" d="M113 0l72 370h-156l29 145h486l-29 -145h-157l-72 -370h-173z" />
<glyph unicode="&#x443;" horiz-adv-x="565" d="M-6 -50q21 -16 51 -16q61 0 93 52l15 24l-121 505h180l42 -255l5 -76h2q18 45 31 73l115 258h194l-322 -570q-45 -79 -105 -117t-120 -38q-73 0 -135 40z" />
<glyph unicode="&#x444;" horiz-adv-x="791" d="M20 225q0 123 96.5 207t241.5 95l34 173h163l-34 -173q99 -3 166.5 -69t67.5 -169q0 -123 -96 -206.5t-242 -94.5l-37 -188h-163l37 188q-99 3 -166.5 68.5t-67.5 168.5zM443 124q60 6 101.5 52.5t41.5 107.5q0 47 -25 75.5t-66 31.5zM186 230q0 -45 25.5 -73.5 t68.5 -32.5l52 267q-61 -6 -103.5 -53t-42.5 -108z" />
<glyph unicode="&#x445;" horiz-adv-x="549" d="M-47 0l216 260l-122 255h182l42 -110l11 -38h2q13 25 22 38l78 110h200l-220 -265l119 -250h-178l-46 111l-9 30h-2q-11 -21 -18 -30l-80 -111h-197z" />
<glyph unicode="&#x446;" horiz-adv-x="647" d="M1 0l100 515h173l-72 -370h146l72 370h173l-72 -370h73l-51 -265h-154l23 120h-411z" />
<glyph unicode="&#x447;" horiz-adv-x="574" d="M196 162q-75 0 -119.5 34.5t-44.5 99.5q0 20 4 39l35 180h170l-25 -126q-6 -34 -6 -38q0 -23 15 -37.5t41 -14.5q41 0 81 25l38 191h173l-101 -515h-173l33 166l6 23h-2q-52 -27 -125 -27z" />
<glyph unicode="&#x448;" horiz-adv-x="838" d="M0 0l101 515h163l-72 -370h116l72 370h163l-72 -370h116l72 370h163l-101 -515h-721z" />
<glyph unicode="&#x449;" horiz-adv-x="876" d="M1 0l100 515h163l-72 -370h116l72 370h163l-72 -370h116l72 370h163l-72 -370h73l-51 -265h-154l23 120h-640z" />
<glyph unicode="&#x44a;" horiz-adv-x="617" d="M77 0l72 370h-130l29 145h303l-32 -161h85q89 0 131.5 -41t42.5 -113q0 -92 -63 -146t-170 -54h-268zM272 113h53q31 0 54 22.5t23 55.5q0 51 -55 51h-50z" />
<glyph unicode="&#x44b;" horiz-adv-x="804" d="M514 0l101 515h173l-101 -515h-173zM0 0l101 515h173l-32 -161h80q89 0 131.5 -41t42.5 -113q0 -92 -63 -146t-170 -54h-263zM195 113h48q31 0 54 22.5t23 55.5q0 51 -55 51h-45z" />
<glyph unicode="&#x44c;" horiz-adv-x="540" d="M0 0l101 515h173l-32 -161h85q89 0 131.5 -41t42.5 -113q0 -92 -63 -146t-170 -54h-268zM195 113h53q31 0 54 22.5t23 55.5q0 51 -55 51h-50z" />
<glyph unicode="&#x44d;" horiz-adv-x="551" d="M142 202l22 114h194q-14 77 -110 77q-81 0 -138 -51l-60 114q38 34 98 52.5t119 18.5q121 0 186 -66.5t65 -164.5q0 -126 -98 -217t-237 -91q-56 0 -115 19.5t-93 55.5l70 111q25 -24 64 -38t77 -14q48 0 87 21.5t62 58.5h-193z" />
<glyph unicode="&#x44e;" horiz-adv-x="889" d="M0 0l101 515h173l-37 -186h63q35 89 119 143.5t183 54.5q107 0 179.5 -64t72.5 -173q0 -127 -94.5 -214.5t-223.5 -87.5q-100 0 -170.5 54.5t-82.5 149.5h-72l-38 -192h-173zM456 231q0 -48 23.5 -73.5t62.5 -25.5q53 0 95 42.5t42 106.5q0 49 -25.5 75.5t-65.5 26.5 q-53 0 -92.5 -43.5t-39.5 -108.5z" />
<glyph unicode="&#x44f;" horiz-adv-x="564" d="M-43 0l132 160l31 31v2q-66 41 -66 131q0 80 61 135.5t149 55.5h284l-101 -515h-173l31 157h-36l-121 -157h-191zM226 323q0 -51 60 -51h41l27 136h-42q-37 0 -61.5 -23t-24.5 -62z" />
<glyph unicode="&#x450;" horiz-adv-x="566" d="M19 213q0 134 85 224t212 90q107 0 163.5 -55t56.5 -147q0 -42 -19 -101h-325v-6q0 -39 27 -62.5t74 -23.5q71 0 153 52l44 -129q-33 -26 -92.5 -46.5t-115.5 -20.5q-126 0 -194.5 64.5t-68.5 160.5zM296 565l-88 150h165l51 -150h-128zM215 323h152q1 6 1 18 q0 27 -14.5 43t-40.5 16q-70 0 -98 -77z" />
<glyph unicode="&#x451;" horiz-adv-x="566" d="M19 213q0 134 85 224t212 90q107 0 163.5 -55t56.5 -147q0 -42 -19 -101h-325v-6q0 -39 27 -62.5t74 -23.5q71 0 153 52l44 -129q-33 -26 -92.5 -46.5t-115.5 -20.5q-126 0 -194.5 64.5t-68.5 160.5zM180 575l28 140h126l-28 -140h-126zM389 575l28 140h126l-28 -140 h-126zM215 323h152q1 6 1 18q0 27 -14.5 43t-40.5 16q-70 0 -98 -77z" />
<glyph unicode="&#x452;" horiz-adv-x="627" d="M44 522l22 115h59l15 78h173l-15 -78h163l-22 -115h-164l-19 -100l-12 -42h2q22 34 69 57t97 23q72 0 116 -35t44 -111q0 -20 -7 -57l-47 -250q-10 -52 -33.5 -92t-51 -63t-62.5 -37t-62.5 -18.5t-54.5 -4.5l-66 3l29 145q16 -2 36 -2q79 0 96 91l39 200q3 18 3 30 q0 44 -45 44q-50 0 -89.5 -42t-50.5 -100l-32 -161h-173l101 522h-58z" />
<glyph unicode="&#x453;" horiz-adv-x="438" d="M0 0l101 515h363l-29 -145h-190l-72 -370h-173zM196 565l111 150h177l-148 -150h-140z" />
<glyph unicode="&#x454;" horiz-adv-x="558" d="M18 224q0 121 99.5 212t234.5 91q136 0 200 -71l-78 -112q-22 21 -59 33.5t-72 12.5q-45 0 -82.5 -19.5t-60.5 -54.5h194l-22 -114h-196q15 -80 122 -80q77 0 156 64l49 -124q-36 -31 -106 -52.5t-130 -21.5q-120 0 -184.5 66.5t-64.5 169.5z" />
<glyph unicode="&#x455;" horiz-adv-x="468" d="M-17 58l82 116q23 -21 59.5 -33.5t72.5 -12.5q55 0 55 30q0 13 -21 24t-51 22.5t-60 27.5t-51 48.5t-21 77.5q0 75 62.5 122t155.5 47q104 0 189 -57l-68 -120q-47 37 -126 37q-53 0 -53 -29q0 -13 21 -23.5t51 -21.5t60.5 -27.5t51.5 -50.5t21 -81q0 -75 -58 -120.5 t-151 -45.5q-126 0 -221 70z" />
<glyph unicode="&#x456;" horiz-adv-x="289" d="M115 580l26 135h169l-26 -135h-169zM1 0l99 515h173l-100 -515h-172z" />
<glyph unicode="&#x457;" horiz-adv-x="289" d="M1 0l99 515h173l-100 -515h-172zM241 575l28 140h126l-28 -140h-126zM32 575l28 140h126l-28 -140h-126z" />
<glyph unicode="&#x458;" horiz-adv-x="290" d="M115 580l26 135h169l-26 -135h-169zM1 4l99 511h173l-102 -526q-12 -62 -43.5 -104t-73.5 -60.5t-76.5 -25.5t-70.5 -7q-28 0 -61 3l28 144q6 -1 22 -1q92 0 105 66z" />
<glyph unicode="&#x459;" horiz-adv-x="825" d="M-36 -5l28 151q23 3 39 10t35.5 25.5t35.5 58.5t28 100l34 175h401l-35 -177h75q180 0 180 -149q0 -91 -65.5 -140t-170.5 -49h-258l73 378h-65l-6 -31q-18 -91 -42.5 -154.5t-63 -110t-93.5 -68t-130 -19.5zM486 113h56q30 0 54 17t24 47q0 47 -59 47h-53z" />
<glyph unicode="&#x45a;" horiz-adv-x="871" d="M0 0l101 515h173l-34 -175h165l34 175h173l-35 -177h75q180 0 180 -149q0 -91 -65.5 -140t-170.5 -49h-258l41 207h-165l-41 -207h-173zM533 113h56q30 0 54 17t24 47q0 47 -59 47h-53z" />
<glyph unicode="&#x45b;" horiz-adv-x="628" d="M43 522l23 115h59l15 78h173l-16 -78h164l-23 -115h-163l-19 -98l-10 -44h2q22 35 68 58.5t95 23.5q73 0 117.5 -35t44.5 -111q0 -20 -7 -57l-50 -259h-173l45 231q3 18 3 30q0 44 -46 44q-50 0 -89.5 -42t-50.5 -100l-31 -163h-173l101 522h-59z" />
<glyph unicode="&#x45c;" horiz-adv-x="591" d="M0 0l101 515h173l-36 -181h52l125 181h198l-199 -266v-2l119 -247h-187l-82 189h-54l-37 -189h-173zM272 565l111 150h177l-148 -150h-140z" />
<glyph unicode="&#x45d;" horiz-adv-x="619" d="M312 565l-88 150h165l51 -150h-128zM0 0l101 515h160l-43 -217l-13 -53h2q14 23 40 53l186 217h170l-101 -515h-160l42 215l13 54h-2q-16 -25 -40 -53l-185 -216h-170z" />
<glyph unicode="&#x45e;" horiz-adv-x="565" d="M-6 -50q21 -16 51 -16q61 0 93 52l15 24l-121 505h180l42 -255l5 -76h2q18 45 31 73l115 258h194l-322 -570q-45 -79 -105 -117t-120 -38q-73 0 -135 40zM340 551q-79 0 -126.5 35.5t-47.5 90.5q0 14 5 38h130q-3 -11 -3 -22q0 -21 13 -35t38 -14q64 0 75 71h126 q-13 -84 -71.5 -124t-138.5 -40z" />
<glyph unicode="&#x45f;" horiz-adv-x="609" d="M1 0l100 515h173l-72 -370h146l72 370h173l-100 -515h-169l-23 -120h-154l23 120h-169z" />
<glyph unicode="&#x462;" horiz-adv-x="715" d="M106 0l104 539h-160l26 130h164l15 81h171l-15 -81h204l-26 -130h-204l-16 -85h112q93 0 148.5 -54.5t55.5 -139.5q0 -106 -80 -183t-192 -77h-307zM310 150h89q41 0 72.5 24.5t31.5 66.5q0 63 -77 63h-86z" />
<glyph unicode="&#x463;" horiz-adv-x="596" d="M57 0l89 456h-122l23 121h121l27 138h173l-27 -138h161l-23 -121h-160l-20 -102h85q178 0 178 -154q0 -91 -65.5 -145.5t-171.5 -54.5h-268zM252 113h58q33 0 56 22.5t23 57.5q0 22 -15 35.5t-42 13.5h-55z" />
<glyph unicode="&#x472;" horiz-adv-x="820" d="M44 307q0 111 58.5 208.5t155.5 154.5t205 57q152 0 244.5 -87.5t92.5 -224.5q0 -113 -59.5 -212t-156.5 -157t-204 -58q-152 0 -244 89.5t-92 229.5zM461 572q-67 0 -127.5 -41t-91.5 -107h381q-7 67 -51 107.5t-111 40.5zM382 143q65 0 125 41t91 108h-378 q8 -68 52 -108.5t110 -40.5z" />
<glyph unicode="&#x473;" horiz-adv-x="641" d="M19 224q0 128 98.5 215.5t230.5 87.5q110 0 184.5 -63.5t74.5 -172.5q0 -128 -98.5 -215.5t-230.5 -87.5q-110 0 -184.5 63.5t-74.5 172.5zM286 112q48 0 90.5 27t62.5 74h-264q4 -50 34 -75.5t77 -25.5zM341 403q-45 0 -87.5 -26t-63.5 -70h260q-7 47 -36 71.5t-73 24.5 z" />
<glyph unicode="&#x474;" horiz-adv-x="695" d="M188 0l-114 715h182l47 -407l5 -115h2q26 70 49 115l178 349q17 33 37.5 45.5t57.5 12.5h133l-29 -150h-25q-20 0 -31.5 -8.5t-23.5 -30.5l-286 -526h-182z" />
<glyph unicode="&#x475;" horiz-adv-x="598" d="M121 0l-77 515h174l26 -274l2 -89h2q20 55 36 89l87 177q25 54 56 75.5t83 21.5h115l-29 -145h-24q-26 0 -39 -9.5t-28 -37.5l-173 -323h-211z" />
<glyph unicode="&#x48a;" horiz-adv-x="822" d="M18 0l139 715h175l-65 -334l-32 -122h2q47 75 84 122l263 334h177l-110 -565h137l-18 -91l-128 -199h-117l61 140h-139l65 333q4 20 11.5 50.5t13.5 50.5l6 21h-2q-46 -75 -83 -122l-264 -333h-176zM469 747q-79 0 -126.5 35.5t-47.5 90.5q0 14 5 38h130q-3 -10 -3 -22 q0 -21 13 -35t38 -14q64 0 75 71h126q-13 -84 -71.5 -124t-138.5 -40z" />
<glyph unicode="&#x48b;" horiz-adv-x="696" d="M0 0l101 515h160l-43 -217l-13 -53h2q14 23 40 53l186 217h170l-73 -370h125l-16 -86l-114 -179h-111l51 120h-123l42 215l13 54h-2q-16 -25 -40 -53l-185 -216h-170zM361 551q-79 0 -126.5 35.5t-47.5 90.5q0 14 5 38h130q-3 -11 -3 -22q0 -21 13 -35t38 -14q64 0 75 71 h126q-13 -84 -71.5 -124t-138.5 -40z" />
<glyph unicode="&#x48c;" horiz-adv-x="715" d="M105 0l106 547h-160l25 130h164l14 73h171l-14 -73h204l-25 -130h-204l-18 -93h112q90 0 147 -59t57 -146q0 -103 -78 -176t-194 -73h-307zM309 150h89q41 0 74 24.5t33 66.5q0 63 -80 63h-86z" />
<glyph unicode="&#x48d;" horiz-adv-x="596" d="M57 0l89 456h-122l23 121h121l27 138h173l-27 -138h161l-23 -121h-160l-20 -102h85q178 0 178 -154q0 -91 -65.5 -145.5t-171.5 -54.5h-268zM252 113h58q33 0 56 22.5t23 57.5q0 22 -15 35.5t-42 13.5h-55z" />
<glyph unicode="&#x48e;" horiz-adv-x="646" d="M18 0l139 715h273q64 0 109 -22q50 -24 77 -71t27 -110q0 -131 -93 -219l50 -60l-74 -64l-59 71q-45 -19 -98 -19h-133l-43 -221h-175zM328 408l74 64l57 -69q24 42 24 93q0 32 -18.5 50.5t-53.5 18.5h-108l-40 -214h105h7z" />
<glyph unicode="&#x48f;" horiz-adv-x="648" d="M172 -2l-38 -198h-172l138 715h156l-5 -26l-9 -33h2q59 71 158 71q90 0 143 -61t53 -164q0 -135 -89 -227l58 -71l-77 -63l-60 75q-56 -28 -114 -28q-85 0 -135 54h-2q-2 -18 -7 -44zM284 198l77 63l56 -71q26 41 26 89q0 46 -23.5 74t-65.5 28q-56 0 -98 -45t-42 -112 q0 -46 22 -74.5t64 -28.5q20 0 40 6z" />
<glyph unicode="&#x490;" horiz-adv-x="542" d="M18 0l139 715h314l24 120h140l-53 -270h-279l-110 -565h-175z" />
<glyph unicode="&#x491;" horiz-adv-x="454" d="M1 0l100 515h248l23 120h131l-51 -265h-206l-72 -370h-173z" />
<glyph unicode="&#x492;" horiz-adv-x="536" d="M22 0l54 281h-55l23 120h56l61 314h438l-29 -150h-263l-32 -164h155l-23 -120h-156l-54 -281h-175z" />
<glyph unicode="&#x493;" horiz-adv-x="451" d="M8 0l34 177h-59l20 105h60l46 233h363l-29 -145h-190l-17 -88h121l-20 -105h-122l-34 -177h-173z" />
<glyph unicode="&#x494;" horiz-adv-x="653" d="M18 0l139 715h439l-29 -150h-264l-30 -154q50 16 110 16q108 0 164.5 -64t56.5 -179q0 -105 -44 -194t-129 -140t-192 -40l27 140q65 0 108.5 64t43.5 149q0 54 -22.5 82t-76.5 28q-33 0 -75 -13l-51 -260h-175z" />
<glyph unicode="&#x495;" horiz-adv-x="544" d="M1 0l100 515h381l-26 -136h-208l-19 -96q40 16 87 16q80 0 126.5 -48.5t46.5 -134.5q0 -100 -58 -184.5t-160 -141.5l-76 120q55 30 92 82.5t37 103.5q0 31 -17.5 49t-51.5 18q-23 0 -51 -13l-30 -150h-173z" />
<glyph unicode="&#x496;" horiz-adv-x="1070" d="M-46 0l271 387v2l-132 326h178l109 -276h67l54 276h175l-54 -276h67l177 276h208l-247 -357v-2l69 -207h131l-57 -289h-155l28 140h-77l-90 290h-83l-56 -290h-175l56 290h-67l-192 -290h-205z" />
<glyph unicode="&#x497;" horiz-adv-x="881" d="M-46 0l186 274v2l-79 239h168l58 -183h47l36 183h161l-36 -183h45l125 183h187l-189 -264v-1l40 -105h129l-51 -265h-153l23 120h-69l-62 187h-53l-37 -187h-161l37 187h-48l-118 -187h-186z" />
<glyph unicode="&#x498;" horiz-adv-x="573" d="M-18 97l100 112q27 -32 65 -50t77 -18q47 0 81 25t34 68q0 54 -73 54h-103l27 140h87q39 0 69 25t30 63q0 59 -70 59q-67 0 -151 -59l-62 127q107 84 242 84q98 0 162 -46.5t64 -132.5q0 -60 -34.5 -107.5t-92.5 -71.5l-1 -2q38 -18 61.5 -55t23.5 -85 q0 -85 -59.5 -146.5t-149.5 -82.5l-27 -138h-155l27 136q-110 22 -172 101z" />
<glyph unicode="&#x499;" horiz-adv-x="474" d="M-26 61l75 108q59 -51 121 -51q28 0 50 14t22 42q0 32 -49 32h-63l23 114h52q26 0 46 12.5t20 36.5q0 32 -52 32q-54 0 -125 -39l-41 109q85 56 206 56q86 0 135 -37.5t49 -97.5q0 -85 -91 -126v-2q62 -38 62 -107q0 -63 -44.5 -105t-113.5 -56l-22 -116h-150l22 117 q-76 16 -132 64z" />
<glyph unicode="&#x49a;" horiz-adv-x="724" d="M18 0l139 715h175l-54 -276h67l205 276h203l-271 -351v-2l76 -213h116l-57 -289h-155l28 140h-64l-95 290h-82l-56 -290h-175z" />
<glyph unicode="&#x49b;" horiz-adv-x="642" d="M0 0l101 515h173l-36 -181h52l125 181h198l-199 -266v-2l49 -102h130l-51 -265h-153l23 120h-66l-82 189h-54l-37 -189h-173z" />
<glyph unicode="&#x49c;" horiz-adv-x="804" d="M18 0l139 715h175l-54 -276h51l21 106h120l-21 -106h30l182 276h204l-260 -367v-2l136 -346h-181l-110 290h-30l-21 -109h-120l21 109h-51l-56 -290h-175z" />
<glyph unicode="&#x49d;" horiz-adv-x="691" d="M0 0l101 515h173l-36 -181h31l18 93h100l-18 -93h18l128 181h198l-201 -259v-2l121 -254h-187l-82 189h-23l-18 -94h-100l18 94h-31l-37 -189h-173z" />
<glyph unicode="&#x49e;" horiz-adv-x="689" d="M60 515l22 112h65l17 88h175l-17 -88h69l-22 -112h-69l-15 -76h67l205 276h203l-271 -351v-2l130 -362h-186l-95 290h-82l-56 -290h-175l100 515h-65z" />
<glyph unicode="&#x49f;" horiz-adv-x="596" d="M35 527l22 110h68l15 78h173l-15 -78h82l-22 -110h-82l-35 -182h47l136 170h201l-207 -244v-2l115 -269h-183l-75 200h-62l-39 -200h-173l102 527h-68z" />
<glyph unicode="&#x4a0;" horiz-adv-x="804" d="M140 0l110 565h-184l29 150h359l-54 -276h67l205 276h203l-271 -351v-2l130 -362h-186l-95 290h-82l-56 -290h-175z" />
<glyph unicode="&#x4a1;" horiz-adv-x="668" d="M77 0l72 370h-129l28 145h303l-36 -181h52l125 181h198l-199 -266v-2l119 -247h-187l-82 189h-54l-37 -189h-173z" />
<glyph unicode="&#x4a2;" horiz-adv-x="811" d="M18 0l139 715h175l-56 -286h260l56 286h175l-110 -566h114l-57 -289h-155l28 140h-134l54 280h-260l-54 -280h-175z" />
<glyph unicode="&#x4a3;" horiz-adv-x="678" d="M0 0l101 515h173l-36 -182h159l36 182h173l-73 -370h99l-51 -265h-153l23 120h-119l37 188h-159l-37 -188h-173z" />
<glyph unicode="&#x4a4;" horiz-adv-x="961" d="M18 0l139 715h175l-56 -286h260l56 286h438l-29 -150h-263l-110 -565h-175l54 280h-260l-54 -280h-175z" />
<glyph unicode="&#x4a5;" horiz-adv-x="762" d="M0 0l101 515h173l-36 -182h159l36 182h355l-29 -145h-182l-72 -370h-173l37 188h-159l-37 -188h-173z" />
<glyph unicode="&#x4a6;" horiz-adv-x="1006" d="M18 0l139 715h534l-57 -294q50 16 110 16q108 0 163.5 -65t55.5 -183q0 -106 -43.5 -195.5t-128.5 -141.5t-193 -42l27 140q65 0 108.5 65.5t43.5 152.5q0 56 -22 85.5t-75 29.5q-33 0 -75 -13l-53 -270h-175l110 567h-183l-111 -567h-175z" />
<glyph unicode="&#x4a7;" horiz-adv-x="866" d="M1 0l100 515h475l-38 -190q51 18 96 18q80 0 129.5 -60.5t49.5 -164.5q0 -128 -76 -216t-175 -112l-44 129q120 50 120 185q0 43 -20 70t-57 27q-21 0 -48 -12l-37 -189h-173l72 370h-129l-72 -370h-173z" />
<glyph unicode="&#x4a8;" horiz-adv-x="955" d="M46 312q0 130 75 242t194 174l71 -158q-69 -40 -115.5 -107t-46.5 -145q0 -74 43 -122t131 -48q28 0 51 4q-71 89 -71 206q0 88 37.5 168.5t112.5 134.5t171 54q111 0 172.5 -69t61.5 -172q0 -88 -45.5 -175t-123.5 -157q13 -2 41 -2h65l-27 -140h-68q-89 0 -172 37 q-107 -49 -215 -49q-147 0 -244.5 88t-97.5 236zM555 355q0 -85 48 -139q68 46 109.5 112t41.5 138q0 90 -71 90q-45 0 -75.5 -35.5t-41.5 -78.5t-11 -87z" />
<glyph unicode="&#x4a9;" horiz-adv-x="833" d="M21 234q0 94 58.5 174t154.5 119l58 -137q-46 -22 -79.5 -62.5t-33.5 -88.5t33.5 -83t99.5 -35q24 0 45 4q-53 63 -53 145q0 105 78 181t194 76q95 0 150 -52.5t55 -130.5q0 -115 -118 -218h23h90l-25 -126h-80q-90 0 -168 29q-101 -41 -194 -41q-117 0 -202.5 65 t-85.5 181zM464 275q0 -60 42 -97q115 66 115 157q0 63 -59 63q-48 0 -73 -37.5t-25 -85.5z" />
<glyph unicode="&#x4aa;" horiz-adv-x="717" d="M45 305q0 173 124 297.5t296 124.5q79 0 153 -25.5t123 -77.5l-99 -120q-74 63 -171 63q-111 0 -178 -78t-67 -172q0 -73 42.5 -121t123.5 -48q102 0 209 85l68 -139q-45 -40 -112 -68.5t-137 -35.5l-26 -130h-155l28 143q-105 29 -163.5 109.5t-58.5 192.5z" />
<glyph unicode="&#x4ab;" horiz-adv-x="556" d="M20 224q0 117 91 210t231 93q134 0 210 -76l-87 -108q-21 18 -53.5 29t-61.5 11q-68 0 -111.5 -46.5t-43.5 -102.5q0 -43 27 -72.5t79 -29.5q67 0 154 62l44 -131q-69 -58 -178 -72l-21 -111h-150l24 123q-75 25 -114.5 84t-39.5 137z" />
<glyph unicode="&#x4ac;" horiz-adv-x="636" d="M168 0l110 565h-216l29 150h607l-29 -150h-216l-81 -416h115l-57 -289h-155l28 140h-135z" />
<glyph unicode="&#x4ad;" horiz-adv-x="525" d="M113 0l72 370h-156l29 145h486l-29 -145h-157l-44 -225h98l-51 -265h-153l23 120h-118z" />
<glyph unicode="&#x4ae;" horiz-adv-x="610" d="M158 0l57 293l-149 422h189l48 -172l23 -103h2q31 53 63 103l109 172h210l-322 -429l-55 -286h-175z" />
<glyph unicode="&#x4af;" horiz-adv-x="564" d="M139 0l-97 515h175l31 -254l2 -87h2q19 53 36 87l128 254h190l-295 -515l-39 -200h-172z" />
<glyph unicode="&#x4b0;" horiz-adv-x="608" d="M92 189l23 120h95l-148 406h191l48 -172l23 -103h2q30 54 63 103l113 172h207l-306 -406h107l-23 -120h-116l-37 -189h-175l37 189h-104z" />
<glyph unicode="&#x4b1;" horiz-adv-x="565" d="M20 0l21 110h78l-76 405h176l31 -254l2 -87h2q19 53 36 87l128 254h189l-232 -405h78l-21 -110h-120l-39 -200h-172l39 200h-120z" />
<glyph unicode="&#x4b2;" horiz-adv-x="701" d="M-49 0l286 360l-149 355h191l52 -144l28 -91h2q25 45 59 91l105 144h204l-291 -364l87 -202h128l-57 -289h-155l28 140h-67l-56 147l-28 88h-2q-25 -43 -59 -88l-109 -147h-197z" />
<glyph unicode="&#x4b3;" horiz-adv-x="590" d="M-47 0l216 260l-122 255h182l42 -110l11 -38h2q13 25 22 38l78 110h200l-220 -265l50 -105h123l-51 -265h-153l23 120h-51l-46 111l-9 30h-2q-11 -21 -18 -30l-80 -111h-197z" />
<glyph unicode="&#x4b4;" horiz-adv-x="933" d="M141 0l109 565h-185l30 150h545l-30 -150h-185l-80 -416h264l110 566h175l-110 -566h98l-57 -289h-155l28 140h-557z" />
<glyph unicode="&#x4b5;" horiz-adv-x="764" d="M74 0l72 370h-114l28 145h402l-28 -145h-115l-44 -225h186l72 370h173l-72 -370h82l-51 -264h-154l23 119h-460z" />
<glyph unicode="&#x4b6;" horiz-adv-x="739" d="M270 253q-98 0 -152 45t-54 126q0 28 8 68l43 223h179l-38 -197q-4 -17 -4 -36q0 -70 79 -70q70 0 133 38l51 265h179l-110 -566h115l-57 -289h-155l28 140h-139l49 254l9 32h-2q-88 -33 -162 -33z" />
<glyph unicode="&#x4b7;" horiz-adv-x="628" d="M196 162q-75 0 -119.5 34.5t-44.5 99.5q0 20 4 39l35 180h170l-25 -126q-6 -34 -6 -38q0 -23 15 -37.5t41 -14.5q41 0 81 25l38 191h173l-73 -370h97l-51 -265h-153l23 120h-117l33 166l6 23h-2q-52 -27 -125 -27z" />
<glyph unicode="&#x4b8;" horiz-adv-x="728" d="M256 166l18 92q-101 2 -156 45.5t-55 120.5q0 28 8 68l43 223h179l-38 -197q-4 -17 -4 -36q0 -54 53 -67l26 130h120l-24 -123q50 13 77 28l51 265h179l-139 -715h-179l52 264l9 32h-2q-52 -19 -78 -25l-20 -105h-120z" />
<glyph unicode="&#x4b9;" horiz-adv-x="634" d="M206 85l15 77q-86 0 -136 36.5t-50 112.5q0 23 6 52l30 152h170l-25 -122q-4 -24 -4 -33q0 -44 37 -55l22 112h100l-22 -113q28 6 58 20l38 191h173l-101 -515h-173l33 166l6 23h-1q-26 -11 -59 -17l-17 -87h-100z" />
<glyph unicode="&#x4ba;" horiz-adv-x="656" d="M19 0l138 715h175l-49 -256l-9 -34h2q77 31 158 31q90 0 134.5 -47t44.5 -127q0 -35 -7 -69l-42 -213h-179l38 197q4 26 4 37q0 64 -77 64q-55 0 -103 -26l-53 -272h-175z" />
<glyph unicode="&#x4bb;" horiz-adv-x="627" d="M1 0l139 715h173l-44 -226l-10 -44h2q22 35 68 58.5t95 23.5q73 0 117.5 -35t44.5 -111q0 -20 -7 -57l-63 -324h-173l58 296q3 18 3 30q0 44 -46 44q-50 0 -89.5 -42t-50.5 -100l-44 -228h-173z" />
<glyph unicode="&#x4bc;" horiz-adv-x="915" d="M57 481q0 68 46 167h160q-49 -91 -49 -143q0 -54 42 -61q44 122 146.5 202.5t236.5 80.5q126 0 194.5 -72.5t68.5 -190.5q0 -75 -29 -154h-461q0 -71 41.5 -116.5t117.5 -45.5q55 0 109 22.5t88 50.5l69 -138q-21 -17 -50.5 -34.5t-97.5 -39t-138 -21.5q-149 0 -235 85.5 t-86 223.5v14q-76 2 -124.5 44t-48.5 126zM438 443h292q3 17 3 31q0 45 -30 72.5t-84 27.5q-68 0 -118 -42t-63 -89z" />
<glyph unicode="&#x4bd;" horiz-adv-x="718" d="M31 365q0 54 30 111h134q-33 -59 -33 -97q0 -39 28 -46q33 86 108 140t175 54q101 0 158 -55t57 -145q0 -44 -19 -103h-325v-6q0 -39 27 -62.5t74 -23.5q71 0 153 52l44 -129q-35 -26 -92.5 -46.5t-124.5 -20.5q-111 0 -182.5 62t-71.5 174v2q-68 4 -104 40t-36 99z M367 323h152q1 6 1 18q0 27 -15 43t-43 16q-32 0 -57 -20.5t-38 -56.5z" />
<glyph unicode="&#x4be;" horiz-adv-x="917" d="M58 481q0 68 46 167h160q-49 -91 -49 -143q0 -54 42 -61q44 122 146.5 202.5t236.5 80.5q126 0 194.5 -72.5t68.5 -190.5q0 -75 -29 -154h-461q0 -71 41.5 -116.5t117.5 -45.5q55 0 109 22.5t88 50.5l69 -138q-108 -84 -256 -94l-25 -129h-155l28 146q-95 31 -147 108 t-52 183v14q-76 2 -124.5 44t-48.5 126zM439 443h292q3 17 3 31q0 45 -30 72.5t-84 27.5q-68 0 -118 -42t-63 -89z" />
<glyph unicode="&#x4bf;" horiz-adv-x="720" d="M32 365q0 54 30 111h134q-33 -59 -33 -97q0 -39 28 -46q33 86 108 140t175 54q101 0 158 -55t57 -145q0 -44 -19 -103h-325v-6q0 -39 27 -62.5t74 -23.5q71 0 153 52l44 -129q-75 -56 -182 -65l-21 -110h-150l24 127q-66 25 -104 80.5t-38 136.5v2q-68 4 -104 40t-36 99z M368 323h152q1 6 1 18q0 27 -15 43t-43 16q-32 0 -57 -20.5t-38 -56.5z" />
<glyph unicode="&#x4c0;" horiz-adv-x="327" d="M18 0l139 715h175l-139 -715h-175z" />
<glyph unicode="&#x4c1;" horiz-adv-x="1018" d="M-46 0l271 387v2l-132 326h178l109 -276h67l54 276h175l-54 -276h67l177 276h208l-247 -357v-2l119 -356h-180l-90 290h-83l-56 -290h-175l56 290h-67l-192 -290h-205zM602 747q-79 0 -126.5 35.5t-47.5 90.5q0 14 5 38h130q-3 -10 -3 -22q0 -21 13 -35t38 -14 q64 0 75 71h126q-13 -84 -71.5 -124t-138.5 -40z" />
<glyph unicode="&#x4c2;" horiz-adv-x="828" d="M-46 0l186 274v2l-79 239h168l58 -183h47l36 183h161l-36 -183h45l125 183h187l-189 -264v-1l96 -250h-177l-62 187h-53l-37 -187h-161l37 187h-48l-118 -187h-186zM467 551q-79 0 -126.5 35.5t-47.5 90.5q0 14 5 38h130q-3 -11 -3 -22q0 -21 13 -35t38 -14q64 0 75 71 h126q-13 -84 -71.5 -124t-138.5 -40z" />
<glyph unicode="&#x4c3;" horiz-adv-x="695" d="M18 0l139 715h175l-53 -276q52 0 71 -1l192 277h202l-232 -320q111 -68 111 -224q0 -64 -20.5 -128t-59.5 -120.5t-107 -88t-152 -24.5l28 145q37 0 63.5 23.5t39 60t18 69.5t5.5 63q0 60 -27.5 91.5t-98.5 31.5h-61l-58 -294h-175z" />
<glyph unicode="&#x4c4;" horiz-adv-x="596" d="M1 0l100 515h173l-35 -181q30 0 52 -2l124 183h201l-179 -235q84 -64 84 -179q0 -98 -63 -181t-159 -130l-69 118q55 27 91.5 78.5t36.5 107.5q0 95 -103 95h-44l-37 -189h-173z" />
<glyph unicode="&#x4c5;" horiz-adv-x="781" d="M405 0l110 565h-139l-17 -87q-51 -260 -147.5 -373t-255.5 -113l31 159q71 9 121.5 80.5t84.5 248.5l46 235h480l-110 -565h138l-18 -91l-128 -199h-117l61 140h-140z" />
<glyph unicode="&#x4c6;" horiz-adv-x="666" d="M-38 -5l29 151q20 3 36.5 11t36 28t35.5 62t28 103l32 165h422l-72 -370h115l-16 -86l-114 -179h-111l51 120h-126l73 378h-86l-5 -29q-34 -172 -109 -263t-219 -91z" />
<glyph unicode="&#x4c7;" horiz-adv-x="762" d="M18 0l139 715h175l-56 -286h260l56 286h175l-120 -625q-17 -89 -47.5 -148.5t-73.5 -89t-91.5 -39.5t-111.5 -4l30 152q50 -2 75 23.5t43 111.5l36 184h-260l-54 -280h-175z" />
<glyph unicode="&#x4c8;" horiz-adv-x="622" d="M1 0l100 515h173l-35 -182h159l35 182h173l-90 -462q-18 -96 -69 -155.5t-147 -107.5l-75 121q32 18 44.5 26t31.5 26t28.5 42.5t16.5 61.5l23 121h-159l-36 -188h-173z" />
<glyph unicode="&#x4c9;" horiz-adv-x="828" d="M18 0l139 715h175l-56 -286h260l56 286h175l-110 -565h137l-18 -91l-128 -199h-117l61 140h-139l54 280h-260l-54 -280h-175z" />
<glyph unicode="&#x4ca;" horiz-adv-x="701" d="M0 0l101 515h173l-36 -182h159l36 182h173l-73 -370h127l-16 -86l-114 -179h-111l51 120h-138l37 188h-159l-37 -188h-173z" />
<glyph unicode="&#x4cb;" horiz-adv-x="689" d="M270 253q-98 0 -152 45t-54 126q0 28 8 68l43 223h179l-38 -197q-4 -17 -4 -36q0 -70 79 -70q70 0 133 38l51 265h179l-139 -715h-138l-28 -140h-155l57 289h113l21 105l9 32h-2q-88 -33 -162 -33z" />
<glyph unicode="&#x4cc;" horiz-adv-x="571" d="M161 -120l44 225h97l16 81l6 23h-1q-52 -27 -126 -27q-75 0 -119.5 34.5t-44.5 99.5q0 20 4 39l31 160h170l-21 -106q-6 -34 -6 -38q0 -23 15 -37.5t41 -14.5q41 0 81 25l34 171h173l-100 -515h-118l-23 -120h-153z" />
<glyph unicode="&#x4cd;" horiz-adv-x="948" d="M-7 0l191 715h191l47 -302l12 -118h2q35 71 60 118l163 302h192l-64 -565h133l-18 -91l-128 -199h-117l61 140h-120l41 322l23 120h-2q-38 -76 -63 -120l-116 -207h-152l-36 207l-15 122h-2q-9 -68 -23 -122l-84 -322h-176z" />
<glyph unicode="&#x4ce;" horiz-adv-x="840" d="M-22 0l149 515h196l36 -226l6 -62h2q16 36 30 62l124 226h199l-38 -370h121l-16 -86l-114 -179h-111l51 120h-109l35 237l16 88h-2q-22 -44 -41 -76l-103 -180h-140l-33 180l-13 78h-2q-9 -50 -18 -90l-59 -237h-166z" />
<glyph unicode="&#x4cf;" horiz-adv-x="293" d="M1 0l139 715h175l-139 -715h-175z" />
<glyph unicode="&#x4d0;" horiz-adv-x="668" d="M-57 0l372 715h201l99 -715h-175l-15 150h-223l-72 -150h-187zM270 290h141l-14 139l-6 123h-2q-29 -78 -51 -123zM431 747q-79 0 -126.5 35.5t-47.5 90.5q0 14 5 38h130q-3 -10 -3 -22q0 -21 13 -35t38 -14q64 0 75 71h126q-13 -84 -71.5 -124t-138.5 -40z" />
<glyph unicode="&#x4d1;" horiz-adv-x="547" d="M-8 124q0 54 31.5 94.5t83 61.5t105 31t107.5 10h8q3 14 3 21q0 45 -66 45q-55 0 -149 -47l-37 130q34 19 97.5 38t122.5 19q36 0 69 -8t65 -25t51 -51t19 -80q0 -20 -5 -50l-60 -313h-158l6 31l9 32h-2q-22 -28 -61.5 -51.5t-90.5 -23.5q-61 0 -104.5 36.5t-43.5 99.5z M161 153q0 -36 43 -36q33 0 64.5 28.5t37.5 60.5l3 16h-18q-18 0 -36.5 -2.5t-41.5 -9t-37.5 -21.5t-14.5 -36zM340 551q-79 0 -126.5 35.5t-47.5 90.5q0 14 5 38h130q-3 -11 -3 -22q0 -21 13 -35t38 -14q64 0 75 71h126q-13 -84 -71.5 -124t-138.5 -40z" />
<glyph unicode="&#x4d2;" horiz-adv-x="668" d="M-57 0l372 715h201l99 -715h-175l-15 150h-223l-72 -150h-187zM270 290h141l-14 139l-6 123h-2q-29 -78 -51 -123zM469 771l28 140h126l-28 -140h-126zM260 771l28 140h126l-28 -140h-126z" />
<glyph unicode="&#x4d3;" horiz-adv-x="547" d="M-8 124q0 54 31.5 94.5t83 61.5t105 31t107.5 10h8q3 14 3 21q0 45 -66 45q-55 0 -149 -47l-37 130q34 19 97.5 38t122.5 19q36 0 69 -8t65 -25t51 -51t19 -80q0 -20 -5 -50l-60 -313h-158l6 31l9 32h-2q-22 -28 -61.5 -51.5t-90.5 -23.5q-61 0 -104.5 36.5t-43.5 99.5z M161 153q0 -36 43 -36q33 0 64.5 28.5t37.5 60.5l3 16h-18q-18 0 -36.5 -2.5t-41.5 -9t-37.5 -21.5t-14.5 -36zM364 575l28 140h126l-28 -140h-126zM155 575l28 140h126l-28 -140h-126z" />
<glyph unicode="&#x4d4;" horiz-adv-x="963" d="M-66 0l432 715h626l-29 -150h-273l-25 -130h218l-30 -150h-218l-26 -135h286l-29 -150h-461l56 288h-166l-167 -288h-194zM376 428h112l26 137h-58z" />
<glyph unicode="&#x4d5;" horiz-adv-x="852" d="M-9 121q0 55 32.5 96.5t84.5 63.5t106 32t108 10h7q2 10 2 18q0 46 -65 46t-149 -47l-37 130q112 57 220 57q87 0 146 -53h2q72 53 153 53q107 0 163.5 -55t56.5 -147q0 -47 -19 -101h-325q0 -12 4 -30q17 -62 97 -62q74 0 153 52l44 -129q-32 -25 -92 -46t-116 -21 q-143 0 -214 91h-2q-7 -11 -17.5 -22.5t-32.5 -29t-58.5 -28.5t-80.5 -11q-71 0 -121 35.5t-50 97.5zM500 323h152q1 12 1 18q0 25 -14.5 40.5t-40.5 15.5q-69 0 -98 -74zM165 153q0 -33 42 -33q33 0 64.5 29t37.5 62l2 13h-16q-17 0 -36.5 -3t-42 -9.5t-37 -22t-14.5 -36.5 z" />
<glyph unicode="&#x4d6;" horiz-adv-x="577" d="M18 0l140 715h447l-29 -150h-273l-25 -130h217l-30 -150h-217l-26 -135h287l-29 -150h-462zM400 747q-79 0 -126.5 35.5t-47.5 90.5q0 14 5 38h130q-3 -10 -3 -22q0 -21 13 -35t38 -14q64 0 75 71h126q-13 -84 -71.5 -124t-138.5 -40z" />
<glyph unicode="&#x4d7;" horiz-adv-x="566" d="M19 213q0 134 85 224t212 90q107 0 163.5 -55t56.5 -147q0 -42 -19 -101h-325v-6q0 -39 27 -62.5t74 -23.5q71 0 153 52l44 -129q-33 -26 -92.5 -46.5t-115.5 -20.5q-126 0 -194.5 64.5t-68.5 160.5zM352 551q-79 0 -126.5 35.5t-47.5 90.5q0 14 5 38h130q-3 -11 -3 -22 q0 -21 13 -35t38 -14q64 0 75 71h126q-13 -84 -71.5 -124t-138.5 -40zM215 323h152q1 6 1 18q0 27 -14.5 43t-40.5 16q-70 0 -98 -77z" />
<glyph unicode="&#x4d8;" horiz-adv-x="733" d="M37 264q0 72 31 151h461v2q0 69 -39.5 109.5t-112.5 40.5q-57 0 -113.5 -22.5t-92.5 -50.5l-69 136q18 15 52 34t104 41t139 22q150 0 231.5 -91t81.5 -226q0 -77 -28 -152.5t-77.5 -135.5t-124.5 -97t-162 -37q-129 0 -205 77t-76 199zM207 246q0 -49 29.5 -77t87.5 -28 q69 0 116.5 39.5t62.5 101.5h-292q-4 -17 -4 -36z" />
<glyph unicode="&#x4d9;" horiz-adv-x="572" d="M19 186q0 57 21 114h323q1 4 1 12q0 38 -28.5 58.5t-76.5 20.5q-36 0 -75.5 -11.5t-61.5 -23.5l-21 -11l-45 125q11 6 30 15.5t77 25.5t114 16q120 0 189.5 -63t69.5 -172q0 -125 -85.5 -214.5t-216.5 -89.5q-101 0 -158 55t-57 143zM177 181q0 -29 17.5 -46t47.5 -17 q37 0 68.5 25t42.5 62h-173q-3 -15 -3 -24z" />
<glyph unicode="&#x4da;" horiz-adv-x="733" d="M37 254q0 71 31 161h461q0 25 -6 46q-12 48 -50 77t-96 29q-57 0 -113.5 -22.5t-92.5 -50.5l-67 137q33 28 116.5 62t179.5 34q149 0 229.5 -92.5t80.5 -227.5q0 -79 -29 -154.5t-79 -134t-125 -94.5t-160 -36q-130 0 -205 76t-75 190zM207 246q0 -49 29.5 -77t87.5 -28 q69 0 116.5 39.5t62.5 101.5h-292q-4 -17 -4 -36zM483 771l28 140h126l-28 -140h-126zM274 771l28 140h126l-28 -140h-126z" />
<glyph unicode="&#x4db;" horiz-adv-x="572" d="M362 575l28 140h126l-28 -140h-126zM153 575l28 140h126l-28 -140h-126zM19 186q0 57 21 114h323q1 4 1 12q0 38 -28.5 58.5t-76.5 20.5q-36 0 -75.5 -11.5t-61.5 -23.5l-21 -11l-45 125q11 6 30 15.5t77 25.5t114 16q120 0 189.5 -63t69.5 -172q0 -125 -85.5 -214.5 t-216.5 -89.5q-101 0 -158 55t-57 143zM177 181q0 -29 17.5 -46t47.5 -17q37 0 68.5 25t42.5 62h-173q-3 -15 -3 -24z" />
<glyph unicode="&#x4dc;" horiz-adv-x="1018" d="M639 771l28 140h126l-28 -140h-126zM430 771l28 140h126l-28 -140h-126zM-46 0l271 387v2l-132 326h178l109 -276h67l54 276h175l-54 -276h67l177 276h208l-247 -357v-2l119 -356h-180l-90 290h-83l-56 -290h-175l56 290h-67l-192 -290h-205z" />
<glyph unicode="&#x4dd;" horiz-adv-x="828" d="M504 575l28 140h126l-28 -140h-126zM295 575l28 140h126l-28 -140h-126zM-46 0l186 274v2l-79 239h168l58 -183h47l36 183h161l-36 -183h45l125 183h187l-189 -264v-1l96 -250h-177l-62 187h-53l-37 -187h-161l37 187h-48l-118 -187h-186z" />
<glyph unicode="&#x4de;" horiz-adv-x="572" d="M409 771l28 140h126l-28 -140h-126zM200 771l28 140h126l-28 -140h-126zM-18 97l100 112q27 -32 65 -50t77 -18q47 0 81 25t34 68q0 54 -73 54h-103l27 140h87q39 0 69 25t30 63q0 59 -70 59q-67 0 -151 -59l-62 127q107 84 242 84q98 0 162 -46.5t64 -132.5 q0 -60 -34.5 -107.5t-92.5 -71.5l-1 -2q38 -18 61.5 -55t23.5 -85q0 -106 -89 -172.5t-204 -66.5q-73 0 -138 29t-105 80z" />
<glyph unicode="&#x4df;" horiz-adv-x="473" d="M316 575l28 140h126l-28 -140h-126zM107 575l28 140h126l-28 -140h-126zM-26 61l75 108q59 -51 121 -51q28 0 50 14t22 42q0 32 -49 32h-63l23 114h52q26 0 46 12.5t20 36.5q0 32 -52 32q-54 0 -125 -39l-41 109q85 56 206 56q86 0 135 -37.5t49 -97.5q0 -85 -91 -126v-2 q62 -38 62 -107q0 -80 -68.5 -124.5t-162.5 -44.5q-124 0 -209 73z" />
<glyph unicode="&#x4e0;" horiz-adv-x="544" d="M46 171q23 -16 64.5 -28.5t79.5 -12.5q54 0 94 27t40 70q0 31 -26 43t-87 12h-112l21 110l158 147q9 8 21 16.5t19 12.5l7 4v2q-25 -4 -57 -4h-174l28 145h436l-27 -137l-161 -138l-41 -29v-2q82 -4 123 -52.5t41 -118.5q0 -111 -90.5 -179.5t-214.5 -68.5 q-114 0 -205 57z" />
<glyph unicode="&#x4e1;" horiz-adv-x="504" d="M-16 -29q23 -16 64.5 -28.5t79.5 -12.5q54 0 94 27t40 70q0 31 -26 43t-87 12h-112l21 110l158 147q9 8 21 16.5t19 12.5l7 4v2q-25 -4 -57 -4h-174l28 145h436l-27 -137l-161 -138l-41 -29v-2q82 -4 123 -52.5t41 -118.5q0 -111 -90.5 -179.5t-214.5 -68.5 q-114 0 -205 57z" />
<glyph unicode="&#x4e2;" horiz-adv-x="756" d="M352 783l22 112h275l-22 -112h-275zM18 0l139 715h175l-65 -334l-32 -122h2q47 75 84 122l263 334h177l-139 -715h-175l65 333q4 20 11.5 50.5t13.5 50.5l6 21h-2q-46 -75 -83 -122l-264 -333h-176z" />
<glyph unicode="&#x4e3;" horiz-adv-x="619" d="M234 586l22 112h275l-22 -112h-275zM0 0l101 515h160l-43 -217l-13 -53h2q14 23 40 53l186 217h170l-101 -515h-160l42 215l13 54h-2q-16 -25 -40 -53l-185 -216h-170z" />
<glyph unicode="&#x4e4;" horiz-adv-x="756" d="M512 771l28 140h126l-28 -140h-126zM303 771l28 140h126l-28 -140h-126zM18 0l139 715h175l-65 -334l-32 -122h2q47 75 84 122l263 334h177l-139 -715h-175l65 333q4 20 11.5 50.5t13.5 50.5l6 21h-2q-46 -75 -83 -122l-264 -333h-176z" />
<glyph unicode="&#x4e5;" horiz-adv-x="619" d="M406 575l28 140h126l-28 -140h-126zM197 575l28 140h126l-28 -140h-126zM0 0l101 515h160l-43 -217l-13 -53h2q14 23 40 53l186 217h170l-101 -515h-160l42 215l13 54h-2q-16 -25 -40 -53l-185 -216h-170z" />
<glyph unicode="&#x4e6;" horiz-adv-x="820" d="M44 307q0 111 58.5 208.5t155.5 154.5t205 57q152 0 244.5 -87.5t92.5 -224.5q0 -113 -59.5 -212t-156.5 -157t-204 -58q-152 0 -244 89.5t-92 229.5zM224 317q0 -75 44 -122t114 -47q91 0 164 75.5t73 180.5q0 73 -44 118t-114 45q-92 0 -164.5 -73.5t-72.5 -176.5z M542 771l28 140h126l-28 -140h-126zM333 771l28 140h126l-28 -140h-126z" />
<glyph unicode="&#x4e7;" horiz-adv-x="640" d="M18 219q0 131 97.5 219.5t223.5 88.5q117 0 192 -63.5t75 -167.5q0 -132 -98 -220t-223 -88q-118 0 -192.5 63t-74.5 168zM193 227q0 -44 26.5 -69.5t68.5 -25.5q55 0 99 43t44 110q0 45 -26.5 71.5t-67.5 26.5q-54 0 -99 -44.5t-45 -111.5zM413 575l28 140h126l-28 -140 h-126zM204 575l28 140h126l-28 -140h-126z" />
<glyph unicode="&#x4e8;" horiz-adv-x="820" d="M44 307q0 111 58.5 208.5t155.5 154.5t205 57q152 0 244.5 -87.5t92.5 -224.5q0 -113 -59.5 -212t-156.5 -157t-204 -58q-152 0 -244 89.5t-92 229.5zM461 572q-67 0 -127.5 -41t-91.5 -107h381q-7 67 -51 107.5t-111 40.5zM382 143q65 0 125 41t91 108h-378 q8 -68 52 -108.5t110 -40.5z" />
<glyph unicode="&#x4e9;" horiz-adv-x="641" d="M19 224q0 128 98.5 215.5t230.5 87.5q110 0 184.5 -63.5t74.5 -172.5q0 -128 -98.5 -215.5t-230.5 -87.5q-110 0 -184.5 63.5t-74.5 172.5zM286 112q48 0 90.5 27t62.5 74h-264q4 -50 34 -75.5t77 -25.5zM341 403q-45 0 -87.5 -26t-63.5 -70h260q-7 47 -36 71.5t-73 24.5 z" />
<glyph unicode="&#x4ea;" horiz-adv-x="820" d="M44 307q0 111 58.5 208.5t155.5 154.5t205 57q152 0 244.5 -87.5t92.5 -224.5q0 -113 -59.5 -212t-156.5 -157t-204 -58q-152 0 -244 89.5t-92 229.5zM461 572q-67 0 -127.5 -41t-91.5 -107h381q-7 67 -51 107.5t-111 40.5zM382 143q65 0 125 41t91 108h-378 q8 -68 52 -108.5t110 -40.5zM542 771l28 140h126l-28 -140h-126zM333 771l28 140h126l-28 -140h-126z" />
<glyph unicode="&#x4eb;" horiz-adv-x="641" d="M19 224q0 128 98.5 215.5t230.5 87.5q110 0 184.5 -63.5t74.5 -172.5q0 -128 -98.5 -215.5t-230.5 -87.5q-110 0 -184.5 63.5t-74.5 172.5zM286 112q48 0 90.5 27t62.5 74h-264q4 -50 34 -75.5t77 -25.5zM341 403q-45 0 -87.5 -26t-63.5 -70h260q-7 47 -36 71.5t-73 24.5 zM209 575l28 140h126l-28 -140h-126zM418 575l28 140h126l-28 -140h-126z" />
<glyph unicode="&#x4ec;" horiz-adv-x="719" d="M196 288l27 140h296q-5 72 -48 106.5t-112 34.5q-101 0 -201 -78l-74 130q65 52 130 79t153 27q159 0 246 -87t87 -222q0 -171 -128 -300.5t-308 -129.5q-77 0 -150.5 28t-126.5 82l96 120q70 -72 183 -72q79 0 137.5 39t89.5 103h-297zM247 771l28 140h126l-28 -140 h-126zM456 771l28 140h126l-28 -140h-126z" />
<glyph unicode="&#x4ed;" horiz-adv-x="551" d="M142 202l22 114h194q-14 77 -110 77q-81 0 -138 -51l-60 114q38 34 98 52.5t119 18.5q121 0 186 -66.5t65 -164.5q0 -126 -98 -217t-237 -91q-56 0 -115 19.5t-93 55.5l70 111q25 -24 64 -38t77 -14q48 0 87 21.5t62 58.5h-193zM141 575l28 140h126l-28 -140h-126z M350 575l28 140h126l-28 -140h-126z" />
<glyph unicode="&#x4ee;" horiz-adv-x="630" d="M271 782l22 112h275l-22 -112h-275zM4 42l85 125q32 -30 83 -30q41 0 66 40l-171 538h180l71 -257l22 -97h2q18 46 45 96l135 258h195l-311 -536q-23 -41 -43.5 -69.5t-50 -59t-66.5 -46.5t-80 -16q-93 0 -162 54z" />
<glyph unicode="&#x4ef;" horiz-adv-x="565" d="M-6 -50q21 -16 51 -16q61 0 93 52l15 24l-121 505h180l42 -255l5 -76h2q18 45 31 73l115 258h194l-322 -570q-45 -79 -105 -117t-120 -38q-73 0 -135 40zM202 586l22 112h275l-22 -112h-275z" />
<glyph unicode="&#x4f0;" horiz-adv-x="630" d="M454 771l28 140h126l-28 -140h-126zM245 771l28 140h126l-28 -140h-126zM4 42l85 125q32 -30 83 -30q41 0 66 40l-171 538h180l71 -257l22 -97h2q18 46 45 96l135 258h195l-311 -536q-23 -41 -43.5 -69.5t-50 -59t-66.5 -46.5t-80 -16q-93 0 -162 54z" />
<glyph unicode="&#x4f1;" horiz-adv-x="565" d="M-6 -50q21 -16 51 -16q61 0 93 52l15 24l-121 505h180l42 -255l5 -76h2q18 45 31 73l115 258h194l-322 -570q-45 -79 -105 -117t-120 -38q-73 0 -135 40zM374 575l28 140h126l-28 -140h-126zM165 575l28 140h126l-28 -140h-126z" />
<glyph unicode="&#x4f2;" horiz-adv-x="630" d="M4 42l85 125q32 -30 83 -30q41 0 66 40l-171 538h180l71 -257l22 -97h2q18 46 45 96l135 258h195l-311 -536q-23 -41 -43.5 -69.5t-50 -59t-66.5 -46.5t-80 -16q-93 0 -162 54zM439 761l111 150h169l-148 -150h-132zM231 761l106 150h145l-109 -150h-142z" />
<glyph unicode="&#x4f3;" horiz-adv-x="565" d="M-6 -50q21 -16 51 -16q61 0 93 52l15 24l-121 505h180l42 -255l5 -76h2q18 45 31 73l115 258h194l-322 -570q-45 -79 -105 -117t-120 -38q-73 0 -135 40zM357 565l111 150h169l-148 -150h-132zM149 565l106 150h145l-109 -150h-142z" />
<glyph unicode="&#x4f4;" horiz-adv-x="689" d="M465 771l28 140h126l-28 -140h-126zM256 771l28 140h126l-28 -140h-126zM270 253q-98 0 -152 45t-54 126q0 28 8 68l43 223h179l-38 -197q-4 -17 -4 -36q0 -70 79 -70q70 0 133 38l51 265h179l-139 -715h-179l49 254l9 32h-2q-88 -33 -162 -33z" />
<glyph unicode="&#x4f5;" horiz-adv-x="574" d="M368 575l28 140h126l-28 -140h-126zM159 575l28 140h126l-28 -140h-126zM196 162q-75 0 -119.5 34.5t-44.5 99.5q0 20 4 39l35 180h170l-25 -126q-6 -34 -6 -38q0 -23 15 -37.5t41 -14.5q41 0 81 25l38 191h173l-101 -515h-173l33 166l6 23h-2q-52 -27 -125 -27z" />
<glyph unicode="&#x4f6;" horiz-adv-x="531" d="M18 0l139 715h438l-29 -150h-263l-81 -416h115l-57 -289h-155l28 140h-135z" />
<glyph unicode="&#x4f7;" horiz-adv-x="443" d="M0 0l101 515h363l-29 -145h-190l-44 -225h99l-51 -265h-153l23 120h-119z" />
<glyph unicode="&#x4f8;" horiz-adv-x="927" d="M597 771l28 140h126l-28 -140h-126zM388 771l28 140h126l-28 -140h-126zM618 0l139 715h175l-139 -715h-175zM18 0l139 715h175l-43 -221h107q91 0 143.5 -57.5t52.5 -152.5q0 -111 -80.5 -197.5t-201.5 -86.5h-292zM222 150h79q49 0 80.5 36t31.5 87q0 32 -20 51.5 t-57 19.5h-76z" />
<glyph unicode="&#x4f9;" horiz-adv-x="804" d="M497 575l28 140h126l-28 -140h-126zM288 575l28 140h126l-28 -140h-126zM514 0l101 515h173l-101 -515h-173zM0 0l101 515h173l-32 -161h80q89 0 131.5 -41t42.5 -113q0 -92 -63 -146t-170 -54h-263zM195 113h48q31 0 54 22.5t23 55.5q0 51 -55 51h-45z" />
<glyph unicode="&#x524;" horiz-adv-x="805" d="M18 0l139 715h604l-110 -566h114l-57 -289h-155l28 140h-134l110 566h-254l-110 -566h-175z" />
<glyph unicode="&#x525;" horiz-adv-x="672" d="M1 0l100 515h499l-72 -370h98l-51 -265h-154l23 120h-117l72 370h-153l-72 -370h-173z" />
<glyph unicode="&#x1e9e;" horiz-adv-x="702" d="M13 0l96 495q19 100 87 160t163 60h356l-23 -120l-118 -149l-26 -29v-2q44 -15 71.5 -62.5t27.5 -103.5q0 -75 -43 -138t-113 -92q-45 -19 -149 -19h-85l29 150h69q55 0 74 12q38 24 38 72q0 25 -14.5 37.5t-53.5 12.5h-67l24 120l68 97q15 22 29 38t20 21l6 6v2 q-6 -3 -42 -3h-76q-28 0 -50 -23t-29 -58l-94 -484h-175z" />
<glyph unicode="&#x2009;" horiz-adv-x="20" />
<glyph unicode="&#x2013;" horiz-adv-x="720" d="M47 222l25 130h596l-25 -130h-596z" />
<glyph unicode="&#x2014;" horiz-adv-x="914" d="M44 222l25 130h796l-25 -130h-796z" />
<glyph unicode="&#x2018;" horiz-adv-x="289" d="M75 475l138 255h123l-103 -255h-158z" />
<glyph unicode="&#x2019;" horiz-adv-x="282" d="M81 475l103 255h158l-138 -255h-123z" />
<glyph unicode="&#x201a;" horiz-adv-x="290" d="M57 166h158l-138 -255h-123z" />
<glyph unicode="&#x201c;" horiz-adv-x="487" d="M273 475l138 255h123l-103 -255h-158zM75 475l138 255h123l-103 -255h-158z" />
<glyph unicode="&#x201d;" horiz-adv-x="480" d="M279 475l103 255h158l-138 -255h-123zM81 475l103 255h158l-138 -255h-123z" />
<glyph unicode="&#x201e;" horiz-adv-x="488" d="M152 -89l103 255h158l-138 -255h-123zM-46 -89l103 255h158l-138 -255h-123z" />
<glyph unicode="&#x2020;" horiz-adv-x="496" d="M97 -50l85 435h-130l25 130h130l39 200h165l-39 -200h131l-25 -130h-131l-85 -435h-165z" />
<glyph unicode="&#x2021;" horiz-adv-x="522" d="M110 -50l39 200h-129l24 130h130l21 105h-130l25 130h130l39 200h165l-39 -200h131l-25 -130h-131l-21 -105h131l-25 -130h-131l-39 -200h-165z" />
<glyph unicode="&#x2022;" horiz-adv-x="527" d="M262 105q-77 0 -131.5 54.5t-54.5 131.5t54.5 131.5t131.5 54.5t131.5 -54.5t54.5 -131.5t-54.5 -131.5t-131.5 -54.5z" />
<glyph unicode="&#x2026;" horiz-adv-x="926" d="M651 0l31 164h158l-31 -164h-158zM327 0l31 164h158l-31 -164h-158zM3 0l31 164h158l-31 -164h-158z" />
<glyph unicode="&#x2030;" horiz-adv-x="1286" d="M252 382q-73 0 -119 43.5t-46 110.5q0 74 62 132.5t140 58.5q73 0 119.5 -45t46.5 -113q0 -74 -63 -130.5t-140 -56.5zM37 0l674 715h159l-674 -715h-159zM265 502q24 0 43 18t19 43q0 19 -13.5 31.5t-36.5 12.5t-42.5 -19t-19.5 -43q0 -19 13.5 -31t36.5 -12zM859 142 q0 74 62 132.5t140 58.5q73 0 119.5 -45t46.5 -113q0 -74 -63 -130.5t-140 -56.5q-73 0 -119 43.5t-46 110.5zM455 142q0 74 62 132.5t140 58.5q73 0 119.5 -45t46.5 -113q0 -74 -63 -130.5t-140 -56.5q-73 0 -119 43.5t-46 110.5zM987 151q0 -19 13.5 -31t36.5 -12 q24 0 43 18t19 43q0 19 -13.5 31.5t-36.5 12.5t-42.5 -19t-19.5 -43zM583 151q0 -19 13.5 -31t36.5 -12q24 0 43 18t19 43q0 19 -13.5 31.5t-36.5 12.5t-42.5 -19t-19.5 -43z" />
<glyph unicode="&#x2039;" horiz-adv-x="390" d="M158 77l-130 205l191 206h164l-202 -213l130 -198h-153z" />
<glyph unicode="&#x203a;" horiz-adv-x="388" d="M-1 77l202 213l-130 198h153l130 -205l-191 -206h-164z" />
<glyph unicode="&#x2044;" horiz-adv-x="196" d="M-65 0h-126l474 715h126z" />
<glyph unicode="&#x2070;" d="M242 413q-154 0 -154 156q0 69 18.5 135t66.5 118t118 52q155 0 155 -156q0 -50 -11.5 -100.5t-34.5 -98t-64 -77t-94 -29.5zM243 528q31 0 52.5 57t21.5 124q0 49 -27 49q-31 0 -52.5 -57t-21.5 -124q0 -49 27 -49z" />
<glyph unicode="&#x2074;" d="M230 423l17 87h-196l15 84l216 270h157l-48 -247h53l-20 -107h-53l-17 -87h-124zM197 617h70l18 90l14 50h-2q-14 -28 -30 -46l-70 -92v-2z" />
<glyph unicode="&#x2075;" d="M228 413q-99 0 -163 65l74 86q36 -36 89 -36q25 0 46 14t21 39q0 18 -15 29t-38 11q-35 0 -67 -13l-64 24l65 232h269l-21 -109h-164l-6 -23l-6 -16l1 -1q13 4 39 4q56 0 96 -38t40 -93q0 -67 -55 -121t-141 -54z" />
<glyph unicode="&#x2076;" d="M253 413q-70 0 -117 43.5t-47 125.5q0 66 31.5 132.5t92.5 113t134 46.5q64 0 111 -26l-49 -102q-31 12 -66 12q-58 0 -86 -52h2q20 6 38 6q58 0 94.5 -36.5t36.5 -90.5q0 -65 -49.5 -118.5t-125.5 -53.5zM260 528q18 0 30 16.5t12 35.5q0 17 -10.5 29t-33.5 12 q-24 0 -32 -10.5t-8 -30.5q0 -23 12 -37.5t30 -14.5z" />
<glyph unicode="&#x2077;" d="M58 423l235 308l22 24v2q-19 -2 -32 -2h-153l21 109h334l-16 -85l-267 -356h-144z" />
<glyph unicode="&#x2078;" d="M240 413q-71 0 -120.5 33t-49.5 92q0 61 88 125q-28 28 -28 66q0 68 52 106.5t117 38.5q71 0 112 -30.5t41 -80.5q0 -25 -17.5 -55t-31 -44.5t-24.5 -24.5q45 -33 45 -81q0 -67 -58 -106t-126 -39zM298 682q8 6 19.5 23.5t11.5 36.5q0 12 -11 19t-26 7q-17 0 -29.5 -9 t-12.5 -26q0 -28 48 -51zM244 519q19 0 35.5 10.5t16.5 28.5q0 16 -15.5 28t-47.5 28q-35 -33 -35 -61q0 -16 13.5 -25t32.5 -9z" />
<glyph unicode="&#x2079;" d="M75 439l49 102q27 -12 66 -12q58 0 86 52h-2q-20 -6 -38 -6q-58 0 -94.5 36.5t-36.5 90.5q0 65 49.5 118.5t125.5 53.5q70 0 117 -43.5t47 -125.5q0 -66 -31.5 -132.5t-92.5 -113t-134 -46.5q-64 0 -111 26zM275 666q24 0 32 10.5t8 30.5q0 23 -12 37.5t-30 14.5 t-30 -16.5t-12 -35.5q0 -41 44 -41z" />
<glyph unicode="&#x2080;" d="M129 -167q-154 0 -154 156q0 69 18.5 135t66.5 118t118 52q155 0 155 -156q0 -50 -11.5 -100.5t-34.5 -98t-64 -77t-94 -29.5zM130 -52q31 0 52.5 57t21.5 124q0 49 -27 49q-31 0 -52.5 -57t-21.5 -124q0 -49 27 -49z" />
<glyph unicode="&#x2081;" d="M-29 -157l21 108h89l26 136l10 32h-2q-7 -10 -14 -15l-27 -20l-59 84l148 116h108l-64 -333h90l-21 -108h-305z" />
<glyph unicode="&#x2082;" d="M-49 -157q0 55 18.5 98.5t47 68t61 45.5t61 33.5t47 29t18.5 34.5q0 13 -11.5 20t-27.5 7q-33 0 -80 -45l-75 78q80 82 166 82q63 0 111 -33.5t48 -95.5q0 -34 -15.5 -63.5t-38.5 -48t-50.5 -34.5t-52 -26.5t-43 -21.5t-22.5 -20h186l-21 -108h-327z" />
<glyph unicode="&#x2083;" d="M110 -167q-100 0 -162 68l72 83q12 -15 37 -25.5t54 -10.5q27 0 43.5 12.5t16.5 32.5q0 16 -15.5 24.5t-39.5 8.5h-37l-18 57l74 69l28 23v2q-21 -2 -34 -2h-103l21 109h294l-15 -79l-99 -92q35 -12 54.5 -44t19.5 -72q0 -64 -52 -114t-139 -50z" />
<glyph unicode="&#x2084;" d="M117 -157l17 87h-196l15 84l216 270h157l-48 -247h53l-20 -107h-53l-17 -87h-124zM84 37h70l18 90l14 50h-2q-14 -28 -30 -46l-70 -92v-2z" />
<glyph unicode="&#x2085;" d="M115 -167q-99 0 -163 65l74 86q36 -36 89 -36q25 0 46 14t21 39q0 18 -15 29t-38 11q-35 0 -67 -13l-64 24l65 232h269l-21 -109h-164l-6 -23l-6 -16l1 -1q13 4 39 4q56 0 96 -38t40 -93q0 -67 -55 -121t-141 -54z" />
<glyph unicode="&#x2086;" d="M141 -167q-70 0 -117 43.5t-47 125.5q0 66 31.5 132.5t92.5 113t134 46.5q64 0 111 -26l-49 -102q-31 12 -66 12q-58 0 -86 -52h2q20 6 38 6q58 0 94.5 -36.5t36.5 -90.5q0 -65 -49.5 -118.5t-125.5 -53.5zM148 -52q18 0 30 16.5t12 35.5q0 17 -10.5 29t-33.5 12 q-24 0 -32 -10.5t-8 -30.5q0 -23 12 -37.5t30 -14.5z" />
<glyph unicode="&#x2087;" d="M-54 -157l235 308l22 24v2q-19 -2 -32 -2h-153l21 109h334l-16 -85l-267 -356h-144z" />
<glyph unicode="&#x2088;" d="M127 -167q-71 0 -120.5 33t-49.5 92q0 61 88 125q-28 28 -28 66q0 68 52 106.5t117 38.5q71 0 112 -30.5t41 -80.5q0 -25 -17.5 -55t-31 -44.5t-24.5 -24.5q45 -33 45 -81q0 -67 -58 -106t-126 -39zM185 102q8 6 19.5 23.5t11.5 36.5q0 12 -11 19t-26 7q-17 0 -29.5 -9 t-12.5 -26q0 -28 48 -51zM131 -61q19 0 35.5 10.5t16.5 28.5q0 16 -15.5 28t-47.5 28q-35 -33 -35 -61q0 -16 13.5 -25t32.5 -9z" />
<glyph unicode="&#x2089;" d="M-37 -141l49 102q27 -12 66 -12q58 0 86 52h-2q-20 -6 -38 -6q-58 0 -94.5 36.5t-36.5 90.5q0 65 49.5 118.5t125.5 53.5q70 0 117 -43.5t47 -125.5q0 -66 -31.5 -132.5t-92.5 -113t-134 -46.5q-64 0 -111 26zM163 86q24 0 32 10.5t8 30.5q0 23 -12 37.5t-30 14.5 t-30 -16.5t-12 -35.5q0 -41 44 -41z" />
<glyph unicode="&#x20ac;" horiz-adv-x="600" d="M14 237l19 96h55q2 24 6 48h-52l19 96h63q52 111 149.5 180.5t219.5 69.5q77 0 146 -22l-70 -150q-48 10 -77 10q-106 0 -172 -88h217l-39 -96h-221q-6 -32 -7 -48h209l-39 -96h-154q37 -84 134 -84q45 0 98 15v-163q-49 -17 -108 -17q-125 0 -208.5 67.5t-106.5 181.5 h-81z" />
<glyph unicode="&#x2116;" horiz-adv-x="1119" d="M765 431q0 75 60 133.5t139 58.5q66 0 107 -41.5t41 -102.5q0 -75 -60.5 -132t-140.5 -57q-65 0 -105.5 40t-40.5 101zM889 446q0 -18 10.5 -29t28.5 -11q23 0 42 18t19 42q0 18 -11 29.5t-29 11.5q-23 0 -41.5 -18t-18.5 -43zM714 132l22 115h319l-22 -115h-319zM15 0 l139 715h170l133 -334q8 -21 17 -51.5t14 -50.5l5 -20h2q7 77 16 122l65 334h175l-139 -715h-169l-134 333q-8 21 -17.5 51.5t-14.5 50.5l-5 20h-2q-6 -77 -15 -122l-65 -333h-175z" />
<glyph unicode="&#x2122;" horiz-adv-x="1089" d="M557 268l35 447h118l73 -175l13 -44h2q7 29 13 44l73 175h118l33 -447h-127l-10 174l1 32h-2l-51 -125h-98l-51 125h-2l1 -32l-12 -174h-127zM272 268v338h-142v109h408v-109h-140v-338h-126z" />
<glyph unicode="&#x2212;" horiz-adv-x="600" d="M24 222v130h546v-130h-546z" />
<glyph unicode="&#x221e;" horiz-adv-x="519" d="M270 143q-85 0 -145.5 60.5t-60.5 145.5t60.5 145t145.5 60q86 0 145.5 -60t59.5 -145t-60 -145.5t-145 -60.5z" />
<glyph unicode="&#x2248;" horiz-adv-x="600" d="M96 322l-63 99q81 81 165 81q50 0 107.5 -35t90.5 -35q55 0 102 54l63 -99q-81 -81 -165 -81q-50 0 -107.5 35t-90.5 35q-52 0 -102 -54zM96 93l-63 99q81 81 165 81q50 0 107.5 -35t90.5 -35q55 0 102 54l63 -99q-81 -81 -165 -81q-50 0 -107.5 35t-90.5 35 q-52 0 -102 -54z" />
<glyph unicode="&#x2260;" horiz-adv-x="600" d="M92 47l38 60h-88v130h171l64 100h-235v130h319l69 108l76 -49l-38 -59h80v-130h-163l-64 -100h227v-130h-310l-68 -107z" />
<glyph unicode="&#x2264;" horiz-adv-x="600" d="M5 234v107l504 223v-145l-330 -131v-2l330 -130v-145zM8 -70h501v-130h-501v130z" />
<glyph unicode="&#x2265;" horiz-adv-x="600" d="M28 11v145l330 130v2l-330 131v145l504 -223v-107zM29 -70h501v-130h-501v130z" />
<glyph unicode="&#x25fc;" horiz-adv-x="515" d="M0 515h515v-515h-515v515z" />
<glyph unicode="&#xf6c3;" horiz-adv-x="335" d="M53 -49h136v-18q0 -39 -12 -70t-41 -73h-123q23 41 32.5 68.5t9.5 62.5q0 8 -2 30z" />
<glyph unicode="&#xf6d4;" horiz-adv-x="276" d="M202 747q-79 0 -126.5 35.5t-47.5 90.5q0 14 5 38h130q-3 -10 -3 -22q0 -21 13 -35t38 -14q64 0 75 71h126q-13 -84 -71.5 -124t-138.5 -40z" />
<glyph unicode="&#xf8ff;" horiz-adv-x="1130" d="M167 -5v152l-126 72v278l126 71v151l265 142l134 -71l132 71l265 -142v-151l124 -71v-278l-124 -72v-152l-265 -141l-132 71l-134 -71zM207 30l238 -126l121 66l118 -66l238 126v139l114 64v249l-114 66v136l-238 126l-118 -64l-121 64l-238 -126v-136l-114 -66v-249 l114 -64v-139zM241 64v121l-99 60v225l99 58v123l215 114l110 -59l107 59l214 -114v-123l100 -58v-225l-100 -60v-121l-214 -114l-107 58l-110 -58zM446 91h43v228h228v40h-228v192h199q17 0 23 -6.5t6 -22.5v-42h42v54q0 30 -13 43.5t-45 13.5h-320v-40h65v-460z" />
<glyph horiz-adv-x="600" d="M29 238q0 48 7.5 99.5t22.5 107.5t41.5 106t61.5 89.5t85.5 63t110.5 23.5q237 0 237 -248q0 -58 -10 -121t-35 -130t-61.5 -119.5t-94.5 -86.5t-129 -34q-236 0 -236 250zM210 246q0 -98 61 -98q34 0 62.5 34.5t45 85.5t25.5 104t9 97q0 98 -61 98q-34 0 -62.5 -34.5 t-45 -86t-25.5 -104.5t-9 -96z" />
<glyph horiz-adv-x="600" d="M26 0l27 150h152l57 285l12 55h-2q-13 -20 -36 -38l-50 -39l-87 118l236 184h151l-110 -565h152l-29 -150h-473z" />
<glyph horiz-adv-x="600" d="M1 0q0 58 15.5 109t37 86t58 68.5t65.5 53.5t71 46q11 6 36 21t34 21t27.5 18t25.5 19.5t16.5 18t13 21t3.5 22.5q0 27 -18.5 42.5t-48.5 15.5q-71 0 -125 -76l-123 96q24 29 43 48t52.5 44.5t77 39t93.5 13.5q94 0 163 -54t69 -149q0 -51 -20.5 -94t-62 -79.5t-72.5 -57 t-84 -50.5q-59 -34 -86 -53.5t-33 -39.5h295l-29 -150h-494z" />
<glyph horiz-adv-x="600" d="M-7 82l100 124q23 -25 62 -39t80 -14q59 0 91 24.5t32 60.5q0 65 -114 65h-59l-20 85l107 113q18 19 37 35.5t29 23.5l10 8v2q-24 -5 -69 -5h-163l29 150h451l-21 -109l-176 -177q54 -14 94.5 -61t40.5 -122q0 -103 -77.5 -180.5t-217.5 -77.5q-155 0 -246 94z" />
<glyph horiz-adv-x="600" d="M-15 173l19 106l346 436h229l-77 -397h85l-28 -145h-85l-34 -173h-173l34 173h-316zM199 318h130l31 160l21 80h-2q-25 -43 -49 -74l-131 -164v-2z" />
<glyph horiz-adv-x="600" d="M4 82l102 125q58 -54 134 -54q52 0 89.5 29t37.5 72q0 36 -28 56t-73 20q-24 0 -49 -6t-38 -12l-13 -6l-92 36l102 373h405l-29 -150h-248l-17 -64l-9 -28h2q25 5 54 5q92 0 153 -60.5t61 -154.5q0 -114 -89.5 -194.5t-220.5 -80.5q-66 0 -128.5 24t-105.5 70z" />
<glyph horiz-adv-x="600" d="M35 260q0 79 29 160.5t80 150.5t129.5 112.5t168.5 43.5q104 0 170 -33l-71 -142q-50 15 -97 15q-114 0 -177 -118h2q30 25 88 25q99 0 151 -60.5t52 -154.5q0 -103 -74.5 -187t-189.5 -84q-111 0 -186 70.5t-75 201.5zM213 258q0 -48 25.5 -79t60.5 -31q39 0 64 32 t25 72q0 35 -21.5 58t-67.5 23q-41 0 -63.5 -21.5t-22.5 -53.5z" />
<glyph horiz-adv-x="600" d="M12 0l349 501q15 22 30 38.5t22 21.5l7 5v2q-10 -3 -46 -3h-271l29 150h513l-24 -122l-415 -593h-194z" />
<glyph horiz-adv-x="600" d="M12 196q0 34 16 67.5t41 59.5t43.5 41.5t35.5 26.5q-48 51 -48 116q0 86 70 153t189 67q102 0 166.5 -50.5t64.5 -139.5q0 -39 -23.5 -83t-43.5 -66.5t-38 -39.5q64 -52 64 -126q0 -90 -79 -162t-207 -72q-121 0 -186 59t-65 149zM363 416q51 54 51 104q0 25 -16.5 39 t-47.5 14q-35 0 -55.5 -19.5t-20.5 -47.5t22.5 -47.5t66.5 -42.5zM196 209q0 -29 20 -48t52 -19q41 0 71 22t30 58q0 18 -17.5 35.5t-34.5 27.5t-56 30q-65 -53 -65 -106z" />
<glyph horiz-adv-x="600" d="M10 21l71 142q43 -15 97 -15q114 0 177 118h-2q-40 -25 -88 -25q-99 0 -151 60.5t-52 154.5q0 65 32 126.5t95 103t140 41.5q111 0 184.5 -70.5t73.5 -201.5q0 -79 -29 -160.5t-80 -150.5t-129.5 -112.5t-168.5 -43.5q-104 0 -170 33zM323 382q41 0 63.5 21.5t22.5 53.5 q0 48 -25.5 79t-60.5 31q-39 0 -64 -32t-25 -72q0 -35 21.5 -58t67.5 -23z" />
<glyph horiz-adv-x="434" d="M54 272l29 150h314l-29 -150h-314z" />
<glyph horiz-adv-x="334" d="M100 -65q-59 135 -59 276q0 333 214 569h147q-211 -260 -211 -573q0 -146 46 -272h-137z" />
<glyph horiz-adv-x="334" d="M-45 -65q211 260 211 573q0 146 -46 272h137q59 -135 59 -276q0 -333 -214 -569h-147z" />
<glyph horiz-adv-x="353" d="M-1 -65l165 845h246l-24 -120h-102l-117 -605h102l-24 -120h-246z" />
<glyph horiz-adv-x="353" d="M-10 55h102l117 605h-102l24 120h246l-165 -845h-245z" />
<glyph horiz-adv-x="396" d="M76 68q0 20 4 39l16 83q3 15 3 26q0 30 -18.5 49.5t-50.5 20.5l29 150q40 1 67.5 28t36.5 71l20 103q9 47 33.5 78.5t59.5 45t66 18.5t69 5q16 0 42 -2l-24 -124q-6 2 -25 2q-72 0 -83 -54l-26 -132q-9 -42 -39 -71.5t-70 -42.5v-2q29 -10 46 -39.5t17 -67.5 q0 -14 -3 -32l-22 -112q-1 -4 -1 -12q0 -42 64 -42q7 0 25 2l-24 -124q-18 -2 -44 -2q-23 0 -47.5 5t-54 18.5t-48 43t-18.5 71.5z" />
<glyph horiz-adv-x="395" d="M14 54q72 0 83 54l28 139q9 42 38.5 71.5t70.5 42.5v2q-27 10 -45 37.5t-18 69.5q0 14 3 32l20 105q1 4 1 12q0 42 -64 42q-13 0 -25 -2l24 124q20 2 44 2q23 0 47.5 -5t54 -18.5t48 -43t18.5 -71.5q0 -11 -4 -39l-14 -76q-3 -15 -3 -26q0 -31 18.5 -49.5t50.5 -20.5 l-29 -150q-11 0 -24 -4t-29.5 -13.5t-30.5 -31t-20 -50.5l-22 -110q-30 -147 -228 -147q-12 0 -42 2l24 124q14 -2 25 -2z" />
<glyph horiz-adv-x="849" d="M53 293q0 179 133 308.5t320 129.5q273 0 273 -204q0 -27 -6 -56l-34 -178h74l-23 -119h-268q-101 0 -155 47.5t-54 118.5q0 75 67 133.5t181 58.5h64q0 1 0.5 3.5t0.5 3.5q0 27 -37.5 42t-85.5 15q-113 0 -196 -92.5t-83 -199.5q0 -83 54 -136.5t156 -53.5l-25 -128 q-157 0 -256.5 86.5t-99.5 220.5zM485 344q0 -23 14 -37t41 -14h39l26 134h-37q-37 0 -60 -25t-23 -58z" />
<glyph horiz-adv-x="662" d="M430 137l-130 205l213 206h167l-227 -213l130 -198h-153zM170 137l-130 205l191 206h164l-202 -213l130 -198h-153z" />
<glyph horiz-adv-x="664" d="M286 137l202 213l-130 198h153l130 -205l-191 -206h-164zM1 137l227 213l-130 198h153l130 -205l-213 -206h-167z" />
<glyph horiz-adv-x="391" d="M170 137l-130 205l191 206h164l-202 -213l130 -198h-153z" />
<glyph horiz-adv-x="387" d="M9 137l202 213l-130 198h153l130 -205l-191 -206h-164z" />
<glyph horiz-adv-x="715" d="M55 282l25 130h596l-25 -130h-596z" />
<glyph horiz-adv-x="918" d="M57 282l25 130h796l-25 -130h-796z" />
<glyph horiz-adv-x="279" d="M53 263l31 164h158l-31 -164h-158z" />
<glyph horiz-adv-x="518" d="M267 565l29 150h158l-29 -150h-158zM19 168q0 49 21.5 90t53 67t63 48t56.5 44t29 44l7 33h166l-9 -47q-9 -48 -43 -88t-69.5 -62t-64 -49t-28.5 -54q0 -22 17 -35.5t43 -13.5q47 0 103 43l79 -127q-37 -30 -95.5 -51.5t-114.5 -21.5q-88 0 -151 48t-63 132z" />
<glyph horiz-adv-x="311" d="M127 565l29 150h158l-29 -150h-158zM8 0l112 494h148l-80 -494h-180z" />
<glyph horiz-adv-x="526" d="M274 170q-77 0 -131.5 54.5t-54.5 131.5t54.5 131.5t131.5 54.5t131.5 -54.5t54.5 -131.5t-54.5 -131.5t-131.5 -54.5z" />
<glyph horiz-adv-x="590" d="M28 210q0 62 18.5 123.5t53 114.5t92 86t128.5 33q122 0 178 -62t56 -161q0 -87 -31.5 -166t-99.5 -134.5t-160 -55.5q-123 0 -179 61.5t-56 160.5zM202 213q0 -81 61 -81q38 0 66 35t39.5 80.5t11.5 91.5q0 84 -60 84q-38 0 -66.5 -36t-40 -82.5t-11.5 -91.5z" />
<glyph horiz-adv-x="521" d="M-1 0l28 145h143l30 155l16 74h-2q-19 -19 -45 -32l-58 -29l-58 123l216 119h147l-79 -410h134l-28 -145h-444z" />
<glyph horiz-adv-x="560" d="M-6 0l23 115q317 174 317 259q0 23 -16.5 34t-39.5 11q-63 0 -148 -70l-72 121q45 43 113.5 70t134.5 27q84 0 144 -42t60 -127q0 -45 -21 -86t-57.5 -72.5t-74.5 -55t-82 -42.5v-2q24 5 69 5h148l-29 -145h-469z" />
<glyph horiz-adv-x="550" d="M-48 -41l91 111q59 -54 141 -54q54 0 86.5 24t32.5 62q0 36 -34.5 53.5t-78.5 17.5h-59l-26 79l95 97q18 18 36.5 33.5t27.5 22.5l10 7v1q-23 -4 -68 -4h-131l28 146h431l-19 -98l-178 -168q62 -11 102 -60.5t40 -120.5q0 -93 -82.5 -164.5t-212.5 -71.5q-65 0 -130.5 22 t-101.5 65z" />
<glyph horiz-adv-x="610" d="M-35 23l20 106l333 426h227l-76 -387h85l-28 -145h-85l-27 -139h-170l27 139h-306zM178 168h121l31 156q16 80 21 80h-2q0 -1 -7 -12.5t-19 -29.5t-23 -32l-122 -160v-2z" />
<glyph horiz-adv-x="559" d="M-36 -42l89 112q59 -54 141 -54q47 0 86 27t39 76q0 35 -26.5 54.5t-68.5 19.5q-47 0 -106 -22l-88 33l97 351h392l-28 -146h-238l-17 -64l-9 -27h2q26 7 53 7q96 0 155.5 -56.5t59.5 -141.5q0 -113 -90 -184t-213 -71q-64 0 -125.5 22t-104.5 64z" />
<glyph horiz-adv-x="606" d="M37 239q0 101 46 201.5t138.5 171.5t207.5 71q102 0 169 -34l-68 -128q-11 6 -40.5 12t-55.5 6q-55 0 -100 -33.5t-73 -83.5h2q13 10 41 16.5t48 6.5q97 0 150.5 -57.5t53.5 -143.5q0 -95 -74.5 -175.5t-188.5 -80.5q-111 0 -183.5 64t-72.5 187zM211 238q0 -46 23.5 -76 t61.5 -30q34 0 59.5 30t25.5 73q0 33 -21 55t-65 22q-39 0 -61.5 -20.5t-22.5 -53.5z" />
<glyph horiz-adv-x="540" d="M-30 -116l329 466q15 21 27.5 36t17.5 20l5 5v2q-5 -3 -41 -3h-260l28 145h502l-23 -115l-395 -556h-190z" />
<glyph horiz-adv-x="602" d="M18 176q0 57 40.5 106.5t86.5 82.5q-43 43 -43 102q0 84 67.5 149.5t180.5 65.5q100 0 163.5 -44.5t63.5 -122.5q0 -35 -20.5 -79.5t-38.5 -68.5t-34 -43q57 -47 57 -114q0 -85 -77 -153.5t-201 -68.5q-118 0 -181.5 53.5t-63.5 134.5zM365 389q42 46 42 99 q0 24 -16 37.5t-46 13.5q-36 0 -56 -19t-20 -45q0 -27 24 -45.5t72 -40.5zM193 197q0 -28 20.5 -47t52.5 -19q41 0 70.5 21t29.5 56q0 7 -2.5 14t-9.5 13.5t-13 11.5t-19 12t-20 10.5t-24 11.5t-24 12q-61 -42 -61 -96z" />
<glyph horiz-adv-x="590" d="M60 34q36 -18 96 -18q55 0 100 33.5t73 83.5h-2q-13 -10 -41 -16.5t-48 -6.5q-97 0 -150.5 57.5t-53.5 143.5q0 95 74.5 175.5t188.5 80.5q111 0 183.5 -64t72.5 -187q0 -101 -46 -201.5t-138.5 -171.5t-207.5 -71q-101 0 -169 34zM295 243q39 0 61.5 20.5t22.5 53.5 q0 46 -23.5 76t-61.5 30q-34 0 -59.5 -30t-25.5 -73q0 -33 21 -55t65 -22z" />
<glyph horiz-adv-x="600" d="M32 210q0 62 18.5 123.5t53 114.5t92 86t128.5 33q122 0 178 -62t56 -161q0 -87 -31.5 -166t-99.5 -134.5t-160 -55.5q-123 0 -179 61.5t-56 160.5zM206 213q0 -81 61 -81q38 0 66 35t39.5 80.5t11.5 91.5q0 84 -60 84q-38 0 -66.5 -36t-40 -82.5t-11.5 -91.5z" />
<glyph horiz-adv-x="600" d="M39 0l28 145h143l30 155l16 74h-2q-19 -19 -45 -32l-58 -29l-58 123l216 119h147l-79 -410h134l-28 -145h-444z" />
<glyph horiz-adv-x="600" d="M16 0l23 115q317 174 317 259q0 23 -16.5 34t-39.5 11q-63 0 -148 -70l-72 121q45 43 113.5 70t134.5 27q84 0 144 -42t60 -127q0 -45 -21 -86t-57.5 -72.5t-74.5 -55t-82 -42.5v-2q24 5 69 5h148l-29 -145h-469z" />
<glyph horiz-adv-x="600" d="M-21 -39l91 111q59 -54 140 -54q54 0 86.5 24t32.5 62q0 35 -34.5 52.5t-78.5 17.5h-59l-25 79l94 97q18 18 36.5 33t27.5 22l10 7v1q-23 -4 -68 -4h-130l28 146h429l-19 -98l-177 -167q61 -11 101 -60.5t40 -119.5q0 -93 -82 -164t-212 -71q-64 0 -129.5 21.5 t-101.5 64.5z" />
<glyph horiz-adv-x="600" d="M-38 23l20 106l333 426h227l-76 -387h85l-28 -145h-85l-27 -139h-170l27 139h-306zM175 168h121l31 156q16 80 21 80h-2q0 -1 -7 -12.5t-19 -29.5t-23 -32l-122 -160v-2z" />
<glyph horiz-adv-x="600" d="M-15 -42l89 112q59 -54 141 -54q47 0 86 27t39 76q0 35 -26.5 54.5t-68.5 19.5q-47 0 -106 -22l-88 33l97 351h392l-28 -146h-238l-17 -64l-9 -27h2q26 7 53 7q96 0 155.5 -56.5t59.5 -141.5q0 -113 -90 -184t-213 -71q-64 0 -125.5 22t-104.5 64z" />
<glyph horiz-adv-x="600" d="M36 239q0 101 46 201.5t138.5 171.5t207.5 71q102 0 169 -34l-68 -128q-11 6 -40.5 12t-55.5 6q-55 0 -100 -33.5t-73 -83.5h2q13 10 41 16.5t48 6.5q97 0 150.5 -57.5t53.5 -143.5q0 -95 -74.5 -175.5t-188.5 -80.5q-111 0 -183.5 64t-72.5 187zM210 238q0 -46 23.5 -76 t61.5 -30q34 0 59.5 30t25.5 73q0 33 -21 55t-65 22q-39 0 -61.5 -20.5t-22.5 -53.5z" />
<glyph horiz-adv-x="600" d="M-1 -116l329 466q15 21 27.5 36t17.5 20l5 5v2q-5 -3 -41 -3h-260l28 145h502l-23 -115l-395 -556h-190z" />
<glyph horiz-adv-x="600" d="M17 176q0 57 40.5 106.5t86.5 82.5q-43 43 -43 102q0 84 67.5 149.5t180.5 65.5q100 0 163.5 -44.5t63.5 -122.5q0 -35 -20.5 -79.5t-38.5 -68.5t-34 -43q57 -47 57 -114q0 -85 -77 -153.5t-201 -68.5q-118 0 -181.5 53.5t-63.5 134.5zM364 389q42 46 42 99 q0 24 -16 37.5t-46 13.5q-36 0 -56 -19t-20 -45q0 -27 24 -45.5t72 -40.5zM192 197q0 -28 20.5 -47t52.5 -19q41 0 70.5 21t29.5 56q0 7 -2.5 14t-9.5 13.5t-13 11.5t-19 12t-20 10.5t-24 11.5t-24 12q-61 -42 -61 -96z" />
<glyph horiz-adv-x="600" d="M65 34q36 -18 96 -18q55 0 100 33.5t73 83.5h-2q-13 -10 -41 -16.5t-48 -6.5q-97 0 -150.5 57.5t-53.5 143.5q0 95 74.5 175.5t188.5 80.5q111 0 183.5 -64t72.5 -187q0 -101 -46 -201.5t-138.5 -171.5t-207.5 -71q-101 0 -169 34zM300 243q39 0 61.5 20.5t22.5 53.5 q0 46 -23.5 76t-61.5 30q-34 0 -59.5 -30t-25.5 -73q0 -33 21 -55t65 -22z" />
<glyph horiz-adv-x="549" d="M-4 83l94 118q67 -61 141 -61q33 0 53.5 10t20.5 27q0 14 -24 28t-58 29.5t-67.5 36t-57.5 56.5t-24 82q0 66 56 119t153 65l18 91h109l-19 -93q87 -13 147 -66l-82 -128q-23 21 -58.5 34.5t-67.5 13.5q-76 0 -76 -38q0 -13 24 -26t58 -28t67.5 -34.5t57.5 -54.5t24 -80 q0 -80 -61.5 -130.5t-149.5 -61.5l-17 -92h-109l19 95q-104 20 -171 88z" />
<glyph horiz-adv-x="563" d="M176 -30l17 87q-74 22 -114 77.5t-40 129.5q0 99 69 181.5t181 103.5l16 80h114l-16 -79q88 -16 150 -79l-93 -113q-39 45 -104 45q-67 0 -104.5 -38.5t-37.5 -83.5q0 -36 25.5 -60t76.5 -24q61 0 119 51l57 -132q-76 -62 -187 -71l-15 -75h-114z" />
<glyph horiz-adv-x="620" d="M-3 0l28 145h55l16 86h-43l21 108h43l10 47q21 100 98 155.5t182 55.5q118 0 194 -66l-90 -116q-42 30 -114 30q-33 0 -61.5 -18t-34.5 -46l-9 -42h180l-21 -108h-180l-16 -86h289l-29 -145h-518z" />
<glyph horiz-adv-x="673" d="M51 125l19 96h161l1 6l-27 65h-122l19 96h65l-74 197h190l31 -118l27 -110h2q29 61 60 110l74 118h208l-151 -197h74l-19 -96h-131l-51 -65l-1 -6h170l-19 -96h-170l-24 -125h-175l24 125h-161z" />
<glyph horiz-adv-x="596" d="M-1 27q30 -6 67 -6q88 0 105 64l49 181h-62l27 135h74l29 100q53 182 265 182q25 0 102 -9l-29 -144q-34 6 -74 6q-86 0 -103 -64l-20 -71h95l-27 -135h-107l-57 -210q-16 -57 -48.5 -96t-74 -56t-75.5 -23.5t-70 -6.5q-43 0 -95 10z" />
<glyph horiz-adv-x="589" d="M19 184l17 86h63q0 15 6 45h-60l17 86h72q42 86 125 141t195 55q80 0 131 -20l-59 -127q-32 9 -68 9q-79 0 -132 -58h182l-36 -86h-193q-7 -26 -7 -45h185l-33 -86h-131q33 -55 108 -55q38 0 89 14v-139q-46 -16 -95 -16q-119 0 -192.5 54t-95.5 142h-88z" />
<glyph d="M213 264q-154 0 -154 156q0 69 18.5 135t66.5 118t118 52q155 0 155 -156q0 -50 -11.5 -100.5t-34.5 -98t-64 -77t-94 -29.5zM214 379q31 0 52.5 57t21.5 124q0 49 -27 49q-31 0 -52.5 -57t-21.5 -124q0 -49 27 -49z" />
<glyph d="M54 274l21 108h89l26 136l10 32h-2q-7 -10 -14 -15l-27 -20l-59 84l148 116h108l-64 -333h90l-21 -108h-305z" />
<glyph d="M34 274q0 55 18.5 98.5t47 68t61 45.5t61 33.5t47 29t18.5 34.5q0 13 -11.5 20t-27.5 7q-33 0 -80 -45l-75 78q80 82 166 82q63 0 111 -33.5t48 -95.5q0 -34 -15.5 -63.5t-38.5 -48t-50.5 -34.5t-52 -26.5t-43 -21.5t-22.5 -20h186l-21 -108h-327z" />
<glyph d="M194 264q-100 0 -162 68l72 83q12 -15 37 -25.5t54 -10.5q27 0 43.5 12.5t16.5 32.5q0 16 -15.5 24.5t-39.5 8.5h-37l-18 57l74 69l28 23v2q-21 -2 -34 -2h-103l21 109h294l-15 -79l-99 -92q35 -12 54.5 -44t19.5 -72q0 -64 -52 -114t-139 -50z" />
<glyph d="M201 274l17 87h-196l15 84l216 270h157l-48 -247h53l-20 -107h-53l-17 -87h-124zM168 468h70l18 90l14 50h-2q-14 -28 -30 -46l-70 -92v-2z" />
<glyph d="M198 264q-99 0 -163 65l74 86q36 -36 89 -36q25 0 46 14t21 39q0 18 -15 29t-38 11q-35 0 -67 -13l-64 24l65 232h269l-21 -109h-164l-6 -23l-6 -16l1 -1q13 4 39 4q56 0 96 -38t40 -93q0 -67 -55 -121t-141 -54z" />
<glyph d="M224 264q-70 0 -117 43.5t-47 125.5q0 66 31.5 132.5t92.5 113t134 46.5q64 0 111 -26l-49 -102q-31 12 -66 12q-58 0 -86 -52h2q19 6 38 6q58 0 94.5 -36.5t36.5 -90.5q0 -65 -49.5 -118.5t-125.5 -53.5zM231 379q18 0 30 16.5t12 35.5q0 17 -10.5 29t-33.5 12 q-24 0 -32 -10.5t-8 -30.5q0 -23 12 -37.5t30 -14.5z" />
<glyph d="M30 274l235 308l22 24v2q-19 -2 -32 -2h-153l21 109h334l-16 -85l-267 -356h-144z" />
<glyph d="M210 264q-71 0 -120.5 33t-49.5 92q0 61 88 125q-28 28 -28 66q0 68 52 106.5t117 38.5q71 0 112 -30.5t41 -80.5q0 -25 -17.5 -55t-31 -44.5t-24.5 -24.5q45 -33 45 -81q0 -67 -58 -106t-126 -39zM268 533q8 6 19.5 23.5t11.5 36.5q0 12 -11 19t-26 7q-17 0 -29.5 -9 t-12.5 -26q0 -28 48 -51zM214 370q19 0 35.5 10.5t16.5 28.5q0 16 -15.5 28t-47.5 28q-35 -33 -35 -61q0 -16 13.5 -25t32.5 -9z" />
<glyph d="M47 290l49 102q27 -12 66 -12q58 0 86 52h-2q-19 -6 -38 -6q-58 0 -94.5 36.5t-36.5 90.5q0 65 49.5 118.5t125.5 53.5q70 0 117 -43.5t47 -125.5q0 -66 -31.5 -132.5t-92.5 -113t-134 -46.5q-64 0 -111 26zM247 517q24 0 32 10.5t8 30.5q0 23 -12 37.5t-30 14.5 t-30 -16.5t-12 -35.5q0 -41 44 -41z" />
<glyph d="M160 -10q-154 0 -154 156q0 69 18.5 135t66.5 118t118 52q155 0 155 -156q0 -50 -11.5 -100.5t-34.5 -98t-64 -77t-94 -29.5zM161 105q31 0 52.5 57t21.5 124q0 49 -27 49q-31 0 -52.5 -57t-21.5 -124q0 -49 27 -49z" />
<glyph d="M1 0l21 108h89l26 136l10 32h-2q-7 -10 -14 -15l-27 -20l-59 84l148 116h108l-64 -333h90l-21 -108h-305z" />
<glyph d="M-20 0q0 55 18.5 98.5t47 68t61 45.5t61 33.5t47 29t18.5 34.5q0 13 -11.5 20t-27.5 7q-33 0 -80 -45l-75 78q80 82 166 82q63 0 111 -33.5t48 -95.5q0 -34 -15.5 -63.5t-38.5 -48t-50.5 -34.5t-52 -26.5t-43 -21.5t-22.5 -20h186l-21 -108h-327z" />
<glyph d="M141 -10q-100 0 -162 68l72 83q12 -15 37 -25.5t54 -10.5q27 0 43.5 12.5t16.5 32.5q0 16 -15.5 24.5t-39.5 8.5h-37l-18 57l74 69l28 23v2q-21 -2 -34 -2h-103l21 109h294l-15 -79l-99 -92q35 -12 54.5 -44t19.5 -72q0 -64 -52 -114t-139 -50z" />
<glyph d="M148 0l17 87h-196l15 84l216 270h157l-48 -247h53l-20 -107h-53l-17 -87h-124zM115 194h70l18 90l14 50h-2q-14 -28 -30 -46l-70 -92v-2z" />
<glyph d="M145 -10q-99 0 -163 65l74 86q36 -36 89 -36q25 0 46 14t21 39q0 18 -15 29t-38 11q-35 0 -67 -13l-64 24l65 232h269l-21 -109h-164l-6 -23l-6 -16l1 -1q13 4 39 4q56 0 96 -38t40 -93q0 -67 -55 -121t-141 -54z" />
<glyph d="M171 -10q-70 0 -117 43.5t-47 125.5q0 66 31.5 132.5t92.5 113t134 46.5q64 0 111 -26l-49 -102q-31 12 -66 12q-58 0 -86 -52h2q20 6 38 6q58 0 94.5 -36.5t36.5 -90.5q0 -65 -49.5 -118.5t-125.5 -53.5zM178 105q18 0 30 16.5t12 35.5q0 17 -10.5 29t-33.5 12 q-24 0 -32 -10.5t-8 -30.5q0 -23 12 -37.5t30 -14.5z" />
<glyph d="M-24 0l235 308l22 24v2q-19 -2 -32 -2h-153l21 109h334l-16 -85l-267 -356h-144z" />
<glyph d="M158 -10q-71 0 -120.5 33t-49.5 92q0 61 88 125q-28 28 -28 66q0 68 52 106.5t117 38.5q71 0 112 -30.5t41 -80.5q0 -25 -17.5 -55t-31 -44.5t-24.5 -24.5q45 -33 45 -81q0 -67 -58 -106t-126 -39zM216 259q8 6 19.5 23.5t11.5 36.5q0 12 -11 19t-26 7q-17 0 -29.5 -9 t-12.5 -26q0 -28 48 -51zM162 96q19 0 35.5 10.5t16.5 28.5q0 16 -15.5 28t-47.5 28q-35 -33 -35 -61q0 -16 13.5 -25t32.5 -9z" />
<glyph d="M-7 16l49 102q27 -12 66 -12q58 0 86 52h-2q-20 -6 -38 -6q-58 0 -94.5 36.5t-36.5 90.5q0 65 49.5 118.5t125.5 53.5q70 0 117 -43.5t47 -125.5q0 -66 -31.5 -132.5t-92.5 -113t-134 -46.5q-64 0 -111 26zM193 243q24 0 32 10.5t8 30.5q0 23 -12 37.5t-30 14.5 t-30 -16.5t-12 -35.5q0 -41 44 -41z" />
<glyph horiz-adv-x="478" d="M-3 129q0 41 21.5 74t53.5 52t69.5 36t69.5 27t53.5 23.5t21.5 27.5q0 18 -27 18q-86 0 -145 -36l-49 123q94 53 210 53q80 0 128.5 -36.5t48.5 -102.5q0 -49 -30 -87.5t-72 -60.5t-84.5 -38t-72.5 -29.5t-30 -26.5q0 -11 8.5 -14.5t27.5 -3.5q83 0 152 47l65 -122 q-107 -65 -235 -65q-90 0 -137 39t-47 102z" />
<glyph horiz-adv-x="624" d="M62 -33q50 -33 141 -33q52 0 90.5 23t47.5 76l3 17l4 19h-1q-51 -54 -124 -54q-98 0 -149 60.5t-51 155.5q0 116 75.5 206t199.5 90q97 0 138 -55h3q1 10 2 16l5 27h162l-93 -478q-26 -129 -112 -188t-196 -59q-134 0 -213 53zM198 246q0 -39 19.5 -63t59.5 -24 q53 0 86 47.5t33 101.5q0 75 -83 75q-52 0 -83.5 -39.5t-31.5 -97.5z" />
<glyph horiz-adv-x="843" d="M-47 0l189 276v2l-82 237h168l61 -183h54l75 383h161l-75 -383h55l114 183h187l-178 -262v-2l88 -251h-174l-57 187h-63l-37 -187h-161l37 187h-55l-121 -187h-186z" />
<glyph horiz-adv-x="620" d="M25 134q0 20 7 57l63 324h173l-58 -296q-3 -18 -3 -30q0 -44 46 -44q48 0 85.5 42t48.5 100l44 228h173l-100 -515h-167l5 26l13 51h-2q-23 -37 -69 -63t-97 -26q-73 0 -117.5 35t-44.5 111z" />
<glyph horiz-adv-x="620" d="M25 134q0 20 7 57l63 324h173l-58 -296q-3 -18 -3 -30q0 -44 46 -44q48 0 85.5 42t48.5 100l44 228h173l-100 -515h-167l5 26l13 51h-2q-23 -37 -69 -63t-97 -26q-73 0 -117.5 35t-44.5 111zM365 551q-79 0 -126.5 35.5t-47.5 90.5q0 14 5 38h130q-3 -11 -3 -22 q0 -21 13 -35t38 -14q64 0 75 71h126q-13 -84 -71.5 -124t-138.5 -40z" />
<glyph horiz-adv-x="596" d="M1 0l139 715h173l-72 -370h47l136 170h201l-207 -244v-2l115 -269h-183l-75 200h-62l-39 -200h-173z" />
<glyph horiz-adv-x="573" d="M-53 0l278 515h211l74 -515h-175l-25 274l-2 89h-2q-20 -56 -36 -89l-134 -274h-189z" />
<glyph horiz-adv-x="627" d="M1 0l100 515h167l-5 -26l-13 -51h2q23 36 72 62.5t100 26.5q73 0 117.5 -35t44.5 -111q0 -20 -7 -57l-63 -324h-173l58 296q3 18 3 30q0 44 -46 44q-50 0 -89.5 -42t-50.5 -100l-44 -228h-173z" />
<glyph horiz-adv-x="909" d="M1 0l100 515h167l-8 -40l-10 -37h2q69 89 156 89q110 0 137 -87h2q27 36 74 61.5t98 25.5q147 0 147 -141q0 -29 -8 -72l-60 -314h-173l59 300q3 16 3 30q0 40 -34 40q-45 0 -78.5 -45.5t-46.5 -111.5l-42 -213h-173l59 300q3 16 3 30q0 40 -34 40q-44 0 -78 -45.5 t-47 -111.5l-42 -213h-173z" />
<glyph horiz-adv-x="667" d="M25 134q0 20 7 57l63 324h173l-58 -296q-3 -18 -3 -30q0 -44 46 -44q48 0 85.5 42t48.5 100l44 228h173l-72 -370h86l-51 -265h-153l23 120h-100l5 26l13 51h-2q-23 -37 -69 -63t-97 -26q-73 0 -117.5 35t-44.5 111z" />
<glyph horiz-adv-x="907" d="M891 515l-100 -515h-167l8 40l10 37h-2q-69 -89 -156 -89q-110 0 -137 87h-2q-27 -36 -74 -61.5t-98 -25.5q-147 0 -147 141q0 29 8 72l60 314h173l-59 -300q-3 -16 -3 -30q0 -40 34 -40q45 0 78.5 45.5t46.5 111.5l42 213h173l-59 -300q-3 -16 -3 -30q0 -40 34 -40 q44 0 78 45.5t47 111.5l42 213h173z" />
<glyph horiz-adv-x="954" d="M891 515l-72 -370h86l-51 -265h-153l23 120h-100l8 40l10 37h-2q-69 -89 -156 -89q-110 0 -137 87h-2q-27 -36 -74 -61.5t-98 -25.5q-147 0 -147 141q0 29 8 72l60 314h173l-59 -300q-3 -16 -3 -30q0 -40 34 -40q45 0 78.5 45.5t46.5 111.5l42 213h173l-59 -300 q-3 -16 -3 -30q0 -40 34 -40q44 0 78 45.5t47 111.5l42 213h173z" />
<glyph horiz-adv-x="603" d="M87 158q0 22 7 60l31 152h-94l28 145h267l-26 -129q-4 -21 -8 -35h2q51 29 112 29q75 0 118 -45t43 -119q0 -102 -77 -165t-195 -63q-92 0 -150 41.5t-58 128.5zM262 189q-5 -30 7.5 -52.5t43.5 -22.5q35 0 56.5 27t21.5 62q0 50 -52 50q-28 0 -50 -18t-27 -46z" />
<glyph horiz-adv-x="544" d="M28 158q0 22 7 60l59 297h173l-26 -129q-4 -21 -8 -35h2q51 29 112 29q75 0 118 -45t43 -119q0 -102 -77 -165t-195 -63q-92 0 -150 41.5t-58 128.5zM201 170q0 -25 13.5 -40.5t39.5 -15.5q35 0 56.5 27t21.5 62q0 50 -52 50q-34 0 -56.5 -24t-22.5 -59z" />
<glyph horiz-adv-x="891" d="M1 0l138 715h173l-75 -386h63q36 89 118.5 143.5t176.5 54.5q115 0 188.5 -63.5t73.5 -167.5q0 -132 -96 -220t-220 -88q-108 0 -179.5 55t-81.5 149h-70l-37 -192h-172zM454 227q0 -44 25 -69.5t65 -25.5q53 0 95.5 43t42.5 110q0 45 -25 71.5t-64 26.5q-53 0 -96 -44.5 t-43 -111.5z" />
<glyph horiz-adv-x="619" d="M29 205q0 27 6 55l38 196q24 125 101.5 198t200.5 73q97 0 152 -44t55 -110q0 -54 -33.5 -90.5t-89.5 -67.5v-2q53 -9 86 -54t33 -111q0 -113 -90.5 -186.5t-217.5 -73.5q-108 0 -174.5 60t-66.5 157zM237 427h2q15 15 63 41l27 15q28 16 42 25t27 23.5t13 28.5 q0 36 -53 36q-80 0 -104 -100zM197 210q0 -37 22 -55t58 -18q53 0 89.5 34.5t36.5 82.5q0 69 -82 69q-54 0 -89 -33t-35 -80z" />
<glyph horiz-adv-x="476" d="M-14 -30q42 -34 109 -34q52 0 87.5 31t35.5 78q0 61 -77 61h-77l27 135h79q41 0 71.5 25.5t30.5 60.5q0 28 -20.5 42.5t-54.5 14.5q-59 0 -104 -37l-68 110q96 70 219 70q93 0 147.5 -46.5t54.5 -121.5q0 -62 -38 -112t-97 -74v-2q80 -48 80 -139q0 -73 -44 -129.5 t-109.5 -84.5t-136.5 -28q-52 0 -107 15t-82 38z" />
<glyph horiz-adv-x="747" d="M-79 -140l57 290h74l310 565h182l89 -565h79l-57 -290h-155l28 140h-425l-28 -140h-154zM240 150h217l-31 257l-7 115h-2q-25 -70 -47 -115z" />
<glyph horiz-adv-x="675" d="M-63 0l391 715h182l113 -715h-179l-49 407l-5 115h-2q-26 -70 -49 -115l-205 -407h-197z" />
<glyph horiz-adv-x="656" d="M-69 -120l50 257h67l210 378h221l62 -378h71l-50 -257h-154l23 120h-324l-23 -120h-153zM225 137h151l-21 157l-5 89h-2q-23 -56 -41 -89z" />
<glyph horiz-adv-x="573" d="M-53 0l278 515h211l74 -515h-175l-25 274l-2 89h-2q-20 -56 -36 -89l-134 -274h-189z" />
<glyph horiz-adv-x="956" d="M-56 0l376 715h345l-51 -261h109q94 0 150.5 -58.5t56.5 -147.5q0 -102 -78 -175t-191 -73h-310l110 565h-39l-288 -565h-190zM555 150h89q42 0 75 25.5t33 67.5q0 28 -21 44.5t-60 16.5h-86z" />
<glyph horiz-adv-x="834" d="M-55 0l301 515h329l-35 -177h75q180 0 180 -149q0 -91 -65.5 -140t-170.5 -49h-258l76 390h-35l-218 -390h-179zM496 113h56q30 0 54 17t24 47q0 47 -59 47h-53z" />
<glyph horiz-adv-x="794" d="M-63 0l391 715h182l89 -565h167l-18 -91l-128 -199h-117l61 140h-121l-49 407q-3 20 -4 49t-1 48v18h-2q-27 -70 -49 -115l-205 -407h-196z" />
<glyph horiz-adv-x="658" d="M333 0l-26 274l-1 89h-2q-20 -56 -37 -89l-133 -274h-187l277 515h211l54 -370h144l-16 -86l-114 -179h-111l51 120h-110z" />
</font>
</defs>
</svg>
