<?xml version="1.0" standalone="no"?>
<!DOCTYPE svg PUBLIC "-//W3C//DTD SVG 1.1//EN" "http://www.w3.org/Graphics/SVG/1.1/DTD/svg11.dtd" >
<svg xmlns="http://www.w3.org/2000/svg">
<metadata></metadata>
<defs>
<font id="museo_sans_cyrl700_italic" horiz-adv-x="392" >
<font-face units-per-em="1000" ascent="750" descent="-250" />
<missing-glyph horiz-adv-x="250" />
<glyph unicode="ff" horiz-adv-x="712" d="M38 0l80 409h-63l20 101h63l3 17q8 47 29 82.5t46.5 54.5t57 31t55 15.5t47.5 3.5t52 -3l-23 -108q-6 2 -24 2q-100 0 -115 -84l-2 -11h230l3 17q8 47 29 82.5t46.5 54.5t57 31t55 15.5t47.5 3.5q25 0 52 -3l-23 -108q-6 2 -24 2q-100 0 -115 -84l-2 -11h110l-19 -101 h-110l-80 -409h-127l80 409h-229l-80 -409h-127z" />
<glyph unicode="fi" horiz-adv-x="616" d="M38 0l80 409h-63l20 101h63l3 17q8 47 29 82.5t46.5 54.5t57 31t55 15.5t47.5 3.5q26 0 52 -3l-23 -108q-6 2 -24 2q-100 0 -115 -84l-2 -11h327l-100 -510h-126l79 409h-199l-80 -409h-127zM481 597l22 113h127l-22 -113h-127z" />
<glyph unicode="fl" horiz-adv-x="646" d="M392 116q0 26 5 51l106 543h127l-103 -528q-4 -26 -4 -36q0 -38 43 -38q8 0 18 1l-22 -111q-24 -3 -37 -3q-133 0 -133 121zM40 0l78 402h-63l20 101h63l5 23q9 48 30.5 83.5t46.5 55t56 31t54.5 15t47.5 3.5q28 0 52 -3l-23 -108q-6 2 -24 2q-99 0 -115 -83l-3 -19h109 l-19 -101h-110l-78 -402h-127z" />
<glyph unicode="ffi" horiz-adv-x="974" d="M38 0l80 409h-63l20 101h63l3 17q8 47 29 82.5t46.5 54.5t57 31t55 15.5t47.5 3.5q25 0 52 -3l-23 -108q-8 2 -24 2q-100 0 -115 -84l-2 -11h230l3 17q8 47 29 82.5t46.5 54.5t57 31t55 15.5t47.5 3.5q25 0 52 -3l-23 -108q-10 2 -24 2q-100 0 -115 -84l-2 -11h329 l-99 -510h-127l79 409h-201l-80 -409h-127l80 409h-229l-80 -409h-127zM839 597l22 113h127l-22 -113h-127z" />
<glyph unicode="ffl" horiz-adv-x="1001" d="M38 0l80 409h-63l20 101h63l3 17q8 47 29 82.5t46.5 54.5t57 31t55 15.5t47.5 3.5t52 -3l-23 -108q-6 2 -24 2q-100 0 -115 -84l-2 -11h230l3 17q8 47 29 82.5t46.5 54.5t57 31t55 15.5t47.5 3.5q25 0 52 -3l-23 -108q-6 2 -24 2q-100 0 -115 -84l-2 -11h110l-19 -101 h-110l-80 -409h-127l80 409h-229l-80 -409h-127zM747 116q0 26 5 51l106 543h127l-103 -528q-4 -26 -4 -36q0 -38 43 -38q8 0 18 1l-22 -111q-24 -3 -37 -3q-133 0 -133 121z" />
<glyph unicode="fj" horiz-adv-x="619" d="M38 0l80 409h-63l20 101h63l3 17q8 47 29 82.5t46.5 54.5t57 31t55 15.5t47.5 3.5t52 -3l-23 -108q-10 2 -24 2q-100 0 -115 -84l-2 -11h329l-102 -524q-9 -49 -31 -86t-46.5 -56.5t-56 -31.5t-55 -15.5t-47.5 -3.5q-23 0 -52 3l21 107q12 -2 22 -2q102 0 120 94l80 414 h-201l-80 -409h-127zM483 597l21 113h127l-21 -113h-127z" />
<glyph unicode=" "  horiz-adv-x="250" />
<glyph unicode="&#x09;" horiz-adv-x="250" />
<glyph unicode="&#xa0;" horiz-adv-x="250" />
<glyph unicode="!" horiz-adv-x="289" d="M70 205l88 505h132l-109 -505h-111zM26 0l23 119h123l-23 -119h-123z" />
<glyph unicode="&#x22;" horiz-adv-x="394" d="M271 514l41 209h94l-41 -209h-94zM111 514l41 209h94l-41 -209h-94z" />
<glyph unicode="#" horiz-adv-x="719" d="M68 0l69 187h-116l32 91h117l52 140h-115l33 92h115l74 200h104l-74 -200h137l74 200h104l-74 -200h118l-33 -92h-118l-52 -140h117l-33 -91h-117l-69 -187h-104l68 187h-136l-69 -187h-104zM274 278h137l52 140h-137z" />
<glyph unicode="$" horiz-adv-x="586" d="M12 85l78 91q29 -31 74 -50t95 -19q49 0 86.5 25t37.5 71q0 30 -28.5 54.5t-69 45t-81.5 44.5t-69.5 65.5t-28.5 96.5q0 89 66.5 146t160.5 65l19 91h85l-18 -94q106 -15 162 -73l-71 -95q-26 25 -68 39.5t-82 14.5q-47 0 -86 -24.5t-39 -68.5q0 -29 28.5 -53t69.5 -44 t82 -44t69.5 -66.5t28.5 -98.5q0 -88 -66.5 -148.5t-169.5 -66.5l-17 -90h-85l18 95q-112 18 -181 91z" />
<glyph unicode="%" horiz-adv-x="819" d="M246 406q-67 0 -108.5 40.5t-41.5 103.5q0 66 56 119t126 53q66 0 108 -41.5t42 -104.5q0 -67 -56 -118.5t-126 -51.5zM25 0l669 710h123l-670 -710h-122zM252 498q31 0 54.5 23t23.5 55q0 24 -15.5 39t-42.5 15q-30 0 -54 -24t-24 -55q0 -23 16 -38t42 -15zM414 131 q0 66 56 119t126 53q66 0 108 -41t42 -104q0 -67 -56 -118.5t-126 -51.5q-67 0 -108.5 40t-41.5 103zM512 133q0 -23 16 -38t42 -15q31 0 54.5 23t23.5 55q0 23 -16 38.5t-42 15.5q-30 0 -54 -24t-24 -55z" />
<glyph unicode="&#x26;" horiz-adv-x="684" d="M31 182q0 64 46 121.5t116 76.5v2q-3 1 -7.5 3.5t-16 12t-20.5 21.5t-16 34t-7 48q0 104 76 162.5t179 58.5q47 0 98 -16l-48 -98q-20 6 -47 6q-52 0 -90.5 -31.5t-38.5 -84.5q0 -73 91 -73h114l18 92h127l-18 -92h91l-21 -112h-92l-16 -84q-24 -120 -96.5 -180.5 t-186.5 -60.5q-110 0 -172.5 53.5t-62.5 140.5zM166 190q0 -37 28 -60.5t76 -23.5q61 0 101 33t53 97l14 77h-120q-61 0 -106.5 -31t-45.5 -92z" />
<glyph unicode="'" horiz-adv-x="235" d="M111 514l41 209h96l-41 -209h-96z" />
<glyph unicode="(" horiz-adv-x="310" d="M96 -95q-54 133 -54 271q0 324 209 565h112q-209 -259 -209 -568q0 -144 46 -268h-104z" />
<glyph unicode=")" horiz-adv-x="310" d="M-43 -95q210 261 210 568q0 142 -47 268h104q54 -132 54 -271q0 -324 -209 -565h-112z" />
<glyph unicode="*" horiz-adv-x="498" d="M183 321l-83 68l104 103l-116 30l55 106l111 -49l16 131h115l-35 -131l132 49l15 -109l-139 -35l65 -98l-98 -66l-51 112z" />
<glyph unicode="+" horiz-adv-x="586" d="M184 0l46 236h-217l19 99h216l47 237h103l-46 -237h215l-18 -99h-216l-46 -236h-103z" />
<glyph unicode="," horiz-adv-x="287" d="M-49 -105l112 234h129l-142 -234h-99z" />
<glyph unicode="-" horiz-adv-x="433" d="M53 230l21 111h300l-21 -111h-300z" />
<glyph unicode="." horiz-adv-x="260" d="M10 0l24 128h128l-25 -128h-127z" />
<glyph unicode="/" horiz-adv-x="452" d="M-25 -42l407 788h116l-407 -788h-116z" />
<glyph unicode="0" horiz-adv-x="632" d="M56 228q0 58 10 121t34 131t59.5 120.5t93 87t127.5 34.5q219 0 219 -239q0 -58 -10 -121t-34.5 -131t-60 -121t-92.5 -87.5t-127 -34.5q-219 0 -219 240zM188 232q0 -126 91 -126q47 0 85 39t59 98.5t32 120t11 112.5q0 127 -91 127q-46 0 -83.5 -38.5t-59 -97t-33 -120 t-11.5 -115.5z" />
<glyph unicode="1" horiz-adv-x="515" d="M3 0l20 111h154l76 384l11 48h-2q-12 -18 -40 -40l-66 -54l-66 88l217 173h113l-117 -599h153l-21 -111h-432z" />
<glyph unicode="2" horiz-adv-x="585" d="M5 0q1 52 16.5 98t36.5 78t57.5 65t64.5 52t72 46q8 5 25 15q34 20 50.5 30.5t41 28.5t36 32t20.5 33t9 39q0 39 -26 61t-67 22q-86 0 -147 -84l-91 71q108 135 251 135q90 0 152 -51.5t62 -139.5q0 -29 -8.5 -56.5t-19.5 -48.5t-34 -44.5t-38.5 -38t-47.5 -35.5 t-47 -30.5t-49 -29.5q-49 -29 -74 -45.5t-49 -41.5t-30 -50h326l-22 -111h-470z" />
<glyph unicode="3" horiz-adv-x="577" d="M-4 83l76 91q57 -64 156 -64q66 0 109.5 36.5t43.5 90.5q0 44 -35.5 66.5t-94.5 22.5h-57l-15 66l154 154q15 15 30.5 28.5t24.5 19.5l8 6v2q-23 -3 -64 -3h-205l21 111h433l-15 -81l-212 -207q60 -9 108.5 -54t48.5 -126q0 -101 -78 -177.5t-204 -76.5q-148 0 -233 95z " />
<glyph unicode="4" horiz-adv-x="619" d="M9 183l15 79l382 448h164l-81 -420h91l-21 -107h-91l-36 -183h-127l36 183h-332zM173 290h189l42 220l19 74h-2q-24 -37 -47 -65l-201 -227v-2z" />
<glyph unicode="5" horiz-adv-x="576" d="M6 84l79 90q58 -64 142 -64q66 0 114 41t48 100q0 48 -34 75.5t-89 27.5q-28 0 -57 -7.5t-43 -14.5l-15 -8l-71 27l103 359h377l-21 -111h-262l-34 -115l-11 -33h2q33 14 78 14q91 0 150.5 -58.5t59.5 -149.5q0 -111 -86.5 -190t-210.5 -79q-64 0 -122.5 24.5t-96.5 71.5 z" />
<glyph unicode="6" horiz-adv-x="607" d="M51 252q0 73 27.5 154t76 152t125.5 117.5t167 46.5q91 0 155 -32l-55 -104q-49 17 -98 17q-78 0 -137 -54.5t-90 -135.5h2q22 23 58.5 36.5t71.5 13.5q94 0 145.5 -56t51.5 -146q0 -104 -73.5 -188.5t-187.5 -84.5q-105 0 -172 70.5t-67 193.5zM182 245q0 -57 31 -98 t78 -41q57 0 95 45t38 106q0 45 -27.5 72.5t-80.5 27.5t-93.5 -32.5t-40.5 -79.5z" />
<glyph unicode="7" horiz-adv-x="550" d="M15 0l370 534q13 20 27 36t22 22l7 7v2q-14 -2 -50 -2h-294l22 111h488l-17 -90l-432 -620h-143z" />
<glyph unicode="8" horiz-adv-x="614" d="M32 186q0 39 18 76t47 65t46.5 42t34.5 25q-56 51 -56 117q0 82 68.5 146.5t182.5 64.5q98 0 156 -47t58 -129q0 -33 -14.5 -68.5t-37 -64t-36.5 -44t-27 -26.5q70 -52 70 -126q0 -92 -78.5 -160.5t-197.5 -68.5q-109 0 -171.5 54.5t-62.5 143.5zM379 395q78 70 78 140 q0 34 -24 53t-66 19q-52 0 -84 -28t-32 -68q0 -9 2 -17.5t7.5 -16.5t9.5 -14t14 -13.5t15.5 -11.5t19 -11.5t18.5 -10.5t21.5 -11t20.5 -10zM167 195q0 -41 29 -67t73 -26q55 0 97.5 32t42.5 83q0 16 -7 29.5t-25 26.5t-29.5 20.5t-42 22.5t-40.5 21q-98 -69 -98 -142z" />
<glyph unicode="9" horiz-adv-x="607" d="M27 19l56 105q44 -18 98 -18q78 0 136.5 54.5t89.5 135.5h-2q-15 -18 -52 -34t-78 -16q-94 0 -145.5 56.5t-51.5 145.5q0 104 74.5 189t188.5 85q106 0 172 -70t66 -194q0 -58 -17 -122t-51 -126t-80.5 -111.5t-111.5 -80t-137 -30.5q-93 0 -155 31zM313 352 q52 0 93.5 33t41.5 80q0 57 -31 97.5t-79 40.5q-57 0 -95 -44.5t-38 -105.5q0 -45 27.5 -73t80.5 -28z" />
<glyph unicode=":" horiz-adv-x="259" d="M82 381l25 129h128l-25 -129h-128zM8 0l25 128h127l-25 -128h-127z" />
<glyph unicode=";" horiz-adv-x="305" d="M118 381l25 129h124l-25 -129h-124zM-42 -105l111 234h129l-141 -234h-99z" />
<glyph unicode="&#x3c;" horiz-adv-x="586" d="M28 245v82l481 214v-111l-346 -143v-2l346 -143v-111z" />
<glyph unicode="=" horiz-adv-x="586" d="M44 339v98h488v-98h-488zM44 134v98h488v-98h-488z" />
<glyph unicode="&#x3e;" horiz-adv-x="586" d="M70 31v111l346 143v2l-346 143v111l481 -214v-82z" />
<glyph unicode="?" horiz-adv-x="488" d="M131 205l9 48q8 42 33.5 77.5t56 59.5t60 45.5t49 47.5t19.5 55q0 30 -22.5 49.5t-59.5 19.5q-54 0 -114 -42l-57 95q34 26 86.5 45t103.5 19q84 0 140.5 -45.5t56.5 -122.5q0 -49 -21.5 -89.5t-54 -68t-65 -50.5t-58.5 -49.5t-32 -54.5l-8 -39h-122zM92 0l23 119h123 l-23 -119h-123z" />
<glyph unicode="@" horiz-adv-x="818" d="M37 176q0 115 61 216.5t163 161t217 59.5q131 0 190 -50t59 -134q0 -24 -5 -52l-45 -232h73l-18 -91h-264q-92 0 -143 47t-51 118q0 80 68 142t172 62h97q2 6 2 13q0 34 -37.5 54.5t-97.5 20.5q-126 0 -220 -101.5t-94 -226.5q0 -93 59.5 -153t165.5 -60l-19 -97 q-146 0 -239.5 85.5t-93.5 217.5zM401 222q0 -34 21.5 -55.5t58.5 -21.5h77l38 196h-75q-50 0 -85 -36t-35 -83z" />
<glyph unicode="A" horiz-adv-x="653" d="M-46 0l381 710h146l109 -710h-129l-25 182h-249l-95 -182h-138zM239 287h185l-26 190l-8 110h-2q-28 -70 -48 -110z" />
<glyph unicode="B" horiz-adv-x="635" d="M29 0l138 710h228q66 0 107 -15q49 -17 76 -55.5t27 -90.5q0 -56 -31.5 -103.5t-84.5 -71.5v-2q42 -15 64 -52t22 -86q0 -79 -44 -135.5t-115 -81.5q-48 -17 -107 -17h-280zM239 420h125q47 0 78 33t31 79q0 31 -19 49t-57 18h-123zM179 111h138q34 0 59 13 q30 16 48.5 46.5t18.5 66.5t-22.5 57.5t-63.5 21.5h-138z" />
<glyph unicode="C" horiz-adv-x="718" d="M52 298q0 173 125 298.5t294 125.5q75 0 146 -24t117 -74l-74 -89q-76 69 -185 69q-124 0 -207 -91t-83 -207q0 -87 52 -143.5t144 -56.5q117 0 225 89l53 -102q-51 -46 -130 -75.5t-155 -29.5q-148 0 -235 86t-87 224z" />
<glyph unicode="D" horiz-adv-x="738" d="M30 0l137 710h222q150 0 235 -73.5t85 -205.5q0 -181 -118 -306t-300 -125h-261zM179 111h107q127 0 209 89t82 220q0 87 -52 133t-144 46h-106z" />
<glyph unicode="E" horiz-adv-x="567" d="M29 0l139 710h424l-22 -111h-296l-36 -186h239l-22 -111h-239l-37 -191h312l-21 -111h-441z" />
<glyph unicode="F" horiz-adv-x="526" d="M30 0l137 710h408l-21 -111h-280l-39 -201h235l-21 -111h-235l-57 -287h-127z" />
<glyph unicode="G" horiz-adv-x="766" d="M51 294q0 175 125.5 301.5t301.5 126.5q73 0 143.5 -21.5t118.5 -65.5l-76 -90q-31 26 -82 42.5t-101 16.5q-130 0 -213 -91t-83 -211q0 -91 54.5 -143.5t139.5 -52.5q101 0 194 77l16 80h-109l21 111h225l-73 -374h-109l6 35l7 30h-2q-25 -26 -81.5 -51.5t-120.5 -25.5 q-127 0 -214.5 84t-87.5 222z" />
<glyph unicode="H" horiz-adv-x="755" d="M29 0l138 710h129l-59 -301h325l59 301h128l-138 -710h-129l58 298h-325l-58 -298h-128z" />
<glyph unicode="I" horiz-adv-x="302" d="M29 0l138 710h129l-139 -710h-128z" />
<glyph unicode="J" horiz-adv-x="543" d="M1 164q0 27 5 52l6 35h129l-6 -32q-4 -26 -4 -37q0 -76 75 -76q40 0 70.5 26t40.5 80l75 387h-182l22 111h310l-98 -509q-21 -106 -88 -159.5t-153 -53.5t-144 45.5t-58 130.5z" />
<glyph unicode="K" horiz-adv-x="641" d="M29 0l138 710h129l-57 -289h88l226 289h150l-275 -344v-2l140 -364h-137l-113 310h-100l-61 -310h-128z" />
<glyph unicode="L" horiz-adv-x="531" d="M29 0l138 710h129l-117 -599h307l-23 -111h-434z" />
<glyph unicode="M" horiz-adv-x="863" d="M3 0l192 710h138l72 -351l14 -104h2q32 61 56 104l208 351h140l-81 -710h-127l49 397l20 110h-2q-36 -70 -60 -110l-168 -275h-114l-62 275l-17 112h-2q-10 -65 -22 -112l-107 -397h-129z" />
<glyph unicode="N" horiz-adv-x="747" d="M29 0l138 710h123l189 -410q8 -19 17 -46.5t14 -45.5l6 -18h2q6 68 14 110l80 410h129l-139 -710h-121l-190 409q-8 19 -17.5 46.5t-15.5 45.5l-5 18h-2q-6 -68 -14 -110l-80 -409h-128z" />
<glyph unicode="O" horiz-adv-x="822" d="M51 300q0 111 59.5 209t156.5 155.5t204 57.5q145 0 234.5 -85.5t89.5 -219.5q0 -113 -60.5 -213t-157.5 -158t-203 -58q-145 0 -234 87.5t-89 224.5zM183 307q0 -89 53.5 -145t138.5 -56q109 0 198 90t89 213q0 87 -53.5 141t-138.5 54q-111 0 -199 -88t-88 -209z" />
<glyph unicode="P" horiz-adv-x="617" d="M29 0l138 710h254q67 0 110 -23q95 -47 95 -167q0 -84 -44 -152t-114 -100q-52 -23 -107 -23h-156l-48 -245h-128zM227 357h120q43 0 69 15q35 18 56 55t21 83q0 42 -25 65.5t-72 23.5h-122z" />
<glyph unicode="Q" horiz-adv-x="822" d="M51 300q0 111 59.5 209t156.5 155.5t204 57.5q145 0 234.5 -85.5t89.5 -219.5q0 -164 -124 -290l64 -71l-82 -76l-63 78q-99 -70 -216 -70q-145 0 -234 87.5t-89 224.5zM183 307q0 -89 53.5 -145t138.5 -56q70 0 137 43l-65 77l81 75l64 -80q70 85 70 188q0 87 -53.5 141 t-138.5 54q-111 0 -199 -88t-88 -209z" />
<glyph unicode="R" horiz-adv-x="636" d="M29 0l138 710h251q62 0 102 -18q96 -42 96 -154q0 -77 -42.5 -144.5t-118.5 -92.5v-2q6 -10 15 -36l95 -263h-138l-89 265h-129l-51 -265h-129zM231 377h114q60 0 99.5 37.5t39.5 101.5q0 40 -24.5 61.5t-68.5 21.5h-117z" />
<glyph unicode="S" horiz-adv-x="561" d="M0 85l78 91q27 -26 71.5 -47.5t98.5 -21.5q48 0 85.5 25t37.5 71q0 30 -28.5 55t-69 45t-81.5 44t-69.5 65.5t-28.5 96.5q0 97 76.5 155t179.5 58q69 0 126.5 -22.5t92.5 -55.5l-71 -95q-22 19 -62.5 36.5t-87.5 17.5t-86 -24.5t-39 -68.5q0 -25 20.5 -46.5t51.5 -36 t67 -35t67 -43t51.5 -60t20.5 -85.5q0 -92 -72.5 -154t-182.5 -62q-77 0 -145 29.5t-101 67.5z" />
<glyph unicode="T" horiz-adv-x="618" d="M186 0l117 599h-232l21 111h593l-22 -111h-232l-116 -599h-129z" />
<glyph unicode="U" horiz-adv-x="729" d="M66 202q0 28 6 58l88 450h128l-88 -454q-4 -17 -4 -37q0 -54 35 -83.5t97 -29.5q73 0 122.5 39.5t63.5 111.5l89 453h128l-90 -460q-23 -120 -108 -191t-209 -71q-113 0 -185.5 57t-72.5 157z" />
<glyph unicode="V" horiz-adv-x="662" d="M201 0l-118 710h136l66 -463l7 -104h2q27 63 47 104l247 463h146l-394 -710h-139z" />
<glyph unicode="W" horiz-adv-x="964" d="M145 0l-47 710h133l20 -491l-1 -75h2q11 34 29 75l225 491h112l27 -491l-1 -75h2q11 37 27 75l207 491h140l-316 -710h-151l-25 420q-4 61 0 93h-2q-17 -47 -38 -93l-195 -420h-148z" />
<glyph unicode="X" horiz-adv-x="618" d="M-44 0l290 365l-145 345h140l66 -171l29 -87h2q25 42 58 86l132 172h151l-284 -354l153 -356h-137l-76 188l-28 83h-2q-24 -38 -58 -82l-146 -189h-145z" />
<glyph unicode="Y" horiz-adv-x="605" d="M175 0l58 297l-153 413h139l70 -209l25 -95h2q31 50 61 95l148 209h155l-320 -418l-57 -292h-128z" />
<glyph unicode="Z" horiz-adv-x="608" d="M-22 0l17 83l392 452q16 18 32.5 34t24.5 23l9 7v2q-20 -2 -53 -2h-290l21 111h513l-16 -82l-395 -453q-16 -19 -32.5 -35t-24.5 -22l-9 -7v-2q20 2 53 2h311l-21 -111h-532z" />
<glyph unicode="[" horiz-adv-x="322" d="M4 -95l163 836h197l-18 -92h-89l-126 -652h89l-18 -92h-198z" />
<glyph unicode="\" horiz-adv-x="424" d="M221 -42l-102 788h104l102 -788h-104z" />
<glyph unicode="]" horiz-adv-x="322" d="M-14 -3h89l127 652h-89l18 92h197l-163 -836h-196z" />
<glyph unicode="^" horiz-adv-x="619" d="M66 245l201 465h81l201 -465h-111l-131 331l-131 -331h-110z" />
<glyph unicode="_" horiz-adv-x="601" d="M-32 0h561l-19 -98h-560z" />
<glyph unicode="`" horiz-adv-x="493" d="M182 757l-77 136h125l49 -136h-97z" />
<glyph unicode="a" horiz-adv-x="533" d="M-3 120q0 46 22 82t56 57.5t79.5 36t88.5 19.5t87 5h19q3 16 3 32q0 65 -82 65q-70 0 -150 -48l-30 98q31 20 89 37.5t113 17.5q79 0 133 -37t54 -118q0 -20 -5 -52l-61 -315h-117l8 43l10 37h-2q-21 -34 -65.5 -63t-100.5 -29q-62 0 -105.5 35.5t-43.5 96.5zM122 140 q0 -24 16.5 -39.5t50.5 -15.5q47 0 89 42.5t52 91.5l3 14h-22q-28 0 -55 -3t-60 -11.5t-53.5 -29t-20.5 -49.5z" />
<glyph unicode="b" horiz-adv-x="614" d="M11 0l138 710h126l-42 -216l-12 -46h2q26 33 68.5 53.5t87.5 20.5q91 0 142 -58t51 -157q0 -137 -84.5 -228t-194.5 -91q-49 0 -90 20.5t-60 60.5h-2q-1 -17 -5 -36l-6 -33h-119zM178 208q0 -50 25.5 -81.5t75.5 -31.5q62 0 113 56.5t51 146.5q0 53 -27 84t-74 31 q-64 0 -114 -60.5t-50 -144.5z" />
<glyph unicode="c" horiz-adv-x="549" d="M26 214q0 124 92 216t224 92q127 0 198 -75l-67 -80q-49 47 -125 47q-80 0 -137 -57.5t-57 -134.5q0 -55 35.5 -90.5t96.5 -35.5q80 0 163 65l35 -98q-38 -33 -97 -54t-116 -21q-114 0 -179.5 63t-65.5 163z" />
<glyph unicode="d" horiz-adv-x="616" d="M27 201q0 140 84 230.5t199 90.5q45 0 84 -17.5t57 -52.5h2q0 17 3 31l45 227h126l-138 -710h-119l8 42l9 35h-2q-27 -39 -70.5 -64t-93.5 -25q-92 0 -143 57t-51 156zM155 210q0 -53 27.5 -84t74.5 -31q65 0 114 61.5t49 142.5q0 50 -25.5 82t-75.5 32q-62 0 -113 -56.5 t-51 -146.5z" />
<glyph unicode="e" horiz-adv-x="560" d="M26 207q0 131 84.5 223t210.5 92q100 0 152 -52.5t52 -140.5q0 -38 -17 -98h-352q-2 -16 -2 -24q0 -44 34.5 -77.5t92.5 -33.5q79 0 158 56l34 -97q-32 -26 -88.5 -46.5t-110.5 -20.5q-116 0 -182 62t-66 157zM174 318h224q2 7 2 22q0 41 -22 63.5t-59 22.5 q-49 0 -87.5 -29t-57.5 -79z" />
<glyph unicode="f" horiz-adv-x="359" d="M40 0l78 402h-63l20 101h63l5 23q9 48 30.5 83.5t46.5 55t56 31t54.5 15t47.5 3.5q28 0 52 -3l-23 -108q-6 2 -24 2q-99 0 -115 -83l-3 -19h109l-19 -101h-110l-78 -402h-127z" />
<glyph unicode="g" horiz-adv-x="605" d="M51 -69q50 -33 138 -33q63 0 109 30t59 94l5 30l8 29h-2q-56 -71 -143 -71q-93 0 -144.5 58t-51.5 151q0 73 30.5 141t94 115t145.5 47q112 0 148 -70h3q0 10 1 18l8 40h119l-94 -487q-13 -63 -42.5 -110t-70.5 -73t-85 -38t-93 -12q-118 0 -194 48zM158 229 q0 -52 26 -82t76 -30q70 0 111.5 63.5t41.5 137.5q0 96 -103 96q-69 0 -110.5 -55t-41.5 -130z" />
<glyph unicode="h" horiz-adv-x="612" d="M11 0l138 710h127l-48 -246l-11 -45h2q23 40 75.5 71.5t112.5 31.5q71 0 112.5 -34t41.5 -105q0 -23 -7 -61l-62 -322h-127l58 298q5 28 5 46q0 62 -64 62t-116 -52t-66 -124l-44 -230h-127z" />
<glyph unicode="i" horiz-adv-x="263" d="M127 597l22 113h127l-22 -113h-127zM11 0l99 510h127l-100 -510h-126z" />
<glyph unicode="j" horiz-adv-x="264" d="M126 597l22 113h127l-22 -113h-127zM10 -5l100 515h126l-101 -524q-10 -49 -31.5 -86t-46.5 -56.5t-56 -31.5t-54.5 -15.5t-47.5 -3.5q-25 0 -52 3l21 107q10 -2 22 -2q102 0 120 94z" />
<glyph unicode="k" horiz-adv-x="552" d="M11 0l139 710h126l-74 -380h61l159 180h150l-212 -234v-2l124 -274h-135l-95 223h-72l-44 -223h-127z" />
<glyph unicode="l" horiz-adv-x="292" d="M37 116q0 26 5 51l106 543h127l-103 -528q-4 -26 -4 -36q0 -38 43 -38q8 0 18 1l-22 -111q-24 -3 -37 -3q-133 0 -133 121z" />
<glyph unicode="m" horiz-adv-x="912" d="M11 0l99 510h123l-11 -55l-11 -41h2q27 43 75 75.5t104 32.5q116 0 135 -105h2q28 44 79.5 74.5t107.5 30.5q144 0 144 -137q0 -28 -8 -70l-61 -315h-126l58 301q5 24 5 45q0 60 -57 60q-59 0 -103.5 -54.5t-58.5 -127.5l-44 -224h-127l59 301q5 32 5 46q0 59 -56 59 q-58 0 -104 -54.5t-60 -127.5l-44 -224h-127z" />
<glyph unicode="n" horiz-adv-x="612" d="M11 0l99 510h123l-8 -46l-14 -50h2q24 41 78 74.5t116 33.5q71 0 112.5 -34t41.5 -105q0 -23 -7 -61l-62 -322h-127l58 298q5 28 5 46q0 62 -64 62t-116 -52t-66 -124l-44 -230h-127z" />
<glyph unicode="o" horiz-adv-x="633" d="M25 214q0 129 96.5 218.5t219.5 89.5q111 0 181 -62.5t70 -162.5q0 -130 -96.5 -219.5t-219.5 -89.5q-111 0 -181 62.5t-70 163.5zM154 220q0 -56 34.5 -90t89.5 -34q71 0 128 55.5t57 137.5q0 56 -35 90.5t-89 34.5q-71 0 -128 -56.5t-57 -137.5z" />
<glyph unicode="p" horiz-adv-x="614" d="M140 17l-42 -217h-126l138 710h115l-6 -37l-11 -37h2q28 39 72 62.5t96 23.5q91 0 142.5 -58t51.5 -157q0 -137 -84.5 -228t-193.5 -91q-102 0 -145 75h-2q-2 -20 -7 -46zM179 210q0 -50 25.5 -82.5t74.5 -32.5q62 0 113 56.5t51 146.5q0 53 -27 84t-74 31 q-64 0 -113.5 -60.5t-49.5 -142.5z" />
<glyph unicode="q" horiz-adv-x="615" d="M26 200q0 140 84.5 231t199.5 91q105 0 146 -75h2q1 13 4 32l6 31h120l-138 -710h-127l43 220l12 45h-2q-59 -77 -156 -77q-91 0 -142.5 57t-51.5 155zM155 210q0 -53 27.5 -84t74.5 -31q64 0 113.5 61.5t49.5 142.5q0 50 -25.5 82t-75.5 32q-62 0 -113 -56.5t-51 -146.5 z" />
<glyph unicode="r" horiz-adv-x="397" d="M11 0l99 510h122l-17 -88l-10 -37h2q26 55 76 93.5t105 38.5q8 0 30 -2l-24 -125q-20 2 -30 2q-60 0 -116.5 -59.5t-74.5 -151.5l-35 -181h-127z" />
<glyph unicode="s" horiz-adv-x="455" d="M-11 59l62 86q23 -23 60.5 -37.5t75.5 -14.5q37 0 60.5 14t23.5 41q0 20 -22 35.5t-53.5 27.5t-62.5 28.5t-53 48t-22 75.5q0 72 59.5 115.5t145.5 43.5q101 0 173 -57l-54 -88q-45 40 -122 40q-36 0 -59.5 -13.5t-23.5 -40.5q0 -20 22 -35t53.5 -27.5t63 -28.5t53.5 -48 t22 -77q0 -71 -56 -115t-144 -44q-120 0 -202 71z" />
<glyph unicode="t" horiz-adv-x="368" d="M64 150q0 22 6 47l40 205h-65l19 101h69l29 146h122l-29 -146h117l-19 -101h-117l-37 -192q-3 -20 -3 -35q0 -68 80 -68q6 0 28 2l-22 -111q-30 -3 -37 -3q-50 0 -88.5 13t-65.5 49.5t-27 92.5z" />
<glyph unicode="u" horiz-adv-x="606" d="M35 127q0 23 7 61l62 322h127l-58 -298q-5 -30 -5 -47q0 -61 65 -61q62 0 112 52.5t63 123.5l44 230h127l-99 -510h-123l9 46l13 49h-2q-24 -41 -76 -74t-114 -33q-68 0 -110 33.5t-42 105.5z" />
<glyph unicode="v" horiz-adv-x="539" d="M138 0l-85 510h126l44 -317l3 -77h2q18 47 34 77l167 317h135l-282 -510h-144z" />
<glyph unicode="w" horiz-adv-x="824" d="M114 0l-56 510h127l23 -336v-54h2q10 27 22 54l160 335h111l28 -335l1 -54h2q8 27 21 54l155 336h135l-255 -510h-140l-30 292l-2 55h-2q-10 -28 -23 -55l-142 -292h-137z" />
<glyph unicode="x" horiz-adv-x="518" d="M-43 0l222 262l-121 248h135l58 -135l12 -34h2q11 20 21 33l106 136h148l-216 -256l124 -254h-132l-66 143l-10 30h-2q-10 -18 -19 -28l-116 -145h-146z" />
<glyph unicode="y" horiz-adv-x="550" d="M-20 -85q23 -18 54 -18q61 0 101 65l28 46l-117 502h132l58 -309l6 -65h2q16 37 29 63l161 311h142l-342 -588q-38 -66 -89.5 -99t-104.5 -33q-64 0 -117 36z" />
<glyph unicode="z" horiz-adv-x="522" d="M-21 0l12 68l280 287l51 47v2q-14 -2 -46 -2h-211l21 108h434l-13 -69l-281 -287q-12 -13 -25.5 -24.5t-20.5 -17.5l-7 -5v-2q16 3 49 3h226l-21 -108h-448z" />
<glyph unicode="{" horiz-adv-x="370" d="M75 34q0 19 5 47l17 87q3 15 3 28q0 32 -18 52t-50 24l22 111q40 4 68 32.5t37 73.5l19 95q31 160 208 160q5 0 15 -0.5t15 -0.5l-18 -94l-6 1h-12q-81 0 -97 -85l-24 -119q-8 -43 -37 -74t-70 -44v-2q28 -12 44.5 -40.5t16.5 -63.5q0 -15 -3 -31l-22 -110q-2 -9 -2 -26 q0 -59 68 -59q11 0 18 1l-19 -94q-12 -2 -31 -2t-40.5 5t-47.5 17.5t-42.5 41t-16.5 69.5z" />
<glyph unicode="|" horiz-adv-x="334" d="M116 -161v957h108v-957h-108z" />
<glyph unicode="}" horiz-adv-x="370" d="M2 -4q80 0 96 85l25 127q9 45 37.5 76.5t69.5 43.5v2q-60 26 -60 103q0 13 3 31l19 101q3 13 3 26q0 59 -69 59q-4 0 -10 -0.5t-8 -0.5l19 94q7 1 31 1q15 0 31 -2.5t38 -10.5t38.5 -22t28 -39.5t11.5 -58.5q0 -18 -5 -46l-15 -78q-3 -17 -3 -28q0 -32 18 -52.5t50 -23.5 l-22 -111q-33 -5 -64 -30.5t-41 -76.5l-21 -104q-33 -160 -208 -160q-8 0 -30 2l18 94q6 -1 20 -1z" />
<glyph unicode="~" horiz-adv-x="605" d="M52 199q0 182 153 182q28 0 51 -9.5t38.5 -22.5t29.5 -26.5t30.5 -23t34.5 -9.5q31 0 46.5 25t15.5 62h100q0 -182 -152 -182q-34 0 -62 14t-43.5 31t-36.5 31t-43 14q-31 0 -46 -24.5t-15 -61.5h-101z" />
<glyph unicode="&#xa1;" horiz-adv-x="268" d="M90 391l23 119h123l-23 -119h-123zM-28 -200l109 505h110l-88 -505h-131z" />
<glyph unicode="&#xa2;" horiz-adv-x="586" d="M198 -12l18 89q-75 18 -119.5 77.5t-44.5 148.5q0 129 81.5 226t191.5 108l16 84h86l-17 -89q65 -12 106 -61t49 -97l-114 -42q-5 30 -29.5 59t-73.5 29q-67 0 -117 -63.5t-50 -151.5q0 -54 27 -84.5t76 -30.5q48 0 84 28t55 59l111 -47q-33 -55 -93 -104t-140 -56 l-16 -82h-87z" />
<glyph unicode="&#xa3;" horiz-adv-x="586" d="M-9 0l22 111h57l39 200h-44l18 87h42l26 130q17 85 86.5 139.5t162.5 54.5q106 0 177 -77l-82 -80q-42 40 -98 40q-44 0 -76.5 -25.5t-40.5 -64.5l-23 -117h177l-17 -87h-177l-39 -200h312l-22 -111h-500z" />
<glyph unicode="&#xa4;" horiz-adv-x="625" d="M61 0l32 159h-69l17 86h68l13 65h-68l19 101h68l59 299h243q96 0 146.5 -45t50.5 -125q0 -101 -76.5 -166t-187.5 -65h-126l-13 -64h248l-16 -86h-248l-31 -159h-129zM270 411h99q57 0 98.5 33t41.5 86q0 78 -99 78h-102z" />
<glyph unicode="&#xa5;" horiz-adv-x="586" d="M168 0l37 186h-163l14 77h163l7 33l-16 48h-138l15 76h99l-98 290h140l57 -190l25 -114h2q29 59 63 113l128 191h153l-210 -290h98l-15 -76h-137l-35 -48l-7 -33h163l-14 -77h-163l-37 -186h-131z" />
<glyph unicode="&#xa7;" horiz-adv-x="479" d="M115 138l-5 340q-6 102 54 173t167 71q100 0 171 -65l-66 -74q-38 35 -105 35q-63 0 -95 -40t-29 -104l4 -336h-96zM-9 3l66 74q38 -35 105 -35q63 0 94.5 39.5t29.5 104.5l-5 336h97l5 -340q5 -102 -54.5 -173t-167.5 -71q-103 0 -170 65z" />
<glyph unicode="&#xa8;" horiz-adv-x="493" d="M226 777l23 116h98l-23 -116h-98zM42 777l23 116h98l-23 -116h-98z" />
<glyph unicode="&#xa9;" horiz-adv-x="827" d="M67 355q0 152 104.5 259t252.5 107q150 0 255 -107t105 -259t-105 -259.5t-255 -107.5q-148 0 -252.5 107.5t-104.5 259.5zM156 355q0 -120 77.5 -203t190.5 -83q115 0 193.5 83t78.5 203t-78.5 202.5t-193.5 82.5q-113 0 -190.5 -82.5t-77.5 -202.5zM242 353 q0 81 53 138t134 57q53 0 97 -28t65 -77l-76 -36q-11 25 -33.5 41.5t-49.5 16.5q-44 0 -71.5 -32t-27.5 -80q0 -49 26.5 -80.5t72.5 -31.5q26 0 48.5 16t34.5 42l76 -35q-20 -44 -62 -75t-100 -31q-81 0 -134 57t-53 138z" />
<glyph unicode="&#xaa;" horiz-adv-x="428" d="M195 383q-37 0 -65 22.5t-28 62.5q0 41 23.5 68.5t62 38t64 13.5t53.5 3h14q3 9 3 13q2 22 -10 34t-38 12q-36 0 -88 -26l-22 62q54 34 134 34q114 0 114 -101q0 -19 -4 -36l-38 -194h-83l8 44h-2q-37 -50 -98 -50zM229 453q26 0 49 24t28 48l1 7h-11q-101 0 -101 -52 q0 -27 34 -27zM64 266l13 68h287l-14 -68h-286z" />
<glyph unicode="&#xab;" horiz-adv-x="602" d="M388 77l-129 206l210 205h128l-221 -211l128 -200h-116zM165 77l-129 206l191 205h127l-201 -211l128 -200h-116z" />
<glyph unicode="&#xac;" horiz-adv-x="658" d="M81 339v98h488v-294h-102v196h-386z" />
<glyph unicode="&#xad;" horiz-adv-x="433" d="M53 230l21 111h300l-21 -111h-300z" />
<glyph unicode="&#xae;" horiz-adv-x="827" d="M67 355q0 152 104.5 259t252.5 107q150 0 255 -107t105 -259t-105 -259.5t-255 -107.5q-148 0 -252.5 107.5t-104.5 259.5zM156 355q0 -120 77.5 -203t190.5 -83q115 0 193.5 83t78.5 203t-78.5 202.5t-193.5 82.5q-113 0 -190.5 -82.5t-77.5 -202.5zM298 174v366h153 q54 0 87 -32t33 -84q0 -39 -20.5 -64t-44.5 -31v-2q4 -4 13 -21l69 -132h-94l-62 135h-48v-135h-86zM384 369h47q25 0 39 14.5t14 40.5t-14 40t-38 14h-48v-109z" />
<glyph unicode="&#xaf;" horiz-adv-x="493" d="M55 783l17 87h262l-16 -87h-263z" />
<glyph unicode="&#xb0;" horiz-adv-x="420" d="M245 408q-66 0 -107.5 39.5t-41.5 99.5q0 68 55.5 122t124.5 54q65 0 107 -40t42 -101q0 -69 -56 -121.5t-124 -52.5zM251 499q30 0 54 23t24 53q0 25 -16.5 40.5t-42.5 15.5q-30 0 -53.5 -23.5t-23.5 -53.5q0 -24 15.5 -39.5t42.5 -15.5z" />
<glyph unicode="&#xb1;" horiz-adv-x="586" d="M209 0v236h-216v99h216v237h104v-237h216v-99h-216v-236h-104zM7 -85h508v-98h-508v98z" />
<glyph unicode="&#xb2;" d="M69 423q0 51 20 92t49.5 65t63.5 46t63 36.5t48.5 35.5t19.5 44q0 19 -14.5 30.5t-37.5 11.5q-39 0 -89 -46l-56 60q74 74 152 74q61 0 102 -32.5t41 -88.5q0 -51 -34.5 -91t-77 -60.5t-82 -45.5t-47.5 -48h201l-17 -83h-305z" />
<glyph unicode="&#xb3;" d="M220 413q-94 0 -154 67l57 62q36 -42 98 -42q33 0 57 20.5t24 50.5q0 23 -19.5 36t-48.5 13h-35l-14 45l94 90l29 24v2q-20 -3 -35 -3h-125l16 84h280l-11 -61l-120 -112q36 -10 61.5 -40.5t25.5 -74.5q0 -63 -51 -112t-129 -49z" />
<glyph unicode="&#xb4;" horiz-adv-x="493" d="M73 757l103 136h136l-132 -136h-107z" />
<glyph unicode="&#xb6;" horiz-adv-x="630" d="M207 -50l56 291q-77 0 -135.5 59t-58.5 147q0 106 84 184.5t188 78.5h318l-21 -111h-213l-126 -649h-92zM361 -50l115 594h93l-115 -594h-93z" />
<glyph unicode="&#xb7;" horiz-adv-x="256" d="M53 227l24 129h124l-25 -129h-123z" />
<glyph unicode="&#xb8;" horiz-adv-x="493" d="M121 -86l53 111l57 -13l-24 -56q24 -4 42.5 -21t18.5 -45q0 -50 -37.5 -74t-84.5 -24q-37 0 -65 8l13 68q14 -7 42 -7q50 0 50 32q0 23 -43 23q-6 0 -22 -2z" />
<glyph unicode="&#xb9;" d="M92 423l16 83h92l38 201l9 29h-2q-6 -10 -19 -20l-35 -27l-46 64l135 109h84l-69 -356h91l-16 -83h-278z" />
<glyph unicode="&#xba;" horiz-adv-x="481" d="M266 384q-67 0 -110.5 39.5t-43.5 102.5q0 81 61.5 137.5t139.5 56.5q68 0 111.5 -39.5t43.5 -102.5q0 -82 -62 -138t-140 -56zM273 464q39 0 71 31t32 77q0 31 -19.5 50t-49.5 19q-40 0 -71.5 -31.5t-31.5 -76.5q0 -31 19 -50t50 -19zM74 266l13 68h323l-14 -68h-322z " />
<glyph unicode="&#xbb;" horiz-adv-x="602" d="M243 77l201 211l-129 200h116l129 -206l-191 -205h-126zM0 77l221 211l-129 200h116l130 -206l-210 -205h-128z" />
<glyph unicode="&#xbc;" horiz-adv-x="976" d="M729 0l19 99h-204l12 64l238 276h113l-50 -258h59l-16 -82h-58l-20 -99h-93zM662 181h102l21 110l15 55h-2q-17 -27 -35 -47l-101 -116v-2zM303 0h-98l473 710h98zM53 272l16 83h92l38 201l9 29h-2q-6 -10 -19 -20l-35 -27l-46 64l135 109h84l-69 -356h91l-16 -83h-278z " />
<glyph unicode="&#xbd;" horiz-adv-x="968" d="M561 0q0 51 20 92t49.5 65t63.5 46t63 36.5t48.5 35.5t19.5 44q0 19 -14.5 30.5t-37.5 11.5q-39 0 -89 -46l-56 60q74 74 152 74q61 0 102 -32.5t41 -88.5q0 -51 -34.5 -91t-77 -60.5t-82 -45.5t-47.5 -48h201l-17 -83h-305zM304 0h-98l473 710h98zM51 272l16 83h92 l38 201l9 29h-2q-6 -10 -19 -20l-35 -27l-46 64l135 109h84l-69 -356h91l-16 -83h-278z" />
<glyph unicode="&#xbe;" horiz-adv-x="991" d="M743 0l19 99h-204l12 64l238 276h113l-50 -258h59l-16 -82h-58l-20 -99h-93zM676 181h102l21 110l15 55h-2q-17 -27 -35 -47l-101 -116v-2zM200 262q-94 0 -154 67l57 62q36 -42 98 -42q33 0 57 20.5t24 50.5q0 23 -19.5 36t-48.5 13h-35l-14 45l94 90l29 24v2 q-20 -3 -35 -3h-125l16 84h280l-11 -61l-120 -112q36 -10 61.5 -40.5t25.5 -74.5q0 -63 -51 -112t-129 -49zM317 0h-98l473 710h98z" />
<glyph unicode="&#xbf;" horiz-adv-x="483" d="M231 391l24 119h123l-23 -119h-124zM-22 -42q0 49 21.5 89.5t54 67.5t65 50.5t58.5 50t32 54.5l7 35h123l-9 -44q-8 -42 -33.5 -77.5t-56 -59.5t-60 -46t-49 -48t-19.5 -55q0 -30 23 -49.5t59 -19.5q51 0 115 43l57 -95q-34 -26 -87 -45t-104 -19q-84 0 -140.5 45 t-56.5 123z" />
<glyph unicode="&#xc0;" horiz-adv-x="653" d="M-46 0l381 710h146l109 -710h-129l-25 182h-249l-95 -182h-138zM239 287h185l-26 190l-8 110h-2q-28 -70 -48 -110zM364 757l-77 136h125l49 -136h-97z" />
<glyph unicode="&#xc1;" horiz-adv-x="653" d="M-46 0l381 710h146l109 -710h-129l-25 182h-249l-95 -182h-138zM239 287h185l-26 190l-8 110h-2q-28 -70 -48 -110zM361 757l103 136h136l-132 -136h-107z" />
<glyph unicode="&#xc2;" horiz-adv-x="653" d="M-46 0l381 710h146l109 -710h-129l-25 182h-249l-95 -182h-138zM239 287h185l-26 190l-8 110h-2q-28 -70 -48 -110zM258 757l119 136h127l65 -136h-100l-34 81h-2l-66 -81h-109z" />
<glyph unicode="&#xc3;" horiz-adv-x="653" d="M-46 0l381 710h146l109 -710h-129l-25 182h-249l-95 -182h-138zM239 287h185l-26 190l-8 110h-2q-28 -70 -48 -110zM245 758q26 137 130 137q27 0 46 -16.5t33.5 -32.5t29.5 -16q35 0 47 62h87q-26 -137 -130 -137q-20 0 -37 10t-26.5 22.5t-22 22.5t-24.5 10 q-33 0 -46 -62h-87z" />
<glyph unicode="&#xc4;" horiz-adv-x="653" d="M-46 0l381 710h146l109 -710h-129l-25 182h-249l-95 -182h-138zM239 287h185l-26 190l-8 110h-2q-28 -70 -48 -110zM466 777l23 116h98l-23 -116h-98zM282 777l23 116h98l-23 -116h-98z" />
<glyph unicode="&#xc5;" horiz-adv-x="653" d="M-46 0l381 710h146l109 -710h-129l-25 182h-249l-95 -182h-138zM239 287h185l-26 190l-8 110h-2q-28 -70 -48 -110zM421 745q-37 0 -61.5 17.5t-24.5 50.5q0 40 32.5 64.5t72.5 24.5q38 0 62.5 -18t24.5 -52q0 -39 -33 -63t-73 -24zM425 789q17 0 29 12t12 30 q0 12 -7.5 19.5t-20.5 7.5q-17 0 -29 -12.5t-12 -30.5q0 -26 28 -26z" />
<glyph unicode="&#xc6;" horiz-adv-x="915" d="M-52 0l428 710h565l-22 -111h-296l-36 -186h239l-22 -111h-239l-37 -191h311l-21 -111h-440l59 304h-168l-179 -304h-142zM330 409h127l37 190h-50z" />
<glyph unicode="&#xc7;" horiz-adv-x="718" d="M271 -86l38 79q-120 19 -188.5 101t-68.5 204q0 173 125 298.5t294 125.5q75 0 146 -24t117 -74l-74 -89q-76 69 -185 69q-124 0 -207 -91t-83 -207q0 -87 52 -143.5t144 -56.5q117 0 225 89l53 -102q-51 -46 -130 -75.5t-155 -29.5h-4l-13 -32q24 -4 42.5 -21t18.5 -45 q0 -50 -37.5 -74t-84.5 -24q-37 0 -65 8l13 68q14 -7 42 -7q50 0 50 32q0 23 -43 23q-6 0 -22 -2z" />
<glyph unicode="&#xc8;" horiz-adv-x="567" d="M29 0l139 710h424l-22 -111h-296l-36 -186h239l-22 -111h-239l-37 -191h312l-21 -111h-441zM344 757l-77 136h125l49 -136h-97z" />
<glyph unicode="&#xc9;" horiz-adv-x="567" d="M341 757l103 136h136l-132 -136h-107zM29 0l139 710h424l-22 -111h-296l-36 -186h239l-22 -111h-239l-37 -191h312l-21 -111h-441z" />
<glyph unicode="&#xca;" horiz-adv-x="567" d="M238 757l119 136h127l65 -136h-100l-34 81h-2l-66 -81h-109zM29 0l139 710h424l-22 -111h-296l-36 -186h239l-22 -111h-239l-37 -191h312l-21 -111h-441z" />
<glyph unicode="&#xcb;" horiz-adv-x="567" d="M446 777l23 116h98l-23 -116h-98zM262 777l23 116h98l-23 -116h-98zM29 0l139 710h424l-22 -111h-296l-36 -186h239l-22 -111h-239l-37 -191h312l-21 -111h-441z" />
<glyph unicode="&#xcc;" horiz-adv-x="302" d="M29 0l138 710h129l-139 -710h-128zM187 757l-77 136h125l49 -136h-97z" />
<glyph unicode="&#xcd;" horiz-adv-x="302" d="M29 0l138 710h129l-139 -710h-128zM183 757l103 136h136l-132 -136h-107z" />
<glyph unicode="&#xce;" horiz-adv-x="302" d="M29 0l138 710h129l-139 -710h-128zM80 757l119 136h127l65 -136h-100l-34 81h-2l-66 -81h-109z" />
<glyph unicode="&#xcf;" horiz-adv-x="302" d="M29 0l138 710h129l-139 -710h-128zM288 777l23 116h98l-23 -116h-98zM104 777l23 116h98l-23 -116h-98z" />
<glyph unicode="&#xd0;" horiz-adv-x="743" d="M35 0l59 301h-59l21 105h58l59 304h222q150 0 234.5 -73.5t84.5 -205.5q0 -181 -118 -306t-300 -125h-261zM185 111h106q127 0 209 89t82 220q0 87 -51.5 133t-144.5 46h-106l-38 -193h132l-20 -105h-132z" />
<glyph unicode="&#xd1;" horiz-adv-x="747" d="M29 0l138 710h123l189 -410q8 -19 17 -46.5t14 -45.5l6 -18h2q6 68 14 110l80 410h129l-139 -710h-121l-190 409q-8 19 -17.5 46.5t-15.5 45.5l-5 18h-2q-6 -68 -14 -110l-80 -409h-128zM288 758q26 137 130 137q27 0 46 -16.5t33.5 -32.5t29.5 -16q35 0 47 62h87 q-26 -137 -130 -137q-20 0 -37 10t-26.5 22.5t-22 22.5t-24.5 10q-33 0 -46 -62h-87z" />
<glyph unicode="&#xd2;" horiz-adv-x="822" d="M51 300q0 111 59.5 209t156.5 155.5t204 57.5q145 0 234.5 -85.5t89.5 -219.5q0 -113 -60.5 -213t-157.5 -158t-203 -58q-145 0 -234 87.5t-89 224.5zM183 307q0 -89 53.5 -145t138.5 -56q109 0 198 90t89 213q0 87 -53.5 141t-138.5 54q-111 0 -199 -88t-88 -209z M445 757l-77 136h125l49 -136h-97z" />
<glyph unicode="&#xd3;" horiz-adv-x="822" d="M442 757l103 136h136l-132 -136h-107zM51 300q0 111 59.5 209t156.5 155.5t204 57.5q145 0 234.5 -85.5t89.5 -219.5q0 -113 -60.5 -213t-157.5 -158t-203 -58q-145 0 -234 87.5t-89 224.5zM183 307q0 -89 53.5 -145t138.5 -56q109 0 198 90t89 213q0 87 -53.5 141 t-138.5 54q-111 0 -199 -88t-88 -209z" />
<glyph unicode="&#xd4;" horiz-adv-x="822" d="M339 757l119 136h127l65 -136h-100l-34 81h-2l-66 -81h-109zM51 300q0 111 59.5 209t156.5 155.5t204 57.5q145 0 234.5 -85.5t89.5 -219.5q0 -113 -60.5 -213t-157.5 -158t-203 -58q-145 0 -234 87.5t-89 224.5zM183 307q0 -89 53.5 -145t138.5 -56q109 0 198 90t89 213 q0 87 -53.5 141t-138.5 54q-111 0 -199 -88t-88 -209z" />
<glyph unicode="&#xd5;" horiz-adv-x="822" d="M51 300q0 111 59.5 209t156.5 155.5t204 57.5q145 0 234.5 -85.5t89.5 -219.5q0 -113 -60.5 -213t-157.5 -158t-203 -58q-145 0 -234 87.5t-89 224.5zM183 307q0 -89 53.5 -145t138.5 -56q109 0 198 90t89 213q0 87 -53.5 141t-138.5 54q-111 0 -199 -88t-88 -209z M326 758q26 137 130 137q27 0 46 -16.5t33.5 -32.5t29.5 -16q35 0 47 62h87q-26 -137 -130 -137q-20 0 -37 10t-26.5 22.5t-22 22.5t-24.5 10q-33 0 -46 -62h-87z" />
<glyph unicode="&#xd6;" horiz-adv-x="822" d="M547 777l23 116h98l-23 -116h-98zM363 777l23 116h98l-23 -116h-98zM51 300q0 111 59.5 209t156.5 155.5t204 57.5q145 0 234.5 -85.5t89.5 -219.5q0 -113 -60.5 -213t-157.5 -158t-203 -58q-145 0 -234 87.5t-89 224.5zM183 307q0 -89 53.5 -145t138.5 -56q109 0 198 90 t89 213q0 87 -53.5 141t-138.5 54q-111 0 -199 -88t-88 -209z" />
<glyph unicode="&#xd7;" horiz-adv-x="586" d="M28 69l197 217l-197 216l70 70l194 -214l195 214l70 -70l-198 -216l198 -217l-70 -69l-195 214l-194 -214z" />
<glyph unicode="&#xd8;" horiz-adv-x="822" d="M57 17l68 74q-74 83 -74 209q0 111 59.5 209t156.5 155.5t204 57.5q108 0 190 -52l60 66l54 -43l-61 -66q81 -84 81 -210q0 -113 -60.5 -213t-157.5 -158t-203 -58q-116 0 -198 57l-65 -71zM217 190l356 386q-48 28 -103 28q-111 0 -199 -88t-88 -209q0 -69 34 -117z M264 139q47 -33 111 -33q109 0 198 90t89 213q0 69 -38 120z" />
<glyph unicode="&#xd9;" horiz-adv-x="729" d="M66 202q0 28 6 58l88 450h128l-88 -454q-4 -17 -4 -37q0 -54 35 -83.5t97 -29.5q73 0 122.5 39.5t63.5 111.5l89 453h128l-90 -460q-23 -120 -108 -191t-209 -71q-113 0 -185.5 57t-72.5 157zM400 757l-77 136h125l49 -136h-97z" />
<glyph unicode="&#xda;" horiz-adv-x="729" d="M397 757l103 136h136l-132 -136h-107zM66 202q0 28 6 58l88 450h128l-88 -454q-4 -17 -4 -37q0 -54 35 -83.5t97 -29.5q73 0 122.5 39.5t63.5 111.5l89 453h128l-90 -460q-23 -120 -108 -191t-209 -71q-113 0 -185.5 57t-72.5 157z" />
<glyph unicode="&#xdb;" horiz-adv-x="729" d="M294 757l119 136h127l65 -136h-100l-34 81h-2l-66 -81h-109zM66 202q0 28 6 58l88 450h128l-88 -454q-4 -17 -4 -37q0 -54 35 -83.5t97 -29.5q73 0 122.5 39.5t63.5 111.5l89 453h128l-90 -460q-23 -120 -108 -191t-209 -71q-113 0 -185.5 57t-72.5 157z" />
<glyph unicode="&#xdc;" horiz-adv-x="729" d="M501 777l23 116h98l-23 -116h-98zM317 777l23 116h98l-23 -116h-98zM66 202q0 28 6 58l88 450h128l-88 -454q-4 -17 -4 -37q0 -54 35 -83.5t97 -29.5q73 0 122.5 39.5t63.5 111.5l89 453h128l-90 -460q-23 -120 -108 -191t-209 -71q-113 0 -185.5 57t-72.5 157z" />
<glyph unicode="&#xdd;" horiz-adv-x="605" d="M175 0l58 297l-153 413h139l70 -209l25 -95h2q31 50 61 95l148 209h155l-320 -418l-57 -292h-128zM325 757l103 136h136l-132 -136h-107z" />
<glyph unicode="&#xde;" horiz-adv-x="618" d="M29 0l138 710h129l-23 -115h126q96 0 150.5 -50.5t54.5 -138.5q0 -117 -78 -196t-187 -79h-156l-26 -131h-128zM205 242h120q64 0 105.5 42.5t41.5 111.5q0 42 -25.5 65t-72.5 23h-123z" />
<glyph unicode="&#xdf;" horiz-adv-x="603" d="M11 0l104 538q17 86 89 135t159 49q85 0 139 -43t54 -110q0 -40 -19.5 -72.5t-43 -50.5t-43 -39.5t-19.5 -40.5q0 -20 19 -42t41.5 -40.5t41.5 -49t19 -64.5q0 -74 -60 -125.5t-140 -51.5q-84 0 -143 26l22 105q41 -23 111 -23q31 0 56.5 17t25.5 51q0 22 -19.5 46 t-42.5 41.5t-42.5 44.5t-19.5 56q0 34 20 64.5t44 49t44 42t20 45.5q0 24 -18 40t-52 16q-43 0 -76.5 -23.5t-42.5 -70.5l-101 -520h-127z" />
<glyph unicode="&#xe0;" horiz-adv-x="533" d="M-3 120q0 46 22 82t56 57.5t79.5 36t88.5 19.5t87 5h19q3 16 3 32q0 65 -82 65q-70 0 -150 -48l-30 98q31 20 89 37.5t113 17.5q79 0 133 -37t54 -118q0 -20 -5 -52l-61 -315h-117l8 43l10 37h-2q-21 -34 -65.5 -63t-100.5 -29q-62 0 -105.5 35.5t-43.5 96.5zM122 140 q0 -24 16.5 -39.5t50.5 -15.5q47 0 89 42.5t52 91.5l3 14h-22q-28 0 -55 -3t-60 -11.5t-53.5 -29t-20.5 -49.5zM261 574l-77 136h125l49 -136h-97z" />
<glyph unicode="&#xe1;" horiz-adv-x="533" d="M-3 120q0 46 22 82t56 57.5t79.5 36t88.5 19.5t87 5h19q3 16 3 32q0 65 -82 65q-70 0 -150 -48l-30 98q31 20 89 37.5t113 17.5q79 0 133 -37t54 -118q0 -20 -5 -52l-61 -315h-117l8 43l10 37h-2q-21 -34 -65.5 -63t-100.5 -29q-62 0 -105.5 35.5t-43.5 96.5zM122 140 q0 -24 16.5 -39.5t50.5 -15.5q47 0 89 42.5t52 91.5l3 14h-22q-28 0 -55 -3t-60 -11.5t-53.5 -29t-20.5 -49.5zM258 574l103 136h136l-132 -136h-107z" />
<glyph unicode="&#xe2;" horiz-adv-x="533" d="M-3 120q0 46 22 82t56 57.5t79.5 36t88.5 19.5t87 5h19q3 16 3 32q0 65 -82 65q-70 0 -150 -48l-30 98q31 20 89 37.5t113 17.5q79 0 133 -37t54 -118q0 -20 -5 -52l-61 -315h-117l8 43l10 37h-2q-21 -34 -65.5 -63t-100.5 -29q-62 0 -105.5 35.5t-43.5 96.5zM122 140 q0 -24 16.5 -39.5t50.5 -15.5q47 0 89 42.5t52 91.5l3 14h-22q-28 0 -55 -3t-60 -11.5t-53.5 -29t-20.5 -49.5zM155 574l119 136h127l65 -136h-100l-34 81h-2l-66 -81h-109z" />
<glyph unicode="&#xe3;" horiz-adv-x="533" d="M-3 120q0 46 22 82t56 57.5t79.5 36t88.5 19.5t87 5h19q3 16 3 32q0 65 -82 65q-70 0 -150 -48l-30 98q31 20 89 37.5t113 17.5q79 0 133 -37t54 -118q0 -20 -5 -52l-61 -315h-117l8 43l10 37h-2q-21 -34 -65.5 -63t-100.5 -29q-62 0 -105.5 35.5t-43.5 96.5zM122 140 q0 -24 16.5 -39.5t50.5 -15.5q47 0 89 42.5t52 91.5l3 14h-22q-28 0 -55 -3t-60 -11.5t-53.5 -29t-20.5 -49.5zM141 575q26 137 130 137q27 0 46 -16t33.5 -32.5t29.5 -16.5q35 0 47 62h87q-26 -137 -130 -137q-26 0 -45 16t-34.5 32.5t-30.5 16.5q-33 0 -46 -62h-87z" />
<glyph unicode="&#xe4;" horiz-adv-x="533" d="M-3 120q0 46 22 82t56 57.5t79.5 36t88.5 19.5t87 5h19q3 16 3 32q0 65 -82 65q-70 0 -150 -48l-30 98q31 20 89 37.5t113 17.5q79 0 133 -37t54 -118q0 -20 -5 -52l-61 -315h-117l8 43l10 37h-2q-21 -34 -65.5 -63t-100.5 -29q-62 0 -105.5 35.5t-43.5 96.5zM122 140 q0 -24 16.5 -39.5t50.5 -15.5q47 0 89 42.5t52 91.5l3 14h-22q-28 0 -55 -3t-60 -11.5t-53.5 -29t-20.5 -49.5zM362 594l23 116h98l-23 -116h-98zM178 594l23 116h98l-23 -116h-98z" />
<glyph unicode="&#xe5;" horiz-adv-x="533" d="M-3 120q0 46 22 82t56 57.5t79.5 36t88.5 19.5t87 5h19q3 16 3 32q0 65 -82 65q-70 0 -150 -48l-30 98q31 20 89 37.5t113 17.5q79 0 133 -37t54 -118q0 -20 -5 -52l-61 -315h-117l8 43l10 37h-2q-21 -34 -65.5 -63t-100.5 -29q-62 0 -105.5 35.5t-43.5 96.5zM122 140 q0 -24 16.5 -39.5t50.5 -15.5q47 0 89 42.5t52 91.5l3 14h-22q-28 0 -55 -3t-60 -11.5t-53.5 -29t-20.5 -49.5zM317 562q-37 0 -61.5 17.5t-24.5 50.5q0 40 32.5 64.5t72.5 24.5q38 0 62.5 -18t24.5 -52q0 -39 -33 -63t-73 -24zM321 606q17 0 29 12t12 30q0 12 -7.5 19.5 t-20.5 7.5q-17 0 -29 -12.5t-12 -30.5q0 -26 28 -26z" />
<glyph unicode="&#xe6;" horiz-adv-x="858" d="M-3 118q0 47 21.5 83.5t55 58.5t79.5 36t89 19t88 5h18q5 21 5 31q0 66 -83 66q-71 0 -149 -48l-30 98q99 55 201 55q106 0 149 -73h2q76 73 175 73t151.5 -52.5t52.5 -141.5q0 -45 -17 -96h-348q-3 -20 0 -37q5 -49 38 -74t83 -25q80 0 158 56l34 -97q-32 -26 -89 -46.5 t-109 -20.5q-154 0 -212 111h-2q-6 -12 -18 -27t-35.5 -36t-62 -34.5t-83.5 -13.5q-68 0 -115 34.5t-47 95.5zM476 320h219q2 8 2 21q0 39 -22.5 61t-58.5 22q-48 0 -84.5 -27.5t-55.5 -76.5zM125 140q0 -23 17 -38t49 -15q48 0 89.5 42.5t50.5 91.5l2 11h-33 q-27 0 -52.5 -3t-55.5 -12t-48.5 -28.5t-18.5 -48.5z" />
<glyph unicode="&#xe7;" horiz-adv-x="550" d="M172 -86l38 80q-87 15 -135.5 75t-48.5 145q0 124 92 216t224 92q127 0 198 -75l-67 -80q-49 47 -125 47q-80 0 -137 -57.5t-57 -134.5q0 -55 35.5 -90.5t96.5 -35.5q80 0 163 65l35 -98q-38 -33 -97 -54t-116 -21l-13 -32q24 -4 42.5 -21t18.5 -45q0 -50 -37.5 -74 t-84.5 -24q-37 0 -65 8l13 68q14 -7 42 -7q50 0 50 32q0 23 -43 23q-6 0 -22 -2z" />
<glyph unicode="&#xe8;" horiz-adv-x="560" d="M26 207q0 131 84.5 223t210.5 92q100 0 152 -52.5t52 -140.5q0 -38 -17 -98h-352q-2 -16 -2 -24q0 -44 34.5 -77.5t92.5 -33.5q79 0 158 56l34 -97q-32 -26 -88.5 -46.5t-110.5 -20.5q-116 0 -182 62t-66 157zM174 318h224q2 7 2 22q0 41 -22 63.5t-59 22.5 q-49 0 -87.5 -29t-57.5 -79zM293 574l-77 136h125l49 -136h-97z" />
<glyph unicode="&#xe9;" horiz-adv-x="560" d="M290 574l103 136h136l-132 -136h-107zM26 207q0 131 84.5 223t210.5 92q100 0 152 -52.5t52 -140.5q0 -38 -17 -98h-352q-2 -16 -2 -24q0 -44 34.5 -77.5t92.5 -33.5q79 0 158 56l34 -97q-32 -26 -88.5 -46.5t-110.5 -20.5q-116 0 -182 62t-66 157zM174 318h224q2 7 2 22 q0 41 -22 63.5t-59 22.5q-49 0 -87.5 -29t-57.5 -79z" />
<glyph unicode="&#xea;" horiz-adv-x="560" d="M187 574l119 136h127l65 -136h-100l-34 81h-2l-66 -81h-109zM26 207q0 131 84.5 223t210.5 92q100 0 152 -52.5t52 -140.5q0 -38 -17 -98h-352q-2 -16 -2 -24q0 -44 34.5 -77.5t92.5 -33.5q79 0 158 56l34 -97q-32 -26 -88.5 -46.5t-110.5 -20.5q-116 0 -182 62t-66 157z M174 318h224q2 7 2 22q0 41 -22 63.5t-59 22.5q-49 0 -87.5 -29t-57.5 -79z" />
<glyph unicode="&#xeb;" horiz-adv-x="560" d="M395 594l23 116h98l-23 -116h-98zM211 594l23 116h98l-23 -116h-98zM26 207q0 131 84.5 223t210.5 92q100 0 152 -52.5t52 -140.5q0 -38 -17 -98h-352q-2 -16 -2 -24q0 -44 34.5 -77.5t92.5 -33.5q79 0 158 56l34 -97q-32 -26 -88.5 -46.5t-110.5 -20.5q-116 0 -182 62 t-66 157zM174 318h224q2 7 2 22q0 41 -22 63.5t-59 22.5q-49 0 -87.5 -29t-57.5 -79z" />
<glyph unicode="&#xec;" horiz-adv-x="263" d="M11 0l99 510h126l-99 -510h-126zM132 574l-77 136h125l49 -136h-97z" />
<glyph unicode="&#xed;" horiz-adv-x="263" d="M127 574l103 136h136l-132 -136h-107zM11 0l99 510h126l-99 -510h-126z" />
<glyph unicode="&#xee;" horiz-adv-x="263" d="M25 574l119 136h127l65 -136h-100l-34 81h-2l-66 -81h-109zM11 0l99 510h126l-99 -510h-126z" />
<glyph unicode="&#xef;" horiz-adv-x="263" d="M232 594l23 116h98l-23 -116h-98zM48 594l23 116h98l-23 -116h-98zM11 0l99 510h126l-99 -510h-126z" />
<glyph unicode="&#xf0;" horiz-adv-x="584" d="M22 195q0 105 79 187.5t202 82.5q29 0 55.5 -8.5t37.5 -16.5l12 -9h2q-16 64 -76 115l-204 -80l10 76l124 50q-50 27 -109 42l52 92q115 -30 189 -84l171 66l-8 -76l-105 -41q93 -98 93 -242q0 -55 -17.5 -115t-51.5 -116.5t-94.5 -93t-137.5 -36.5q-107 0 -165.5 59 t-58.5 148zM151 197q0 -44 24 -73t71 -29q70 0 116.5 59.5t46.5 124.5q0 40 -26.5 63.5t-73.5 23.5q-69 0 -113.5 -50.5t-44.5 -118.5z" />
<glyph unicode="&#xf1;" horiz-adv-x="612" d="M11 0l99 510h123l-8 -46l-14 -50h2q24 41 78 74.5t116 33.5q71 0 112.5 -34t41.5 -105q0 -23 -7 -61l-62 -322h-127l58 298q5 28 5 46q0 62 -64 62t-116 -52t-66 -124l-44 -230h-127zM195 575q26 137 130 137q27 0 46 -16t33.5 -32.5t29.5 -16.5q35 0 47 62h87 q-26 -137 -130 -137q-26 0 -45 16t-34.5 32.5t-30.5 16.5q-33 0 -46 -62h-87z" />
<glyph unicode="&#xf2;" horiz-adv-x="633" d="M25 214q0 129 96.5 218.5t219.5 89.5q111 0 181 -62.5t70 -162.5q0 -130 -96.5 -219.5t-219.5 -89.5q-111 0 -181 62.5t-70 163.5zM154 220q0 -56 34.5 -90t89.5 -34q71 0 128 55.5t57 137.5q0 56 -35 90.5t-89 34.5q-71 0 -128 -56.5t-57 -137.5zM316 574l-77 136h125 l49 -136h-97z" />
<glyph unicode="&#xf3;" horiz-adv-x="633" d="M313 574l103 136h136l-132 -136h-107zM25 214q0 129 96.5 218.5t219.5 89.5q111 0 181 -62.5t70 -162.5q0 -130 -96.5 -219.5t-219.5 -89.5q-111 0 -181 62.5t-70 163.5zM154 220q0 -56 34.5 -90t89.5 -34q71 0 128 55.5t57 137.5q0 56 -35 90.5t-89 34.5 q-71 0 -128 -56.5t-57 -137.5z" />
<glyph unicode="&#xf4;" horiz-adv-x="633" d="M210 574l119 136h127l65 -136h-100l-34 81h-2l-66 -81h-109zM25 214q0 129 96.5 218.5t219.5 89.5q111 0 181 -62.5t70 -162.5q0 -130 -96.5 -219.5t-219.5 -89.5q-111 0 -181 62.5t-70 163.5zM154 220q0 -56 34.5 -90t89.5 -34q71 0 128 55.5t57 137.5q0 56 -35 90.5 t-89 34.5q-71 0 -128 -56.5t-57 -137.5z" />
<glyph unicode="&#xf5;" horiz-adv-x="633" d="M25 214q0 129 96.5 218.5t219.5 89.5q111 0 181 -62.5t70 -162.5q0 -130 -96.5 -219.5t-219.5 -89.5q-111 0 -181 62.5t-70 163.5zM154 220q0 -56 34.5 -90t89.5 -34q71 0 128 55.5t57 137.5q0 56 -35 90.5t-89 34.5q-71 0 -128 -56.5t-57 -137.5zM196 575 q26 137 130 137q27 0 46 -16t33.5 -32.5t29.5 -16.5q35 0 47 62h87q-26 -137 -130 -137q-26 0 -45 16t-34.5 32.5t-30.5 16.5q-33 0 -46 -62h-87z" />
<glyph unicode="&#xf6;" horiz-adv-x="633" d="M417 594l23 116h98l-23 -116h-98zM233 594l23 116h98l-23 -116h-98zM25 214q0 129 96.5 218.5t219.5 89.5q111 0 181 -62.5t70 -162.5q0 -130 -96.5 -219.5t-219.5 -89.5q-111 0 -181 62.5t-70 163.5zM154 220q0 -56 34.5 -90t89.5 -34q71 0 128 55.5t57 137.5 q0 56 -35 90.5t-89 34.5q-71 0 -128 -56.5t-57 -137.5z" />
<glyph unicode="&#xf7;" horiz-adv-x="586" d="M233 437v108h115v-108h-115zM30 236v99h521v-99h-521zM233 27v108h115v-108h-115z" />
<glyph unicode="&#xf8;" horiz-adv-x="633" d="M32 0l54 58q-61 63 -61 156q0 129 96.5 218.5t219.5 89.5q78 0 142 -35l56 60l52 -42l-56 -60q57 -62 57 -148q0 -130 -96.5 -219.5t-219.5 -89.5q-76 0 -135 31l-57 -62zM173 152l228 246q-25 16 -62 16q-71 0 -128 -56.5t-57 -137.5q0 -40 19 -68zM223 107 q25 -11 55 -11q71 0 128 55.5t57 137.5q0 35 -17 61z" />
<glyph unicode="&#xf9;" horiz-adv-x="606" d="M35 127q0 23 7 61l62 322h127l-58 -298q-5 -30 -5 -47q0 -61 65 -61q62 0 112 52.5t63 123.5l44 230h127l-99 -510h-123l9 46l13 49h-2q-24 -41 -76 -74t-114 -33q-68 0 -110 33.5t-42 105.5zM299 574l-77 136h125l49 -136h-97z" />
<glyph unicode="&#xfa;" horiz-adv-x="606" d="M296 574l103 136h136l-132 -136h-107zM35 127q0 23 7 61l62 322h127l-58 -298q-5 -30 -5 -47q0 -61 65 -61q62 0 112 52.5t63 123.5l44 230h127l-99 -510h-123l9 46l13 49h-2q-24 -41 -76 -74t-114 -33q-68 0 -110 33.5t-42 105.5z" />
<glyph unicode="&#xfb;" horiz-adv-x="606" d="M193 574l119 136h127l65 -136h-100l-34 81h-2l-66 -81h-109zM35 127q0 23 7 61l62 322h127l-58 -298q-5 -30 -5 -47q0 -61 65 -61q62 0 112 52.5t63 123.5l44 230h127l-99 -510h-123l9 46l13 49h-2q-24 -41 -76 -74t-114 -33q-68 0 -110 33.5t-42 105.5z" />
<glyph unicode="&#xfc;" horiz-adv-x="606" d="M401 594l23 116h98l-23 -116h-98zM217 594l23 116h98l-23 -116h-98zM35 127q0 23 7 61l62 322h127l-58 -298q-5 -30 -5 -47q0 -61 65 -61q62 0 112 52.5t63 123.5l44 230h127l-99 -510h-123l9 46l13 49h-2q-24 -41 -76 -74t-114 -33q-68 0 -110 33.5t-42 105.5z" />
<glyph unicode="&#xfd;" horiz-adv-x="550" d="M-20 -85q23 -18 54 -18q61 0 101 65l28 46l-117 502h132l58 -309l6 -65h2q16 37 29 63l161 311h142l-342 -588q-38 -66 -89.5 -99t-104.5 -33q-64 0 -117 36zM271 574l103 136h136l-132 -136h-107z" />
<glyph unicode="&#xfe;" horiz-adv-x="614" d="M141 17l-42 -217h-126l176 910h124l-43 -225l-10 -37h2q60 74 157 74q90 0 141.5 -58t51.5 -157q0 -137 -84.5 -228t-193.5 -91q-45 0 -85 19t-60 56h-2q-1 -20 -6 -46zM179 210q0 -50 25.5 -82.5t74.5 -32.5q63 0 113.5 56t50.5 147q0 53 -27 84t-74 31 q-63 0 -113 -60.5t-50 -142.5z" />
<glyph unicode="&#xff;" horiz-adv-x="550" d="M-20 -85q23 -18 54 -18q61 0 101 65l28 46l-117 502h132l58 -309l6 -65h2q16 37 29 63l161 311h142l-342 -588q-38 -66 -89.5 -99t-104.5 -33q-64 0 -117 36zM375 594l23 116h98l-23 -116h-98zM191 594l23 116h98l-23 -116h-98z" />
<glyph unicode="&#x100;" horiz-adv-x="653" d="M-46 0l381 710h146l109 -710h-129l-25 182h-249l-95 -182h-138zM239 287h185l-26 190l-8 110h-2q-28 -70 -48 -110zM292 783l17 87h262l-16 -87h-263z" />
<glyph unicode="&#x101;" horiz-adv-x="533" d="M-3 120q0 46 22 82t56 57.5t79.5 36t88.5 19.5t87 5h19q3 16 3 32q0 65 -82 65q-70 0 -150 -48l-30 98q31 20 89 37.5t113 17.5q79 0 133 -37t54 -118q0 -20 -5 -52l-61 -315h-117l8 43l10 37h-2q-21 -34 -65.5 -63t-100.5 -29q-62 0 -105.5 35.5t-43.5 96.5zM122 140 q0 -24 16.5 -39.5t50.5 -15.5q47 0 89 42.5t52 91.5l3 14h-22q-28 0 -55 -3t-60 -11.5t-53.5 -29t-20.5 -49.5zM189 600l17 87h262l-16 -87h-263z" />
<glyph unicode="&#x102;" horiz-adv-x="653" d="M-46 0l381 710h146l109 -710h-129l-25 182h-249l-95 -182h-138zM239 287h185l-26 190l-8 110h-2q-28 -70 -48 -110zM426 753q-58 0 -97.5 28t-39.5 78q0 14 5 34h90q-4 -12 -4 -26q0 -23 14 -34t34 -11q25 0 46.5 17.5t26.5 53.5h90q-11 -71 -56.5 -105.5t-108.5 -34.5z " />
<glyph unicode="&#x103;" horiz-adv-x="533" d="M-3 120q0 46 22 82t56 57.5t79.5 36t88.5 19.5t87 5h19q3 16 3 32q0 65 -82 65q-70 0 -150 -48l-30 98q31 20 89 37.5t113 17.5q79 0 133 -37t54 -118q0 -20 -5 -52l-61 -315h-117l8 43l10 37h-2q-21 -34 -65.5 -63t-100.5 -29q-62 0 -105.5 35.5t-43.5 96.5zM122 140 q0 -24 16.5 -39.5t50.5 -15.5q47 0 89 42.5t52 91.5l3 14h-22q-28 0 -55 -3t-60 -11.5t-53.5 -29t-20.5 -49.5zM323 570q-58 0 -97.5 28t-39.5 78q0 14 5 34h90q-4 -12 -4 -26q0 -23 14 -34t34 -11q25 0 46.5 17.5t26.5 53.5h90q-11 -71 -56.5 -105.5t-108.5 -34.5z" />
<glyph unicode="&#x104;" horiz-adv-x="653" d="M-46 0l381 710h146l109 -710h-1q-72 -53 -72 -83q0 -12 10.5 -20t20.5 -9l11 -2l-48 -94q-4 0 -11 1t-25.5 6.5t-32 14t-25 24.5t-11.5 36q0 65 86 126h-31l-25 182h-249l-95 -182h-138zM239 287h185l-26 190l-8 110h-2q-28 -70 -48 -110z" />
<glyph unicode="&#x105;" horiz-adv-x="533" d="M-3 120q0 46 22 82t56 57.5t79.5 36t88.5 19.5t87 5h19q3 16 3 32q0 65 -82 65q-70 0 -150 -48l-30 98q31 20 89 37.5t113 17.5q79 0 133 -37t54 -118q0 -20 -5 -52l-61 -315q-72 -53 -72 -83q0 -12 10.5 -19.5t20.5 -9.5l11 -2l-49 -94q-4 0 -11 1t-25.5 6.5t-32 14 t-25 24.5t-11.5 36q0 66 87 126h-20l8 43l10 37h-2q-21 -34 -65.5 -63t-100.5 -29q-62 0 -105.5 35.5t-43.5 96.5zM122 140q0 -24 16.5 -39.5t50.5 -15.5q47 0 89 42.5t52 91.5l3 14h-22q-28 0 -55 -3t-60 -11.5t-53.5 -29t-20.5 -49.5z" />
<glyph unicode="&#x106;" horiz-adv-x="718" d="M435 757l103 136h136l-132 -136h-107zM52 298q0 173 125 298.5t294 125.5q75 0 146 -24t117 -74l-74 -89q-76 69 -185 69q-124 0 -207 -91t-83 -207q0 -87 52 -143.5t144 -56.5q117 0 225 89l53 -102q-51 -46 -130 -75.5t-155 -29.5q-148 0 -235 86t-87 224z" />
<glyph unicode="&#x107;" horiz-adv-x="549" d="M292 574l103 136h136l-132 -136h-107zM26 214q0 124 92 216t224 92q127 0 198 -75l-67 -80q-49 47 -125 47q-80 0 -137 -57.5t-57 -134.5q0 -55 35.5 -90.5t96.5 -35.5q80 0 163 65l35 -98q-38 -33 -97 -54t-116 -21q-114 0 -179.5 63t-65.5 163z" />
<glyph unicode="&#x108;" horiz-adv-x="718" d="M332 757l119 136h127l65 -136h-100l-34 81h-2l-66 -81h-109zM52 298q0 173 125 298.5t294 125.5q75 0 146 -24t117 -74l-74 -89q-76 69 -185 69q-124 0 -207 -91t-83 -207q0 -87 52 -143.5t144 -56.5q117 0 225 89l53 -102q-51 -46 -130 -75.5t-155 -29.5q-148 0 -235 86 t-87 224z" />
<glyph unicode="&#x109;" horiz-adv-x="549" d="M189 574l119 136h127l65 -136h-100l-34 81h-2l-66 -81h-109zM26 214q0 124 92 216t224 92q127 0 198 -75l-67 -80q-49 47 -125 47q-80 0 -137 -57.5t-57 -134.5q0 -55 35.5 -90.5t96.5 -35.5q80 0 163 65l35 -98q-38 -33 -97 -54t-116 -21q-114 0 -179.5 63t-65.5 163z " />
<glyph unicode="&#x10a;" horiz-adv-x="718" d="M52 298q0 173 125 298.5t294 125.5q75 0 146 -24t117 -74l-74 -89q-76 69 -185 69q-124 0 -207 -91t-83 -207q0 -87 52 -143.5t144 -56.5q117 0 225 89l53 -102q-51 -46 -130 -75.5t-155 -29.5q-148 0 -235 86t-87 224zM443 782l22 111h109l-22 -111h-109z" />
<glyph unicode="&#x10b;" horiz-adv-x="549" d="M26 214q0 124 92 216t224 92q127 0 198 -75l-67 -80q-49 47 -125 47q-80 0 -137 -57.5t-57 -134.5q0 -55 35.5 -90.5t96.5 -35.5q80 0 163 65l35 -98q-38 -33 -97 -54t-116 -21q-114 0 -179.5 63t-65.5 163zM300 599l22 111h109l-22 -111h-109z" />
<glyph unicode="&#x10c;" horiz-adv-x="718" d="M433 757l-65 136h100l34 -81h2l66 81h109l-119 -136h-127zM52 298q0 173 125 298.5t294 125.5q75 0 146 -24t117 -74l-74 -89q-76 69 -185 69q-124 0 -207 -91t-83 -207q0 -87 52 -143.5t144 -56.5q117 0 225 89l53 -102q-51 -46 -130 -75.5t-155 -29.5q-148 0 -235 86 t-87 224z" />
<glyph unicode="&#x10d;" horiz-adv-x="549" d="M290 574l-65 136h100l34 -81h2l66 81h109l-119 -136h-127zM26 214q0 124 92 216t224 92q127 0 198 -75l-67 -80q-49 47 -125 47q-80 0 -137 -57.5t-57 -134.5q0 -55 35.5 -90.5t96.5 -35.5q80 0 163 65l35 -98q-38 -33 -97 -54t-116 -21q-114 0 -179.5 63t-65.5 163z" />
<glyph unicode="&#x10e;" horiz-adv-x="738" d="M374 757l-65 136h100l34 -81h2l66 81h109l-119 -136h-127zM30 0l137 710h222q150 0 235 -73.5t85 -205.5q0 -181 -118 -306t-300 -125h-261zM179 111h107q127 0 209 89t82 220q0 87 -52 133t-144 46h-106z" />
<glyph unicode="&#x10f;" horiz-adv-x="629" d="M680 709h105v-16q0 -63 -49 -135h-93q40 72 40 122q0 12 -3 29zM27 201q0 140 84 230.5t199 90.5q45 0 84 -17.5t57 -52.5h2q0 17 3 31l45 227h126l-138 -710h-119l8 42l9 35h-2q-27 -39 -70.5 -64t-93.5 -25q-92 0 -143 57t-51 156zM155 210q0 -53 27.5 -84t74.5 -31 q65 0 114 61.5t49 142.5q0 50 -25.5 82t-75.5 32q-62 0 -113 -56.5t-51 -146.5z" />
<glyph unicode="&#x110;" horiz-adv-x="743" d="M35 0l59 301h-59l21 105h58l59 304h222q150 0 234.5 -73.5t84.5 -205.5q0 -181 -118 -306t-300 -125h-261zM185 111h106q127 0 209 89t82 220q0 87 -51.5 133t-144.5 46h-106l-38 -193h132l-20 -105h-132z" />
<glyph unicode="&#x111;" horiz-adv-x="615" d="M27 201q0 140 84 230.5t199 90.5q45 0 84 -17.5t57 -52.5h2q0 17 3 31l15 76h-128l15 76h128l15 75h126l-14 -75h72l-15 -76h-73l-108 -559h-119l8 42l8 34h-2q-27 -39 -70 -63.5t-93 -24.5q-92 0 -143 57t-51 156zM155 210q0 -53 27.5 -84t74.5 -31q65 0 114 61.5 t49 142.5q0 50 -25.5 82t-75.5 32q-62 0 -113 -56.5t-51 -146.5z" />
<glyph unicode="&#x112;" horiz-adv-x="567" d="M29 0l139 710h424l-22 -111h-296l-36 -186h239l-22 -111h-239l-37 -191h312l-21 -111h-441zM272 783l17 87h262l-16 -87h-263z" />
<glyph unicode="&#x113;" horiz-adv-x="560" d="M26 207q0 131 84.5 223t210.5 92q100 0 152 -52.5t52 -140.5q0 -38 -17 -98h-352q-2 -16 -2 -24q0 -44 34.5 -77.5t92.5 -33.5q79 0 158 56l34 -97q-32 -26 -88.5 -46.5t-110.5 -20.5q-116 0 -182 62t-66 157zM174 318h224q2 7 2 22q0 41 -22 63.5t-59 22.5 q-49 0 -87.5 -29t-57.5 -79zM221 600l17 87h262l-16 -87h-263z" />
<glyph unicode="&#x114;" horiz-adv-x="567" d="M29 0l139 710h424l-22 -111h-296l-36 -186h239l-22 -111h-239l-37 -191h312l-21 -111h-441zM406 753q-58 0 -97.5 28t-39.5 78q0 14 5 34h90q-4 -12 -4 -26q0 -23 14 -34t34 -11q25 0 46.5 17.5t26.5 53.5h90q-11 -71 -56.5 -105.5t-108.5 -34.5z" />
<glyph unicode="&#x115;" horiz-adv-x="560" d="M26 207q0 131 84.5 223t210.5 92q100 0 152 -52.5t52 -140.5q0 -38 -17 -98h-352q-2 -16 -2 -24q0 -44 34.5 -77.5t92.5 -33.5q79 0 158 56l34 -97q-32 -26 -88.5 -46.5t-110.5 -20.5q-116 0 -182 62t-66 157zM174 318h224q2 7 2 22q0 41 -22 63.5t-59 22.5 q-49 0 -87.5 -29t-57.5 -79zM355 570q-58 0 -97.5 28t-39.5 78q0 14 5 34h90q-4 -12 -4 -26q0 -23 14 -34t34 -11q25 0 46.5 17.5t26.5 53.5h90q-11 -71 -56.5 -105.5t-108.5 -34.5z" />
<glyph unicode="&#x116;" horiz-adv-x="567" d="M29 0l139 710h424l-22 -111h-296l-36 -186h239l-22 -111h-239l-37 -191h312l-21 -111h-441zM349 782l22 111h109l-22 -111h-109z" />
<glyph unicode="&#x117;" horiz-adv-x="560" d="M26 207q0 131 84.5 223t210.5 92q100 0 152 -52.5t52 -140.5q0 -38 -17 -98h-352q-2 -16 -2 -24q0 -44 34.5 -77.5t92.5 -33.5q79 0 158 56l34 -97q-32 -26 -88.5 -46.5t-110.5 -20.5q-116 0 -182 62t-66 157zM174 318h224q2 7 2 22q0 41 -22 63.5t-59 22.5 q-49 0 -87.5 -29t-57.5 -79zM298 599l22 111h109l-22 -111h-109z" />
<glyph unicode="&#x118;" horiz-adv-x="567" d="M29 0l139 710h424l-22 -111h-296l-36 -186h239l-22 -111h-239l-37 -191h312l-21 -111q-71 -50 -71 -83q0 -12 10.5 -19.5t21.5 -9.5l11 -2l-48 -94q-4 0 -11 1t-25.5 6.5t-32 14t-25 24.5t-11.5 36q0 61 84 124v2h-344z" />
<glyph unicode="&#x119;" horiz-adv-x="561" d="M26 207q0 131 84.5 223t210.5 92q100 0 152 -52.5t52 -140.5q0 -20 -4.5 -44.5t-8.5 -38.5l-4 -15h-351q0 -1 -1 -11.5t-1 -16.5q0 -50 34.5 -78.5t91.5 -28.5q36 0 75.5 14t61.5 28l21 14l34 -97q-7 -5 -52.5 -32.5t-75.5 -54t-30 -51.5q0 -12 11.5 -19.5t22.5 -9.5 l11 -2l-48 -94q-4 0 -11 1t-25.5 6.5t-32 14t-25 24.5t-11.5 36q0 59 72 113v2q-117 -3 -185 59t-68 159zM176 318h222q2 15 2 27q0 37 -22 58t-59 21q-48 0 -86 -28.5t-57 -77.5z" />
<glyph unicode="&#x11a;" horiz-adv-x="567" d="M339 757l-65 136h100l34 -81h2l66 81h109l-119 -136h-127zM29 0l139 710h424l-22 -111h-296l-36 -186h239l-22 -111h-239l-37 -191h312l-21 -111h-441z" />
<glyph unicode="&#x11b;" horiz-adv-x="560" d="M288 574l-65 136h100l34 -81h2l66 81h109l-119 -136h-127zM26 207q0 131 84.5 223t210.5 92q100 0 152 -52.5t52 -140.5q0 -38 -17 -98h-352q-2 -16 -2 -24q0 -44 34.5 -77.5t92.5 -33.5q79 0 158 56l34 -97q-32 -26 -88.5 -46.5t-110.5 -20.5q-116 0 -182 62t-66 157z M174 318h224q2 7 2 22q0 41 -22 63.5t-59 22.5q-49 0 -87.5 -29t-57.5 -79z" />
<glyph unicode="&#x11c;" horiz-adv-x="766" d="M330 757l119 136h127l65 -136h-100l-34 81h-2l-66 -81h-109zM51 294q0 175 125.5 301.5t301.5 126.5q73 0 143.5 -21.5t118.5 -65.5l-76 -90q-31 26 -82 42.5t-101 16.5q-130 0 -213 -91t-83 -211q0 -91 54.5 -143.5t139.5 -52.5q101 0 194 77l16 80h-109l21 111h225 l-73 -374h-109l6 35l7 30h-2q-25 -26 -81.5 -51.5t-120.5 -25.5q-127 0 -214.5 84t-87.5 222z" />
<glyph unicode="&#x11d;" horiz-adv-x="605" d="M190 574l119 136h127l65 -136h-100l-34 81h-2l-66 -81h-109zM51 -69q50 -33 138 -33q63 0 109 30t59 94l5 30l8 29h-2q-56 -71 -143 -71q-93 0 -144.5 58t-51.5 151q0 73 30.5 141t94 115t145.5 47q112 0 148 -70h3q0 10 1 18l8 40h119l-94 -487q-13 -63 -42.5 -110 t-70.5 -73t-85 -38t-93 -12q-118 0 -194 48zM158 229q0 -52 26 -82t76 -30q70 0 111.5 63.5t41.5 137.5q0 96 -103 96q-69 0 -110.5 -55t-41.5 -130z" />
<glyph unicode="&#x11e;" horiz-adv-x="766" d="M51 294q0 175 125.5 301.5t301.5 126.5q73 0 143.5 -21.5t118.5 -65.5l-76 -90q-31 26 -82 42.5t-101 16.5q-130 0 -213 -91t-83 -211q0 -91 54.5 -143.5t139.5 -52.5q101 0 194 77l16 80h-109l21 111h225l-73 -374h-109l6 35l7 30h-2q-25 -26 -81.5 -51.5t-120.5 -25.5 q-127 0 -214.5 84t-87.5 222zM497 753q-58 0 -97.5 28t-39.5 78q0 14 5 34h90q-4 -12 -4 -26q0 -23 14 -34t34 -11q25 0 46.5 17.5t26.5 53.5h90q-11 -71 -56.5 -105.5t-108.5 -34.5z" />
<glyph unicode="&#x11f;" horiz-adv-x="605" d="M51 -69q50 -33 138 -33q63 0 109 30t59 94l5 30l8 29h-2q-56 -71 -143 -71q-93 0 -144.5 58t-51.5 151q0 73 30.5 141t94 115t145.5 47q112 0 148 -70h3q0 10 1 18l8 40h119l-94 -487q-13 -63 -42.5 -110t-70.5 -73t-85 -38t-93 -12q-118 0 -194 48zM158 229 q0 -52 26 -82t76 -30q70 0 111.5 63.5t41.5 137.5q0 96 -103 96q-69 0 -110.5 -55t-41.5 -130zM357 570q-58 0 -97.5 28t-39.5 78q0 14 5 34h90q-4 -12 -4 -26q0 -23 14 -34t34 -11q25 0 46.5 17.5t26.5 53.5h90q-11 -71 -56.5 -105.5t-108.5 -34.5z" />
<glyph unicode="&#x120;" horiz-adv-x="766" d="M51 294q0 175 125.5 301.5t301.5 126.5q73 0 143.5 -21.5t118.5 -65.5l-76 -90q-31 26 -82 42.5t-101 16.5q-130 0 -213 -91t-83 -211q0 -91 54.5 -143.5t139.5 -52.5q101 0 194 77l16 80h-109l21 111h225l-73 -374h-109l6 35l7 30h-2q-25 -26 -81.5 -51.5t-120.5 -25.5 q-127 0 -214.5 84t-87.5 222zM441 782l22 111h109l-22 -111h-109z" />
<glyph unicode="&#x121;" horiz-adv-x="605" d="M51 -69q50 -33 138 -33q63 0 109 30t59 94l5 30l8 29h-2q-56 -71 -143 -71q-93 0 -144.5 58t-51.5 151q0 73 30.5 141t94 115t145.5 47q112 0 148 -70h3q0 10 1 18l8 40h119l-94 -487q-13 -63 -42.5 -110t-70.5 -73t-85 -38t-93 -12q-118 0 -194 48zM158 229 q0 -52 26 -82t76 -30q70 0 111.5 63.5t41.5 137.5q0 96 -103 96q-69 0 -110.5 -55t-41.5 -130zM301 599l22 111h109l-22 -111h-109z" />
<glyph unicode="&#x122;" horiz-adv-x="766" d="M271 -55h105v-16q0 -63 -49 -135h-93q40 72 40 122q0 12 -3 29zM51 294q0 175 125.5 301.5t301.5 126.5q73 0 143.5 -21.5t118.5 -65.5l-76 -90q-31 26 -82 42.5t-101 16.5q-130 0 -213 -91t-83 -211q0 -91 54.5 -143.5t139.5 -52.5q101 0 194 77l16 80h-109l21 111h225 l-73 -374h-109l6 35l7 30h-2q-25 -26 -81.5 -51.5t-120.5 -25.5q-127 0 -214.5 84t-87.5 222z" />
<glyph unicode="&#x123;" horiz-adv-x="605" d="M397 562h-104v15q0 61 48 132h93q-40 -70 -40 -119q0 -13 3 -28zM51 -69q50 -33 138 -33q63 0 109 30t59 94l5 30l8 29h-2q-56 -71 -143 -71q-93 0 -144.5 58t-51.5 151q0 73 30.5 141t94 115t145.5 47q112 0 148 -70h3q0 10 1 18l8 40h119l-94 -487q-13 -63 -42.5 -110 t-70.5 -73t-85 -38t-93 -12q-118 0 -194 48zM158 229q0 -52 26 -82t76 -30q70 0 111.5 63.5t41.5 137.5q0 96 -103 96q-69 0 -110.5 -55t-41.5 -130z" />
<glyph unicode="&#x124;" horiz-adv-x="755" d="M308 757l119 136h127l65 -136h-100l-34 81h-2l-66 -81h-109zM29 0l138 710h129l-59 -301h325l59 301h128l-138 -710h-129l58 298h-325l-58 -298h-128z" />
<glyph unicode="&#x125;" horiz-adv-x="612" d="M63 757l119 136h127l65 -136h-100l-34 81h-2l-66 -81h-109zM11 0l138 710h127l-48 -246l-11 -45h2q23 40 75.5 71.5t112.5 31.5q71 0 112.5 -34t41.5 -105q0 -23 -7 -61l-62 -322h-127l58 298q5 28 5 46q0 62 -64 62t-116 -52t-66 -124l-44 -230h-127z" />
<glyph unicode="&#x126;" horiz-adv-x="767" d="M36 0l100 515h-62l16 83h62l22 112h128l-22 -112h325l22 112h129l-22 -112h62l-16 -83h-63l-100 -515h-128l58 298h-325l-58 -298h-128zM244 409h324l21 106h-325z" />
<glyph unicode="&#x127;" horiz-adv-x="612" d="M11 0l108 559h-65l15 76h65l15 75h127l-15 -75h134l-14 -76h-135l-18 -95l-11 -45h2q23 40 75.5 71.5t112.5 31.5q71 0 112.5 -34t41.5 -105q0 -23 -7 -61l-62 -322h-127l58 298q5 28 5 46q0 62 -64 62t-116 -52t-66 -124l-44 -230h-127z" />
<glyph unicode="&#x128;" horiz-adv-x="302" d="M29 0l138 710h129l-139 -710h-128zM66 758q26 137 130 137q27 0 46 -16.5t33.5 -32.5t29.5 -16q35 0 47 62h87q-26 -137 -130 -137q-20 0 -37 10t-26.5 22.5t-22 22.5t-24.5 10q-33 0 -46 -62h-87z" />
<glyph unicode="&#x129;" horiz-adv-x="263" d="M11 0l99 510h126l-99 -510h-126zM11 575q26 137 130 137q27 0 46 -16t33.5 -32.5t29.5 -16.5q35 0 47 62h87q-26 -137 -130 -137q-26 0 -45 16t-34.5 32.5t-30.5 16.5q-33 0 -46 -62h-87z" />
<glyph unicode="&#x12a;" horiz-adv-x="302" d="M29 0l138 710h129l-139 -710h-128zM114 783l17 87h262l-16 -87h-263z" />
<glyph unicode="&#x12b;" horiz-adv-x="263" d="M11 0l99 510h126l-99 -510h-126zM59 600l17 87h262l-16 -87h-263z" />
<glyph unicode="&#x12c;" horiz-adv-x="302" d="M29 0l138 710h129l-139 -710h-128zM248 753q-58 0 -97.5 28t-39.5 78q0 14 5 34h90q-4 -12 -4 -26q0 -23 14 -34t34 -11q25 0 46.5 17.5t26.5 53.5h90q-11 -71 -56.5 -105.5t-108.5 -34.5z" />
<glyph unicode="&#x12d;" horiz-adv-x="263" d="M11 0l99 510h126l-99 -510h-126zM193 570q-58 0 -97.5 28t-39.5 78q0 14 5 34h90q-4 -12 -4 -26q0 -23 14 -34t34 -11q25 0 46.5 17.5t26.5 53.5h90q-11 -71 -56.5 -105.5t-108.5 -34.5z" />
<glyph unicode="&#x12e;" horiz-adv-x="303" d="M29 0l138 710h129l-139 -709l1 -1q-72 -53 -72 -83q0 -12 10.5 -19.5t21.5 -9.5l10 -2l-49 -94q-4 0 -11 1t-25.5 6.5t-32 14t-25 24.5t-11.5 36q0 66 87 126h-32z" />
<glyph unicode="&#x12f;" horiz-adv-x="263" d="M11 0l99 510h127l-100 -510q-72 -53 -72 -83q0 -12 10.5 -19.5t20.5 -9.5l11 -2l-48 -94q-4 0 -11 1t-25.5 6.5t-32 14t-25 24.5t-11.5 36q0 65 86 126h-29zM127 597l22 113h127l-22 -113h-127z" />
<glyph unicode="&#x130;" horiz-adv-x="302" d="M29 0l138 710h129l-139 -710h-128zM191 782l22 111h109l-22 -111h-109z" />
<glyph unicode="&#x131;" horiz-adv-x="263" d="M11 0l99 510h126l-99 -510h-126z" />
<glyph unicode="&#x132;" horiz-adv-x="637" d="M240 -4l22 116q22 0 44 6t45.5 20t42 43.5t26.5 70.5l89 458h128l-89 -460q-15 -78 -46 -130.5t-74.5 -78t-87.5 -35.5t-100 -10zM29 0l138 710h129l-139 -710h-128z" />
<glyph unicode="&#x133;" horiz-adv-x="527" d="M127 597l22 113h127l-22 -113h-127zM11 0l99 510h127l-100 -510h-126zM389 597l22 113h127l-22 -113h-127zM273 -5l100 515h126l-101 -524q-10 -49 -31.5 -86t-46.5 -56.5t-56 -31.5t-54.5 -15.5t-47.5 -3.5q-25 0 -52 3l21 107q10 -2 22 -2q102 0 120 94z" />
<glyph unicode="&#x134;" horiz-adv-x="543" d="M232 757l119 136h127l65 -136h-100l-34 81h-2l-66 -81h-109zM1 164q0 27 5 52l6 35h129l-6 -32q-4 -26 -4 -37q0 -76 75 -76q40 0 70.5 26t40.5 80l75 387h-182l22 111h310l-98 -509q-21 -106 -88 -159.5t-153 -53.5t-144 45.5t-58 130.5z" />
<glyph unicode="&#x135;" horiz-adv-x="264" d="M24 573l119 137h127l66 -137h-101l-34 82h-2l-66 -82h-109zM10 -5l100 515h127l-102 -524q-9 -49 -31 -86t-46.5 -56.5t-56 -31.5t-55 -15.5t-47.5 -3.5l-52 3l21 107q9 -2 22 -2q102 0 120 94z" />
<glyph unicode="&#x136;" horiz-adv-x="641" d="M213 -55h105v-16q0 -63 -49 -135h-93q40 72 40 122q0 12 -3 29zM29 0l138 710h129l-57 -289h88l226 289h150l-275 -344v-2l140 -364h-137l-113 310h-100l-61 -310h-128z" />
<glyph unicode="&#x137;" horiz-adv-x="552" d="M187 -55h105v-16q0 -63 -49 -135h-93q40 72 40 122q0 12 -3 29zM11 0l139 710h126l-74 -380h61l159 180h150l-212 -234v-2l124 -274h-135l-95 223h-72l-44 -223h-127z" />
<glyph unicode="&#x138;" horiz-adv-x="551" d="M11 0l99 510h127l-37 -192h62l166 192h151l-223 -247v-2l121 -261h-138l-87 211h-73l-42 -211h-126z" />
<glyph unicode="&#x139;" horiz-adv-x="531" d="M184 757l103 136h136l-132 -136h-107zM29 0l138 710h129l-117 -599h307l-23 -111h-434z" />
<glyph unicode="&#x13a;" horiz-adv-x="291" d="M162 757l103 136h136l-132 -136h-107zM37 116q0 26 5 51l106 543h127l-103 -528q-4 -26 -4 -36q0 -38 43 -38q8 0 18 1l-22 -111q-24 -3 -37 -3q-133 0 -133 121z" />
<glyph unicode="&#x13b;" horiz-adv-x="531" d="M188 -55h105v-16q0 -63 -49 -135h-93q40 72 40 122q0 12 -3 29zM29 0l138 710h129l-117 -599h307l-23 -111h-434z" />
<glyph unicode="&#x13c;" horiz-adv-x="291" d="M48 -55h105v-16q0 -63 -49 -135h-93q40 72 40 122q0 12 -3 29zM37 116q0 26 5 51l106 543h127l-103 -528q-4 -26 -4 -36q0 -38 43 -38q8 0 18 1l-22 -111q-24 -3 -37 -3q-133 0 -133 121z" />
<glyph unicode="&#x13d;" horiz-adv-x="532" d="M375 709h105v-16q0 -63 -49 -135h-93q40 72 40 122q0 12 -3 29zM29 0l138 710h129l-117 -599h307l-23 -111h-434z" />
<glyph unicode="&#x13e;" horiz-adv-x="304" d="M328 709h105v-16q0 -63 -49 -135h-93q40 72 40 122q0 12 -3 29zM37 116q0 26 5 51l106 543h127l-103 -528q-4 -26 -4 -36q0 -38 43 -38q8 0 18 1l-22 -111q-24 -3 -37 -3q-133 0 -133 121z" />
<glyph unicode="&#x13f;" horiz-adv-x="533" d="M29 0l138 710h129l-117 -599h307l-23 -111h-434zM318 320l24 129h124l-25 -129h-123z" />
<glyph unicode="&#x140;" horiz-adv-x="405" d="M37 116q0 26 5 51l106 543h127l-103 -528q-4 -26 -4 -36q0 -38 43 -38q8 0 18 1l-22 -111q-24 -3 -37 -3q-133 0 -133 121zM276 320l24 129h124l-25 -129h-123z" />
<glyph unicode="&#x141;" horiz-adv-x="536" d="M35 0l51 263l-62 -32l23 124l64 33l62 322h129l-49 -249l118 61l-24 -124l-118 -61l-44 -226h307l-22 -111h-435z" />
<glyph unicode="&#x142;" horiz-adv-x="305" d="M47 116q0 21 6 51l22 112l-70 -35l24 124l69 36l61 306h126l-45 -233l86 45l-24 -124l-86 -45l-33 -171q-4 -17 -4 -36q0 -38 42 -38q10 0 18 1l-22 -111q-13 -3 -36 -3q-134 0 -134 121z" />
<glyph unicode="&#x143;" horiz-adv-x="747" d="M406 757l103 136h136l-132 -136h-107zM29 0l138 710h123l189 -410q8 -19 17 -46.5t14 -45.5l6 -18h2q6 68 14 110l80 410h129l-139 -710h-121l-190 409q-8 19 -17.5 46.5t-15.5 45.5l-5 18h-2q-6 -68 -14 -110l-80 -409h-128z" />
<glyph unicode="&#x144;" horiz-adv-x="612" d="M312 574l103 136h136l-132 -136h-107zM11 0l99 510h123l-8 -46l-14 -50h2q24 41 78 74.5t116 33.5q71 0 112.5 -34t41.5 -105q0 -23 -7 -61l-62 -322h-127l58 298q5 28 5 46q0 62 -64 62t-116 -52t-66 -124l-44 -230h-127z" />
<glyph unicode="&#x145;" horiz-adv-x="747" d="M261 -55h105v-16q0 -63 -49 -135h-93q40 72 40 122q0 12 -3 29zM29 0l138 710h123l189 -410q8 -19 17 -46.5t14 -45.5l6 -18h2q6 68 14 110l80 410h129l-139 -710h-121l-190 409q-8 19 -17.5 46.5t-15.5 45.5l-5 18h-2q-6 -68 -14 -110l-80 -409h-128z" />
<glyph unicode="&#x146;" horiz-adv-x="612" d="M196 -55h105v-16q0 -63 -49 -135h-93q40 72 40 122q0 12 -3 29zM11 0l99 510h123l-8 -46l-14 -50h2q24 41 78 74.5t116 33.5q71 0 112.5 -34t41.5 -105q0 -23 -7 -61l-62 -322h-127l58 298q5 28 5 46q0 62 -64 62t-116 -52t-66 -124l-44 -230h-127z" />
<glyph unicode="&#x147;" horiz-adv-x="747" d="M404 757l-65 136h100l34 -81h2l66 81h109l-119 -136h-127zM29 0l138 710h123l189 -410q8 -19 17 -46.5t14 -45.5l6 -18h2q6 68 14 110l80 410h129l-139 -710h-121l-190 409q-8 19 -17.5 46.5t-15.5 45.5l-5 18h-2q-6 -68 -14 -110l-80 -409h-128z" />
<glyph unicode="&#x148;" horiz-adv-x="612" d="M310 574l-65 136h100l34 -81h2l66 81h109l-119 -136h-127zM11 0l99 510h123l-8 -46l-14 -50h2q24 41 78 74.5t116 33.5q71 0 112.5 -34t41.5 -105q0 -23 -7 -61l-62 -322h-127l58 298q5 28 5 46q0 62 -64 62t-116 -52t-66 -124l-44 -230h-127z" />
<glyph unicode="&#x149;" horiz-adv-x="612" d="M68 709h105v-16q0 -63 -49 -135h-93q40 72 40 122q0 12 -3 29zM11 0l99 510h123l-8 -46l-14 -50h2q24 41 78 74.5t116 33.5q71 0 112.5 -34t41.5 -105q0 -23 -7 -61l-62 -322h-127l58 298q5 28 5 46q0 62 -64 62t-116 -52t-66 -124l-44 -230h-127z" />
<glyph unicode="&#x14a;" horiz-adv-x="747" d="M29 0l138 710h123l189 -410q8 -19 17 -46.5t14 -45.5l6 -18h2q6 68 14 110l80 410h129l-129 -660q-13 -65 -38 -113t-53.5 -74.5t-68 -42t-73 -20t-75.5 -4.5l22 116q110 0 149 100l-184 397q-8 19 -17.5 46.5t-15.5 45.5l-5 18h-2q-6 -68 -14 -110l-80 -409h-128z" />
<glyph unicode="&#x14b;" horiz-adv-x="612" d="M11 0l99 510h123l-8 -46l-14 -50h2q24 41 78 74.5t116 33.5q71 0 112.5 -34t41.5 -105q0 -23 -7 -61l-65 -338q-10 -49 -31.5 -86t-46.5 -56.5t-56 -31.5t-54.5 -15.5t-47.5 -3.5l-52 3l21 107q9 -1 22 -1q102 0 120 93l59 305q5 28 5 46q0 62 -64 62t-116 -52t-66 -124 l-44 -230h-127z" />
<glyph unicode="&#x14c;" horiz-adv-x="822" d="M373 783l17 87h262l-16 -87h-263zM51 300q0 111 59.5 209t156.5 155.5t204 57.5q145 0 234.5 -85.5t89.5 -219.5q0 -113 -60.5 -213t-157.5 -158t-203 -58q-145 0 -234 87.5t-89 224.5zM183 307q0 -89 53.5 -145t138.5 -56q109 0 198 90t89 213q0 87 -53.5 141t-138.5 54 q-111 0 -199 -88t-88 -209z" />
<glyph unicode="&#x14d;" horiz-adv-x="633" d="M244 600l17 87h262l-16 -87h-263zM25 214q0 129 96.5 218.5t219.5 89.5q111 0 181 -62.5t70 -162.5q0 -130 -96.5 -219.5t-219.5 -89.5q-111 0 -181 62.5t-70 163.5zM154 220q0 -56 34.5 -90t89.5 -34q71 0 128 55.5t57 137.5q0 56 -35 90.5t-89 34.5q-71 0 -128 -56.5 t-57 -137.5z" />
<glyph unicode="&#x14e;" horiz-adv-x="822" d="M51 300q0 111 59.5 209t156.5 155.5t204 57.5q145 0 234.5 -85.5t89.5 -219.5q0 -113 -60.5 -213t-157.5 -158t-203 -58q-145 0 -234 87.5t-89 224.5zM183 307q0 -89 53.5 -145t138.5 -56q109 0 198 90t89 213q0 87 -53.5 141t-138.5 54q-111 0 -199 -88t-88 -209z M507 753q-58 0 -97.5 28t-39.5 78q0 14 5 34h90q-4 -12 -4 -26q0 -23 14 -34t34 -11q25 0 46.5 17.5t26.5 53.5h90q-11 -71 -56.5 -105.5t-108.5 -34.5z" />
<glyph unicode="&#x14f;" horiz-adv-x="633" d="M25 214q0 129 96.5 218.5t219.5 89.5q111 0 181 -62.5t70 -162.5q0 -130 -96.5 -219.5t-219.5 -89.5q-111 0 -181 62.5t-70 163.5zM154 220q0 -56 34.5 -90t89.5 -34q71 0 128 55.5t57 137.5q0 56 -35 90.5t-89 34.5q-71 0 -128 -56.5t-57 -137.5zM378 570 q-58 0 -97.5 28t-39.5 78q0 14 5 34h90q-4 -12 -4 -26q0 -23 14 -34t34 -11q25 0 46.5 17.5t26.5 53.5h90q-11 -71 -56.5 -105.5t-108.5 -34.5z" />
<glyph unicode="&#x150;" horiz-adv-x="822" d="M521 757l103 136h130l-131 -136h-102zM345 757l99 136h113l-102 -136h-110zM51 300q0 111 59.5 209t156.5 155.5t204 57.5q145 0 234.5 -85.5t89.5 -219.5q0 -113 -60.5 -213t-157.5 -158t-203 -58q-145 0 -234 87.5t-89 224.5zM183 307q0 -89 53.5 -145t138.5 -56 q109 0 198 90t89 213q0 87 -53.5 141t-138.5 54q-111 0 -199 -88t-88 -209z" />
<glyph unicode="&#x151;" horiz-adv-x="633" d="M391 574l103 136h130l-131 -136h-102zM215 574l99 136h113l-102 -136h-110zM25 214q0 129 96.5 218.5t219.5 89.5q111 0 181 -62.5t70 -162.5q0 -130 -96.5 -219.5t-219.5 -89.5q-111 0 -181 62.5t-70 163.5zM154 220q0 -56 34.5 -90t89.5 -34q71 0 128 55.5t57 137.5 q0 56 -35 90.5t-89 34.5q-71 0 -128 -56.5t-57 -137.5z" />
<glyph unicode="&#x152;" horiz-adv-x="968" d="M50 298q0 112 60 209.5t157.5 154t204.5 56.5q38 0 83.5 -4t67.5 -4h370l-22 -111h-296l-36 -186h239l-22 -111h-240l-36 -191h313l-22 -111h-373q-17 0 -57.5 -4.5t-70.5 -4.5q-142 0 -231 86.5t-89 220.5zM182 300q0 -86 54 -140.5t143 -54.5q30 0 73 8l94 484 q-33 7 -70 7q-118 0 -206 -90t-88 -214z" />
<glyph unicode="&#x153;" horiz-adv-x="991" d="M25 214q0 129 96.5 218.5t219.5 89.5q66 0 117.5 -28t81.5 -77h2q84 105 210 105q100 0 152 -52.5t52 -140.5q0 -47 -17 -98h-352q-1 -19 0 -39q6 -47 40 -71.5t85 -24.5q75 0 158 56l34 -97q-34 -27 -90 -47t-109 -20q-145 0 -204 107h-2q-43 -50 -102 -78.5t-121 -28.5 q-111 0 -181 62.5t-70 163.5zM606 318h223q2 8 2 27q0 37 -22 58t-59 21q-48 0 -86.5 -28.5t-57.5 -77.5zM154 220q0 -56 34.5 -90t89.5 -34q71 0 128 55.5t57 137.5q0 56 -35 90.5t-89 34.5q-71 0 -128 -56.5t-57 -137.5z" />
<glyph unicode="&#x154;" horiz-adv-x="636" d="M343 757l103 136h136l-132 -136h-107zM29 0l138 710h251q62 0 102 -18q96 -42 96 -154q0 -77 -42.5 -144.5t-118.5 -92.5v-2q6 -10 15 -36l95 -263h-138l-89 265h-129l-51 -265h-129zM231 377h114q60 0 99.5 37.5t39.5 101.5q0 40 -24.5 61.5t-68.5 21.5h-117z" />
<glyph unicode="&#x155;" horiz-adv-x="397" d="M232 574l103 136h136l-132 -136h-107zM11 0l99 510h122l-17 -88l-10 -37h2q26 55 76 93.5t105 38.5q8 0 30 -2l-24 -125q-20 2 -30 2q-60 0 -116.5 -59.5t-74.5 -151.5l-35 -181h-127z" />
<glyph unicode="&#x156;" horiz-adv-x="636" d="M221 -55h105v-16q0 -63 -49 -135h-93q40 72 40 122q0 12 -3 29zM29 0l138 710h251q62 0 102 -18q96 -42 96 -154q0 -77 -42.5 -144.5t-118.5 -92.5v-2q6 -10 15 -36l95 -263h-138l-89 265h-129l-51 -265h-129zM231 377h114q60 0 99.5 37.5t39.5 101.5q0 40 -24.5 61.5 t-68.5 21.5h-117z" />
<glyph unicode="&#x157;" horiz-adv-x="397" d="M17 -55h105v-16q0 -63 -49 -135h-93q40 72 40 122q0 12 -3 29zM11 0l99 510h122l-17 -88l-10 -37h2q26 55 76 93.5t105 38.5q8 0 30 -2l-24 -125q-20 2 -30 2q-60 0 -116.5 -59.5t-74.5 -151.5l-35 -181h-127z" />
<glyph unicode="&#x158;" horiz-adv-x="636" d="M341 757l-65 136h100l34 -81h2l66 81h109l-119 -136h-127zM29 0l138 710h251q62 0 102 -18q96 -42 96 -154q0 -77 -42.5 -144.5t-118.5 -92.5v-2q6 -10 15 -36l95 -263h-138l-89 265h-129l-51 -265h-129zM231 377h114q60 0 99.5 37.5t39.5 101.5q0 40 -24.5 61.5 t-68.5 21.5h-117z" />
<glyph unicode="&#x159;" horiz-adv-x="397" d="M230 574l-65 136h100l34 -81h2l66 81h109l-119 -136h-127zM11 0l99 510h122l-17 -88l-10 -37h2q26 55 76 93.5t105 38.5q8 0 30 -2l-24 -125q-20 2 -30 2q-60 0 -116.5 -59.5t-74.5 -151.5l-35 -181h-127z" />
<glyph unicode="&#x15a;" horiz-adv-x="561" d="M314 757l103 136h136l-132 -136h-107zM0 85l78 91q27 -26 71.5 -47.5t98.5 -21.5q48 0 85.5 25t37.5 71q0 30 -28.5 55t-69 45t-81.5 44t-69.5 65.5t-28.5 96.5q0 97 76.5 155t179.5 58q69 0 126.5 -22.5t92.5 -55.5l-71 -95q-22 19 -62.5 36.5t-87.5 17.5t-86 -24.5 t-39 -68.5q0 -25 20.5 -46.5t51.5 -36t67 -35t67 -43t51.5 -60t20.5 -85.5q0 -92 -72.5 -154t-182.5 -62q-77 0 -145 29.5t-101 67.5z" />
<glyph unicode="&#x15b;" horiz-adv-x="455" d="M223 574l103 136h136l-132 -136h-107zM-11 59l62 86q23 -23 60.5 -37.5t75.5 -14.5q37 0 60.5 14t23.5 41q0 20 -22 35.5t-53.5 27.5t-62.5 28.5t-53 48t-22 75.5q0 72 59.5 115.5t145.5 43.5q101 0 173 -57l-54 -88q-45 40 -122 40q-36 0 -59.5 -13.5t-23.5 -40.5 q0 -20 22 -35t53.5 -27.5t63 -28.5t53.5 -48t22 -77q0 -71 -56 -115t-144 -44q-120 0 -202 71z" />
<glyph unicode="&#x15c;" horiz-adv-x="561" d="M211 757l119 136h127l65 -136h-100l-34 81h-2l-66 -81h-109zM0 85l78 91q27 -26 71.5 -47.5t98.5 -21.5q48 0 85.5 25t37.5 71q0 30 -28.5 55t-69 45t-81.5 44t-69.5 65.5t-28.5 96.5q0 97 76.5 155t179.5 58q69 0 126.5 -22.5t92.5 -55.5l-71 -95q-22 19 -62.5 36.5 t-87.5 17.5t-86 -24.5t-39 -68.5q0 -25 20.5 -46.5t51.5 -36t67 -35t67 -43t51.5 -60t20.5 -85.5q0 -92 -72.5 -154t-182.5 -62q-77 0 -145 29.5t-101 67.5z" />
<glyph unicode="&#x15d;" horiz-adv-x="455" d="M120 574l119 136h127l65 -136h-100l-34 81h-2l-66 -81h-109zM-11 59l62 86q23 -23 60.5 -37.5t75.5 -14.5q37 0 60.5 14t23.5 41q0 20 -22 35.5t-53.5 27.5t-62.5 28.5t-53 48t-22 75.5q0 72 59.5 115.5t145.5 43.5q101 0 173 -57l-54 -88q-45 40 -122 40 q-36 0 -59.5 -13.5t-23.5 -40.5q0 -20 22 -35t53.5 -27.5t63 -28.5t53.5 -48t22 -77q0 -71 -56 -115t-144 -44q-120 0 -202 71z" />
<glyph unicode="&#x15e;" horiz-adv-x="562" d="M156 -86l37 78q-62 9 -114 35.5t-78 57.5l78 91q27 -26 71.5 -47.5t98.5 -21.5q48 0 85.5 25t37.5 71q0 30 -28.5 55t-69 45t-81.5 44t-69.5 65.5t-28.5 96.5q0 97 76.5 155t179.5 58q69 0 126.5 -22.5t92.5 -55.5l-71 -95q-22 19 -62.5 36.5t-87.5 17.5t-86 -24.5 t-39 -68.5q0 -25 20.5 -46.5t51.5 -36t67 -35t67 -43t51.5 -60t20.5 -85.5q0 -90 -70 -151.5t-177 -64.5l-13 -32q24 -4 42.5 -21t18.5 -45q0 -50 -37.5 -74t-84.5 -24q-37 0 -65 8l13 68q14 -7 42 -7q50 0 50 32q0 23 -43 23q-6 0 -22 -2z" />
<glyph unicode="&#x15f;" horiz-adv-x="456" d="M95 -86l38 79q-84 14 -144 66l62 86q23 -23 60.5 -37.5t75.5 -14.5q37 0 60.5 14t23.5 41q0 20 -22 35.5t-53.5 27.5t-62.5 28.5t-53 48t-22 75.5q0 72 59.5 115.5t145.5 43.5q101 0 173 -57l-54 -88q-45 40 -122 40q-36 0 -59.5 -13.5t-23.5 -40.5q0 -20 22 -35 t53.5 -27.5t63 -28.5t53.5 -48t22 -77q0 -71 -55 -114t-142 -45l-13 -32q24 -4 42.5 -21t18.5 -45q0 -50 -37.5 -74t-84.5 -24q-37 0 -65 8l13 68q14 -7 42 -7q50 0 50 32q0 23 -43 23q-6 0 -22 -2z" />
<glyph unicode="&#x160;" horiz-adv-x="561" d="M312 757l-65 136h100l34 -81h2l66 81h109l-119 -136h-127zM0 85l78 91q27 -26 71.5 -47.5t98.5 -21.5q48 0 85.5 25t37.5 71q0 30 -28.5 55t-69 45t-81.5 44t-69.5 65.5t-28.5 96.5q0 97 76.5 155t179.5 58q69 0 126.5 -22.5t92.5 -55.5l-71 -95q-22 19 -62.5 36.5 t-87.5 17.5t-86 -24.5t-39 -68.5q0 -25 20.5 -46.5t51.5 -36t67 -35t67 -43t51.5 -60t20.5 -85.5q0 -92 -72.5 -154t-182.5 -62q-77 0 -145 29.5t-101 67.5z" />
<glyph unicode="&#x161;" horiz-adv-x="455" d="M221 574l-65 136h100l34 -81h2l66 81h109l-119 -136h-127zM-11 59l62 86q23 -23 60.5 -37.5t75.5 -14.5q37 0 60.5 14t23.5 41q0 20 -22 35.5t-53.5 27.5t-62.5 28.5t-53 48t-22 75.5q0 72 59.5 115.5t145.5 43.5q101 0 173 -57l-54 -88q-45 40 -122 40 q-36 0 -59.5 -13.5t-23.5 -40.5q0 -20 22 -35t53.5 -27.5t63 -28.5t53.5 -48t22 -77q0 -71 -56 -115t-144 -44q-120 0 -202 71z" />
<glyph unicode="&#x162;" horiz-adv-x="618" d="M186 0l117 599h-232l21 111h593l-22 -111h-232l-116 -599h-34l-19 -44q24 -4 42.5 -21t18.5 -45q0 -50 -37.5 -74t-84.5 -24q-37 0 -65 8l13 68q14 -7 42 -7q50 0 50 32q0 23 -43 23q-6 0 -22 -2l41 86h-31z" />
<glyph unicode="&#x163;" horiz-adv-x="368" d="M82 -86l50 106q-68 39 -68 130q0 22 6 47l40 205h-65l19 101h69l29 146h122l-29 -146h117l-19 -101h-117l-37 -192q-3 -20 -3 -35q0 -68 80 -68q6 0 28 2l-22 -111q-30 -3 -37 -3q-28 0 -58 5l-19 -44q24 -4 42.5 -21t18.5 -45q0 -50 -37.5 -74t-84.5 -24q-37 0 -65 8 l13 68q14 -7 42 -7q50 0 50 32q0 23 -43 23q-6 0 -22 -2z" />
<glyph unicode="&#x164;" horiz-adv-x="618" d="M337 757l-65 136h100l34 -81h2l66 81h109l-119 -136h-127zM186 0l117 599h-232l21 111h593l-22 -111h-232l-116 -599h-129z" />
<glyph unicode="&#x165;" horiz-adv-x="368" d="M353 709h105v-15q0 -61 -49 -130h-93q40 69 40 117q0 13 -3 28zM64 150q0 22 6 47l40 205h-65l19 101h69l29 146h122l-29 -146h117l-19 -101h-117l-37 -192q-3 -20 -3 -35q0 -68 80 -68q6 0 28 2l-22 -111q-30 -3 -37 -3q-50 0 -88.5 13t-65.5 49.5t-27 92.5z" />
<glyph unicode="&#x166;" horiz-adv-x="629" d="M192 0l57 295h-151l19 96h150l41 208h-232l22 111h592l-21 -111h-233l-40 -208h156l-19 -96h-156l-57 -295h-128z" />
<glyph unicode="&#x167;" horiz-adv-x="371" d="M66 150q0 22 6 47l8 42h-66l16 84h66l16 79h-65l19 101h69l29 146h122l-29 -146h117l-19 -101h-117l-16 -79h117l-16 -84h-116q-10 -48 -10 -67q2 -65 81 -65l28 2l-22 -111q-19 -3 -37 -3q-50 0 -88.5 13t-65.5 49.5t-27 92.5z" />
<glyph unicode="&#x168;" horiz-adv-x="729" d="M66 202q0 28 6 58l88 450h128l-88 -454q-4 -17 -4 -37q0 -54 35 -83.5t97 -29.5q73 0 122.5 39.5t63.5 111.5l89 453h128l-90 -460q-23 -120 -108 -191t-209 -71q-113 0 -185.5 57t-72.5 157zM280 758q26 137 130 137q27 0 46 -16.5t33.5 -32.5t29.5 -16q35 0 47 62h87 q-26 -137 -130 -137q-20 0 -37 10t-26.5 22.5t-22 22.5t-24.5 10q-33 0 -46 -62h-87z" />
<glyph unicode="&#x169;" horiz-adv-x="606" d="M35 127q0 23 7 61l62 322h127l-58 -298q-5 -30 -5 -47q0 -61 65 -61q62 0 112 52.5t63 123.5l44 230h127l-99 -510h-123l9 46l13 49h-2q-24 -41 -76 -74t-114 -33q-68 0 -110 33.5t-42 105.5zM180 575q26 137 130 137q27 0 46 -16t33.5 -32.5t29.5 -16.5q35 0 47 62h87 q-26 -137 -130 -137q-26 0 -45 16t-34.5 32.5t-30.5 16.5q-33 0 -46 -62h-87z" />
<glyph unicode="&#x16a;" horiz-adv-x="729" d="M66 202q0 28 6 58l88 450h128l-88 -454q-4 -17 -4 -37q0 -54 35 -83.5t97 -29.5q73 0 122.5 39.5t63.5 111.5l89 453h128l-90 -460q-23 -120 -108 -191t-209 -71q-113 0 -185.5 57t-72.5 157zM328 783l17 87h262l-16 -87h-263z" />
<glyph unicode="&#x16b;" horiz-adv-x="606" d="M35 127q0 23 7 61l62 322h127l-58 -298q-5 -30 -5 -47q0 -61 65 -61q62 0 112 52.5t63 123.5l44 230h127l-99 -510h-123l9 46l13 49h-2q-24 -41 -76 -74t-114 -33q-68 0 -110 33.5t-42 105.5zM227 600l17 87h262l-16 -87h-263z" />
<glyph unicode="&#x16c;" horiz-adv-x="729" d="M66 202q0 28 6 58l88 450h128l-88 -454q-4 -17 -4 -37q0 -54 35 -83.5t97 -29.5q73 0 122.5 39.5t63.5 111.5l89 453h128l-90 -460q-23 -120 -108 -191t-209 -71q-113 0 -185.5 57t-72.5 157zM462 753q-58 0 -97.5 28t-39.5 78q0 14 5 34h90q-4 -12 -4 -26q0 -23 14 -34 t34 -11q25 0 46.5 17.5t26.5 53.5h90q-11 -71 -56.5 -105.5t-108.5 -34.5z" />
<glyph unicode="&#x16d;" horiz-adv-x="606" d="M35 127q0 23 7 61l62 322h127l-58 -298q-5 -30 -5 -47q0 -61 65 -61q62 0 112 52.5t63 123.5l44 230h127l-99 -510h-123l9 46l13 49h-2q-24 -41 -76 -74t-114 -33q-68 0 -110 33.5t-42 105.5zM361 570q-58 0 -97.5 28t-39.5 78q0 14 5 34h90q-4 -12 -4 -26q0 -23 14 -34 t34 -11q25 0 46.5 17.5t26.5 53.5h90q-11 -71 -56.5 -105.5t-108.5 -34.5z" />
<glyph unicode="&#x16e;" horiz-adv-x="729" d="M456 745q-37 0 -61.5 17.5t-24.5 50.5q0 40 32.5 64.5t72.5 24.5q38 0 62.5 -18t24.5 -52q0 -39 -33 -63t-73 -24zM460 789q17 0 29 12t12 30q0 12 -7.5 19.5t-20.5 7.5q-17 0 -29 -12.5t-12 -30.5q0 -26 28 -26zM66 202q0 28 6 58l88 450h128l-88 -454q-4 -17 -4 -37 q0 -54 35 -83.5t97 -29.5q73 0 122.5 39.5t63.5 111.5l89 453h128l-90 -460q-23 -120 -108 -191t-209 -71q-113 0 -185.5 57t-72.5 157z" />
<glyph unicode="&#x16f;" horiz-adv-x="606" d="M356 562q-37 0 -61.5 17.5t-24.5 50.5q0 40 32.5 64.5t72.5 24.5q38 0 62.5 -18t24.5 -52q0 -39 -33 -63t-73 -24zM360 606q17 0 29 12t12 30q0 12 -7.5 19.5t-20.5 7.5q-17 0 -29 -12.5t-12 -30.5q0 -26 28 -26zM35 127q0 23 7 61l62 322h127l-58 -298q-5 -30 -5 -47 q0 -61 65 -61q62 0 112 52.5t63 123.5l44 230h127l-99 -510h-123l9 46l13 49h-2q-24 -41 -76 -74t-114 -33q-68 0 -110 33.5t-42 105.5z" />
<glyph unicode="&#x170;" horiz-adv-x="729" d="M66 202q0 28 6 58l88 450h128l-88 -454q-4 -17 -4 -37q0 -54 35 -83.5t97 -29.5q73 0 122.5 39.5t63.5 111.5l89 453h128l-90 -460q-23 -120 -108 -191t-209 -71q-113 0 -185.5 57t-72.5 157zM475 757l103 136h130l-131 -136h-102zM299 757l99 136h113l-102 -136h-110z " />
<glyph unicode="&#x171;" horiz-adv-x="606" d="M35 127q0 23 7 61l62 322h127l-58 -298q-5 -30 -5 -47q0 -61 65 -61q62 0 112 52.5t63 123.5l44 230h127l-99 -510h-123l9 46l13 49h-2q-24 -41 -76 -74t-114 -33q-68 0 -110 33.5t-42 105.5zM375 574l103 136h130l-131 -136h-102zM199 574l99 136h113l-102 -136h-110z " />
<glyph unicode="&#x172;" horiz-adv-x="729" d="M65 202q0 28 6 58l89 450h127l-88 -454q-4 -17 -4 -37q0 -54 35 -83.5t97 -29.5q73 0 122.5 39.5t63.5 111.5l89 453h128l-90 -460q-18 -89 -63 -142t-108 -89q-107 -61 -107 -102q0 -12 11 -19.5t23 -9.5l11 -2l-48 -94q-4 0 -11.5 1t-25.5 6.5t-32 14t-25.5 24.5 t-11.5 36q0 57 71 112v2q-109 0 -184 55.5t-75 158.5z" />
<glyph unicode="&#x173;" horiz-adv-x="606" d="M35 127q0 23 7 61l62 322h127l-58 -298q-5 -30 -5 -47q0 -61 65 -61q62 0 112 52.5t63 123.5l44 230h127l-99 -510q-72 -53 -72 -83q0 -12 10.5 -19.5t21.5 -9.5l10 -2l-49 -94q-4 0 -11 1t-25.5 6.5t-32 14t-25 24.5t-11.5 36q0 66 87 126h-26l9 46l13 49h-2 q-24 -41 -76 -74t-114 -33q-68 0 -110 33.5t-42 105.5z" />
<glyph unicode="&#x174;" horiz-adv-x="964" d="M411 757l119 136h127l65 -136h-100l-34 81h-2l-66 -81h-109zM145 0l-47 710h133l20 -491l-1 -75h2q11 34 29 75l225 491h112l27 -491l-1 -75h2q11 37 27 75l207 491h140l-316 -710h-151l-25 420q-4 61 0 93h-2q-17 -47 -38 -93l-195 -420h-148z" />
<glyph unicode="&#x175;" horiz-adv-x="824" d="M299 574l119 136h127l65 -136h-100l-34 81h-2l-66 -81h-109zM114 0l-56 510h127l23 -336v-54h2q10 27 22 54l160 335h111l28 -335l1 -54h2q8 27 21 54l155 336h135l-255 -510h-140l-30 292l-2 55h-2q-10 -28 -23 -55l-142 -292h-137z" />
<glyph unicode="&#x176;" horiz-adv-x="605" d="M175 0l58 297l-153 413h139l70 -209l25 -95h2q31 50 61 95l148 209h155l-320 -418l-57 -292h-128zM225 757l119 136h127l65 -136h-100l-34 81h-2l-66 -81h-109z" />
<glyph unicode="&#x177;" horiz-adv-x="550" d="M-20 -85q23 -18 54 -18q61 0 101 65l28 46l-117 502h132l58 -309l6 -65h2q16 37 29 63l161 311h142l-342 -588q-38 -66 -89.5 -99t-104.5 -33q-64 0 -117 36zM168 574l119 136h127l65 -136h-100l-34 81h-2l-66 -81h-109z" />
<glyph unicode="&#x178;" horiz-adv-x="605" d="M175 0l58 297l-153 413h139l70 -209l25 -95h2q31 50 61 95l148 209h155l-320 -418l-57 -292h-128zM433 777l23 116h98l-23 -116h-98zM249 777l23 116h98l-23 -116h-98z" />
<glyph unicode="&#x179;" horiz-adv-x="608" d="M347 757l103 136h136l-132 -136h-107zM-22 0l17 83l392 452q16 18 32.5 34t24.5 23l9 7v2q-20 -2 -53 -2h-290l21 111h513l-16 -82l-395 -453q-16 -19 -32.5 -35t-24.5 -22l-9 -7v-2q20 2 53 2h311l-21 -111h-532z" />
<glyph unicode="&#x17a;" horiz-adv-x="522" d="M254 574l103 136h136l-132 -136h-107zM-21 0l12 68l280 287l51 47v2q-14 -2 -46 -2h-211l21 108h434l-13 -69l-281 -287q-12 -13 -25.5 -24.5t-20.5 -17.5l-7 -5v-2q16 3 49 3h226l-21 -108h-448z" />
<glyph unicode="&#x17b;" horiz-adv-x="608" d="M-22 0l17 83l392 452q16 18 32.5 34t24.5 23l9 7v2q-20 -2 -53 -2h-290l21 111h513l-16 -82l-395 -453q-16 -19 -32.5 -35t-24.5 -22l-9 -7v-2q20 2 53 2h311l-21 -111h-532zM355 782l22 111h109l-22 -111h-109z" />
<glyph unicode="&#x17c;" horiz-adv-x="522" d="M-21 0l12 68l280 287l51 47v2q-14 -2 -46 -2h-211l21 108h434l-13 -69l-281 -287q-12 -13 -25.5 -24.5t-20.5 -17.5l-7 -5v-2q16 3 49 3h226l-21 -108h-448zM262 599l22 111h109l-22 -111h-109z" />
<glyph unicode="&#x17d;" horiz-adv-x="608" d="M345 757l-65 136h100l34 -81h2l66 81h109l-119 -136h-127zM-22 0l17 83l392 452q16 18 32.5 34t24.5 23l9 7v2q-20 -2 -53 -2h-290l21 111h513l-16 -82l-395 -453q-16 -19 -32.5 -35t-24.5 -22l-9 -7v-2q20 2 53 2h311l-21 -111h-532z" />
<glyph unicode="&#x17e;" horiz-adv-x="522" d="M252 574l-65 136h100l34 -81h2l66 81h109l-119 -136h-127zM-21 0l12 68l280 287l51 47v2q-14 -2 -46 -2h-211l21 108h434l-13 -69l-281 -287q-12 -13 -25.5 -24.5t-20.5 -17.5l-7 -5v-2q16 3 49 3h226l-21 -108h-448z" />
<glyph unicode="&#x17f;" horiz-adv-x="312" d="M40 0l78 402h-63l20 101h63l4 23q9 48 30.5 83.5t46.5 55t56.5 31t55 15t47.5 3.5l51 -3l-22 -108q-9 2 -25 2q-98 0 -114 -83l-101 -522h-127z" />
<glyph unicode="&#x192;" horiz-adv-x="586" d="M-26 -3q32 -5 64 -5q99 0 124 92l70 250h-74l20 101h83l31 106q16 57 46.5 95.5t68 56t68 23.5t62.5 6q39 0 98 -9l-22 -107q-40 7 -76 7q-97 0 -123 -93l-24 -85h108l-20 -101h-117l-76 -272q-16 -56 -47 -94.5t-69 -55.5t-68.5 -23t-62.5 -6q-30 0 -86 8z" />
<glyph unicode="&#x218;" horiz-adv-x="561" d="M154 -55h105v-16q0 -63 -49 -135h-93q40 72 40 122q0 12 -3 29zM0 85l78 91q27 -26 71.5 -47.5t98.5 -21.5q48 0 85.5 25t37.5 71q0 30 -28.5 55t-69 45t-81.5 44t-69.5 65.5t-28.5 96.5q0 97 76.5 155t179.5 58q69 0 126.5 -22.5t92.5 -55.5l-71 -95q-22 19 -62.5 36.5 t-87.5 17.5t-86 -24.5t-39 -68.5q0 -25 20.5 -46.5t51.5 -36t67 -35t67 -43t51.5 -60t20.5 -85.5q0 -92 -72.5 -154t-182.5 -62q-77 0 -145 29.5t-101 67.5z" />
<glyph unicode="&#x219;" horiz-adv-x="455" d="M105 -55h105v-16q0 -63 -49 -135h-93q40 72 40 122q0 12 -3 29zM-11 59l62 86q23 -23 60.5 -37.5t75.5 -14.5q37 0 60.5 14t23.5 41q0 20 -22 35.5t-53.5 27.5t-62.5 28.5t-53 48t-22 75.5q0 72 59.5 115.5t145.5 43.5q101 0 173 -57l-54 -88q-45 40 -122 40 q-36 0 -59.5 -13.5t-23.5 -40.5q0 -20 22 -35t53.5 -27.5t63 -28.5t53.5 -48t22 -77q0 -71 -56 -115t-144 -44q-120 0 -202 71z" />
<glyph unicode="&#x21a;" horiz-adv-x="618" d="M184 -55h105v-16q0 -63 -49 -135h-93q40 72 40 122q0 12 -3 29zM186 0l117 599h-232l21 111h593l-22 -111h-232l-116 -599h-129z" />
<glyph unicode="&#x21b;" horiz-adv-x="368" d="M105 -55h105v-16q0 -63 -49 -135h-93q40 72 40 122q0 12 -3 29zM64 150q0 22 6 47l40 205h-65l19 101h69l29 146h122l-29 -146h117l-19 -101h-117l-37 -192q-3 -20 -3 -35q0 -68 80 -68q6 0 28 2l-22 -111q-30 -3 -37 -3q-50 0 -88.5 13t-65.5 49.5t-27 92.5z" />
<glyph unicode="&#x2c6;" horiz-adv-x="494" d="M19 757l119 136h127l65 -136h-100l-34 81h-2l-66 -81h-109z" />
<glyph unicode="&#x2c7;" horiz-adv-x="494" d="M120 757l-65 136h100l34 -81h2l66 81h109l-119 -136h-127z" />
<glyph unicode="&#x2d8;" horiz-adv-x="493" d="M186 753q-58 0 -97.5 28t-39.5 78q0 14 5 34h90q-4 -12 -4 -26q0 -23 14 -34t34 -11q25 0 46.5 17.5t26.5 53.5h90q-11 -71 -56.5 -105.5t-108.5 -34.5z" />
<glyph unicode="&#x2d9;" horiz-adv-x="494" d="M130 782l22 111h109l-22 -111h-109z" />
<glyph unicode="&#x2da;" horiz-adv-x="494" d="M181 745q-37 0 -61.5 17.5t-24.5 50.5q0 40 32.5 64.5t72.5 24.5q38 0 62.5 -18t24.5 -52q0 -39 -33 -63t-73 -24zM185 789q17 0 29 12t12 30q0 12 -7.5 19.5t-20.5 7.5q-17 0 -29 -12.5t-12 -30.5q0 -26 28 -26z" />
<glyph unicode="&#x2db;" horiz-adv-x="494" d="M97 -126q0 78 127 151l71 -13q-10 -7 -24.5 -17.5t-38.5 -36t-24 -41.5q0 -12 10.5 -19.5t21.5 -9.5l10 -2l-48 -94q-4 0 -11 1t-25.5 6.5t-32 14t-25 24.5t-11.5 36z" />
<glyph unicode="&#x2dc;" horiz-adv-x="493" d="M3 758q26 137 130 137q27 0 46 -16.5t33.5 -32.5t29.5 -16q35 0 47 62h87q-26 -137 -130 -137q-20 0 -37 10t-26.5 22.5t-22 22.5t-24.5 10q-33 0 -46 -62h-87z" />
<glyph unicode="&#x2dd;" horiz-adv-x="493" d="M164 757l103 136h130l-131 -136h-102zM-12 757l99 136h113l-102 -136h-110z" />
<glyph unicode="&#x3bc;" horiz-adv-x="614" d="M116 -74l-25 -126h-109l137 710h127l-58 -298q-5 -30 -5 -47q0 -61 65 -61q63 0 112.5 52.5t62.5 123.5l44 230h127l-99 -510h-123l9 46l13 49h-2q-24 -41 -75.5 -74t-113.5 -33q-48 0 -76 22h-2q-2 -50 -9 -84z" />
<glyph unicode="&#x400;" horiz-adv-x="569" d="M29 0l139 710h424l-22 -111h-296l-36 -186h239l-22 -111h-239l-37 -191h312l-21 -111h-441zM366 757l-77 136h125l49 -136h-97z" />
<glyph unicode="&#x401;" horiz-adv-x="569" d="M443 777l23 116h98l-23 -116h-98zM259 777l23 116h98l-23 -116h-98zM29 0l139 710h424l-22 -111h-296l-36 -186h239l-22 -111h-239l-37 -191h312l-21 -111h-441z" />
<glyph unicode="&#x402;" horiz-adv-x="743" d="M139 0l117 599h-187l22 111h541l-22 -111h-226l-31 -162l-8 -31h2q77 36 168 36q90 0 141 -51.5t51 -135.5q0 -106 -75 -186.5t-194 -80.5q-26 0 -54 3l21 108q11 -3 29 -3q62 0 102.5 41t40.5 99q0 92 -107 92q-74 0 -147 -40l-55 -288h-129z" />
<glyph unicode="&#x403;" horiz-adv-x="509" d="M303 757l103 136h136l-132 -136h-107zM29 0l138 710h408l-21 -111h-280l-117 -599h-128z" />
<glyph unicode="&#x404;" horiz-adv-x="719" d="M50 295q0 109 57 207.5t157.5 159t218.5 60.5q72 0 140 -24t111 -71l-71 -96q-33 34 -83 54t-103 20q-93 0 -166 -55t-106 -142h340l-20 -105h-341v-13q0 -90 53.5 -137.5t143.5 -47.5q118 0 224 87l56 -96q-55 -48 -136.5 -78t-160.5 -30q-144 0 -229 85.5t-85 221.5z " />
<glyph unicode="&#x405;" horiz-adv-x="561" d="M0 85l78 91q27 -26 71.5 -47.5t98.5 -21.5q48 0 85.5 25t37.5 71q0 30 -28.5 55t-69 45t-81.5 44t-69.5 65.5t-28.5 96.5q0 97 76.5 155t179.5 58q69 0 126.5 -22.5t92.5 -55.5l-71 -95q-22 19 -62.5 36.5t-87.5 17.5t-86 -24.5t-39 -68.5q0 -25 20.5 -46.5t51.5 -36 t67 -35t67 -43t51.5 -60t20.5 -85.5q0 -92 -72.5 -154t-182.5 -62q-77 0 -145 29.5t-101 67.5z" />
<glyph unicode="&#x406;" horiz-adv-x="302" d="M29 0l138 710h129l-139 -710h-128z" />
<glyph unicode="&#x407;" horiz-adv-x="302" d="M29 0l138 710h129l-139 -710h-128zM288 777l23 116h98l-23 -116h-98zM104 777l23 116h98l-23 -116h-98z" />
<glyph unicode="&#x408;" horiz-adv-x="543" d="M1 164q0 27 5 52l6 35h129l-6 -32q-4 -26 -4 -37q0 -76 75 -76q40 0 70.5 26t40.5 80l75 387h-182l22 111h310l-98 -509q-21 -106 -88 -159.5t-153 -53.5t-144 45.5t-58 130.5z" />
<glyph unicode="&#x409;" horiz-adv-x="973" d="M-37 -6l23 118q79 8 130.5 94t88.5 277l45 227h422l-54 -279h120q90 0 144.5 -52.5t54.5 -137.5q0 -98 -75 -169.5t-185 -71.5h-272l117 599h-164l-22 -115q-19 -94 -39.5 -164.5t-51 -133.5t-69 -103.5t-92.5 -64t-121 -24.5zM555 111h111q57 0 98.5 35.5t41.5 90.5 q0 40 -26.5 61.5t-74.5 21.5h-109z" />
<glyph unicode="&#x40a;" horiz-adv-x="1020" d="M29 0l138 710h129l-56 -282h295l56 282h127l-54 -282h122q88 0 143 -53t55 -136q0 -98 -75 -168.5t-187 -70.5h-270l62 317h-295l-62 -317h-128zM602 111h110q56 0 98 34.5t42 86.5q0 41 -26.5 63t-74.5 22h-108z" />
<glyph unicode="&#x40b;" horiz-adv-x="741" d="M139 0l117 599h-187l22 111h540l-21 -111h-226l-32 -162l-9 -34h2q85 39 176 39q86 0 129 -43t43 -117q0 -32 -6 -66l-43 -216h-131l40 203q5 25 5 44q0 79 -93 79q-77 0 -142 -39l-56 -287h-128z" />
<glyph unicode="&#x40c;" horiz-adv-x="642" d="M367 757l103 136h136l-132 -136h-107zM29 0l138 710h129l-57 -289h88l226 289h150l-275 -344v-2l140 -364h-137l-113 310h-100l-61 -310h-128z" />
<glyph unicode="&#x40d;" horiz-adv-x="754" d="M29 0l138 710h129l-80 -409l-28 -109h2q48 69 82 111l347 407h128l-138 -710h-128l79 408l27 109h-2q-46 -68 -80 -110l-348 -407h-128zM427 757l-77 136h125l49 -136h-97z" />
<glyph unicode="&#x40e;" horiz-adv-x="612" d="M15 38l64 92q35 -31 81 -31t84 64l-171 547h133l91 -317l23 -95h2q21 48 47 94l173 318h144l-326 -561q-43 -75 -90.5 -118t-114.5 -43q-77 0 -140 50zM399 742q-66 0 -108 31.5t-42 81.5q0 14 6 38h98q-3 -10 -3 -25q0 -23 14.5 -37t40.5 -14q71 0 82 76h96 q-12 -78 -63.5 -114.5t-120.5 -36.5z" />
<glyph unicode="&#x40f;" horiz-adv-x="738" d="M29 0l138 710h129l-117 -599h308l116 599h129l-138 -710h-224l-28 -140h-116l28 140h-225z" />
<glyph unicode="&#x410;" horiz-adv-x="653" d="M-46 0l381 710h146l109 -710h-129l-25 182h-249l-95 -182h-138zM239 287h185l-26 190l-8 110h-2q-28 -70 -48 -110z" />
<glyph unicode="&#x411;" horiz-adv-x="617" d="M29 0l138 710h436l-22 -111h-307l-32 -164h131q90 0 143 -49.5t53 -134.5q0 -104 -76 -177.5t-181 -73.5h-283zM179 111h122q55 0 95 35.5t40 95.5q0 38 -25 60t-71 22h-120z" />
<glyph unicode="&#x412;" horiz-adv-x="635" d="M29 0l138 710h228q66 0 107 -15q49 -17 76 -55.5t27 -90.5q0 -56 -31.5 -103.5t-84.5 -71.5v-2q42 -15 64 -52t22 -86q0 -79 -44 -135.5t-115 -81.5q-48 -17 -107 -17h-280zM239 420h125q47 0 78 33t31 79q0 31 -19 49t-57 18h-123zM179 111h138q34 0 59 13 q30 16 48.5 46.5t18.5 66.5t-22.5 57.5t-63.5 21.5h-138z" />
<glyph unicode="&#x413;" horiz-adv-x="509" d="M29 0l138 710h408l-21 -111h-280l-117 -599h-128z" />
<glyph unicode="&#x414;" horiz-adv-x="744" d="M187 111h274l94 488h-190l-10 -53q-19 -107 -63.5 -230.5t-104.5 -204.5zM-75 -140l49 251h74q137 175 186 444l30 155h442l-117 -599h80l-50 -251h-115l28 140h-461l-28 -140h-118z" />
<glyph unicode="&#x415;" horiz-adv-x="569" d="M29 0l139 710h424l-22 -111h-296l-36 -186h239l-22 -111h-239l-37 -191h312l-21 -111h-441z" />
<glyph unicode="&#x416;" horiz-adv-x="951" d="M-41 0l281 380v2l-139 328h133l120 -289h81l56 289h129l-57 -289h79l206 289h155l-259 -348v-2l132 -360h-133l-110 310h-92l-60 -310h-128l60 310h-79l-224 -310h-151z" />
<glyph unicode="&#x417;" horiz-adv-x="555" d="M-13 90l75 83q55 -71 148 -71q63 0 107.5 34.5t44.5 91.5q0 79 -98 79h-98l20 105h81q51 0 91.5 33t40.5 83q0 37 -23 59t-70 22q-75 0 -156 -59l-47 94q101 78 220 78q95 0 153.5 -45t58.5 -127q0 -63 -36.5 -111t-96.5 -71l-1 -2q42 -16 67.5 -52.5t25.5 -88.5 q0 -104 -84.5 -170.5t-195.5 -66.5q-68 0 -129 27t-98 75z" />
<glyph unicode="&#x418;" horiz-adv-x="754" d="M29 0l138 710h129l-80 -409l-28 -109h2q48 69 82 111l347 407h128l-138 -710h-128l79 408l27 109h-2q-46 -68 -80 -110l-348 -407h-128z" />
<glyph unicode="&#x419;" horiz-adv-x="754" d="M471 742q-66 0 -108 31.5t-42 81.5q0 14 6 38h98q-3 -10 -3 -25q0 -23 14.5 -37t40.5 -14q71 0 82 76h96q-12 -78 -63.5 -114.5t-120.5 -36.5zM29 0l138 710h129l-80 -409l-28 -109h2q48 69 82 111l347 407h128l-138 -710h-128l79 408l27 109h-2q-46 -68 -80 -110 l-348 -407h-128z" />
<glyph unicode="&#x41a;" horiz-adv-x="642" d="M29 0l138 710h129l-57 -289h88l226 289h150l-275 -344v-2l140 -364h-137l-113 310h-100l-61 -310h-128z" />
<glyph unicode="&#x41b;" horiz-adv-x="691" d="M547 0h-129l117 599h-188l-18 -94q-51 -260 -139.5 -384.5t-235.5 -128.5l23 118q79 10 135 103.5t94 292.5l40 204h439z" />
<glyph unicode="&#x41c;" horiz-adv-x="863" d="M3 0l192 710h138l72 -351l14 -104h2q32 61 56 104l208 351h140l-81 -710h-127l49 397l20 110h-2q-36 -70 -60 -110l-168 -275h-114l-62 275l-17 112h-2q-10 -65 -22 -112l-107 -397h-129z" />
<glyph unicode="&#x41d;" horiz-adv-x="755" d="M29 0l138 710h129l-59 -301h325l59 301h128l-138 -710h-129l58 298h-325l-58 -298h-128z" />
<glyph unicode="&#x41e;" horiz-adv-x="822" d="M51 300q0 111 59.5 209t156.5 155.5t204 57.5q145 0 234.5 -85.5t89.5 -219.5q0 -113 -60.5 -213t-157.5 -158t-203 -58q-145 0 -234 87.5t-89 224.5zM183 307q0 -89 53.5 -145t138.5 -56q109 0 198 90t89 213q0 87 -53.5 141t-138.5 54q-111 0 -199 -88t-88 -209z" />
<glyph unicode="&#x41f;" horiz-adv-x="748" d="M29 0l138 710h575l-139 -710h-128l117 599h-318l-117 -599h-128z" />
<glyph unicode="&#x420;" horiz-adv-x="614" d="M29 0l138 710h254q67 0 110 -23q95 -47 95 -167q0 -84 -44 -152t-114 -100q-52 -23 -107 -23h-156l-48 -245h-128zM227 357h120q43 0 69 15q35 18 56 55t21 83q0 42 -25 65.5t-72 23.5h-122z" />
<glyph unicode="&#x421;" horiz-adv-x="718" d="M52 298q0 173 125 298.5t294 125.5q75 0 146 -24t117 -74l-74 -89q-76 69 -185 69q-124 0 -207 -91t-83 -207q0 -87 52 -143.5t144 -56.5q117 0 225 89l53 -102q-51 -46 -130 -75.5t-155 -29.5q-148 0 -235 86t-87 224z" />
<glyph unicode="&#x422;" horiz-adv-x="619" d="M186 0l117 599h-232l21 111h593l-22 -111h-232l-116 -599h-129z" />
<glyph unicode="&#x423;" horiz-adv-x="612" d="M15 38l64 92q35 -31 81 -31t84 64l-171 547h133l91 -317l23 -95h2q21 48 47 94l173 318h144l-326 -561q-43 -75 -90.5 -118t-114.5 -43q-77 0 -140 50z" />
<glyph unicode="&#x424;" horiz-adv-x="845" d="M45 331q0 148 109.5 243t278.5 98l16 78h128l-16 -78q122 0 198 -68.5t76 -180.5q0 -148 -113 -246t-276 -99l-18 -90h-128l18 90q-122 0 -197.5 69.5t-75.5 183.5zM467 187q97 2 167 68t70 163q0 67 -44 106t-120 39zM176 335q0 -68 44 -108t119 -40l73 376 q-98 -2 -167 -66t-69 -162z" />
<glyph unicode="&#x425;" horiz-adv-x="618" d="M-44 0l290 365l-145 345h140l66 -171l29 -87h2q25 42 58 86l132 172h151l-284 -354l153 -356h-137l-76 188l-28 83h-2q-24 -38 -58 -82l-146 -189h-145z" />
<glyph unicode="&#x426;" horiz-adv-x="773" d="M29 0l138 710h129l-117 -599h308l116 599h129l-117 -599h85l-49 -251h-115l27 140h-534z" />
<glyph unicode="&#x427;" horiz-adv-x="656" d="M264 264q-93 0 -142.5 42.5t-49.5 118.5q0 30 7 61l43 224h131l-39 -204q-5 -19 -5 -42q0 -83 95 -83q83 0 160 47l55 282h131l-138 -710h-131l52 272l9 32h-2q-98 -40 -176 -40z" />
<glyph unicode="&#x428;" horiz-adv-x="1018" d="M29 0l138 710h129l-117 -599h229l117 599h128l-116 -599h229l117 599h128l-138 -710h-844z" />
<glyph unicode="&#x429;" horiz-adv-x="1054" d="M29 0l138 710h129l-117 -599h230l116 599h128l-116 -599h230l116 599h128l-116 -599h88l-49 -251h-116l28 140h-817z" />
<glyph unicode="&#x42a;" horiz-adv-x="702" d="M127 0l117 599h-182l21 111h311l-49 -249h134q86 0 137 -51.5t51 -140.5q0 -110 -76.5 -189.5t-188.5 -79.5h-275zM277 111h119q60 0 100 42.5t40 107.5q0 41 -25.5 65t-70.5 24h-116z" />
<glyph unicode="&#x42b;" horiz-adv-x="877" d="M604 0l138 710h128l-138 -710h-128zM29 0l138 710h129l-49 -249h127q87 0 137.5 -51.5t50.5 -140.5q0 -110 -76.5 -189.5t-188.5 -79.5h-268zM179 111h112q60 0 100 42.5t40 107.5q0 41 -25.5 65t-70.5 24h-110z" />
<glyph unicode="&#x42c;" horiz-adv-x="604" d="M29 0l138 710h129l-49 -249h134q86 0 137 -51.5t51 -140.5q0 -110 -76.5 -189.5t-188.5 -79.5h-275zM179 111h119q60 0 100 42.5t40 107.5q0 41 -25.5 65t-70.5 24h-117z" />
<glyph unicode="&#x42d;" horiz-adv-x="718" d="M196 303l20 105h342v5q0 91 -51.5 141.5t-140.5 50.5q-112 0 -213 -78l-56 95q125 100 276 100q149 0 233.5 -85t84.5 -218q0 -112 -58 -211.5t-158.5 -159.5t-215.5 -60q-75 0 -147 27.5t-120 81.5l73 87q33 -37 85.5 -58t110.5 -21q96 0 170.5 55.5t106.5 142.5h-342z " />
<glyph unicode="&#x42e;" horiz-adv-x="1085" d="M29 0l138 710h129l-59 -301h105q38 133 152 223t247 90q141 0 228.5 -85.5t87.5 -219.5q0 -85 -35 -164.5t-92.5 -137t-133 -92.5t-152.5 -35q-142 0 -229 87t-88 223h-112l-58 -298h-128zM460 307q0 -89 51 -145t133 -56q108 0 194 90t86 213q0 87 -51 140.5t-133 53.5 q-108 0 -194 -87.5t-86 -208.5z" />
<glyph unicode="&#x42f;" horiz-adv-x="640" d="M-38 0l199 250l35 40v2q-93 48 -93 160q0 71 30.5 128t85.5 89q64 41 162 41h253l-138 -710h-129l52 265h-101l-205 -265h-151zM327 373h113l44 226h-91q-66 0 -98 -23q-62 -34 -62 -113q0 -44 24.5 -67t69.5 -23z" />
<glyph unicode="&#x430;" horiz-adv-x="533" d="M-3 120q0 46 22 82t56 57.5t79.5 36t88.5 19.5t87 5h19q3 16 3 32q0 65 -82 65q-70 0 -150 -48l-30 98q31 20 89 37.5t113 17.5q79 0 133 -37t54 -118q0 -20 -5 -52l-61 -315h-117l8 43l10 37h-2q-21 -34 -65.5 -63t-100.5 -29q-62 0 -105.5 35.5t-43.5 96.5zM122 140 q0 -24 16.5 -39.5t50.5 -15.5q47 0 89 42.5t52 91.5l3 14h-22q-28 0 -55 -3t-60 -11.5t-53.5 -29t-20.5 -49.5z" />
<glyph unicode="&#x431;" horiz-adv-x="600" d="M38 229q0 140 66 247q39 70 102 116.5t159 78.5l192 69l26 -103l-213 -74q-80 -29 -121.5 -66.5t-58.5 -100.5h2q67 70 166 70q89 0 140.5 -52t51.5 -140q0 -115 -83 -200.5t-210 -85.5q-107 0 -163 64.5t-56 176.5zM163 200q0 -49 29 -78t75 -29q63 0 109 50t46 117 q0 50 -29 77.5t-74 27.5q-64 0 -110 -49.5t-46 -115.5z" />
<glyph unicode="&#x432;" horiz-adv-x="540" d="M11 0l99 510h232q71 0 112 -30t41 -84q0 -41 -23 -76.5t-68 -53.5v-1q33 -11 51.5 -39.5t18.5 -64.5q0 -74 -65 -117.5t-150 -43.5h-248zM196 300h83q37 0 63 22t26 57q0 48 -66 48h-81zM153 84h93q39 0 69.5 22t30.5 61q0 54 -73 54h-93z" />
<glyph unicode="&#x433;" horiz-adv-x="424" d="M11 0l99 510h335l-21 -108h-208l-79 -402h-126z" />
<glyph unicode="&#x434;" horiz-adv-x="620" d="M169 102h187l59 306h-129l-4 -24q-40 -191 -113 -282zM-67 -120l43 222h58q93 102 130 291l22 117h375l-79 -408h73l-44 -222h-114l23 120h-346l-23 -120h-118z" />
<glyph unicode="&#x435;" horiz-adv-x="559" d="M26 207q0 131 84.5 223t210.5 92q100 0 152 -52.5t52 -140.5q0 -38 -17 -98h-352q-2 -16 -2 -24q0 -44 34.5 -77.5t92.5 -33.5q79 0 158 56l34 -97q-32 -26 -88.5 -46.5t-110.5 -20.5q-116 0 -182 62t-66 157zM174 318h224q2 7 2 22q0 41 -22 63.5t-59 22.5 q-49 0 -87.5 -29t-57.5 -79z" />
<glyph unicode="&#x436;" horiz-adv-x="779" d="M-41 0l200 269v2l-91 239h124l76 -198h62l38 198h119l-38 -198h60l146 198h140l-195 -258v-2l107 -250h-132l-82 205h-65l-40 -205h-119l40 205h-63l-148 -205h-139z" />
<glyph unicode="&#x437;" horiz-adv-x="457" d="M-21 60l59 81q57 -55 125 -55q40 0 70.5 22t30.5 61q0 49 -72 49h-64l17 88h55q37 0 65 18.5t28 53.5q0 48 -70 48q-57 0 -126 -42l-34 82q79 56 188 56q78 0 123.5 -34.5t45.5 -92.5q0 -91 -94 -130v-2q65 -33 65 -104q0 -79 -64 -125t-154 -46q-55 0 -107 20t-87 52z " />
<glyph unicode="&#x438;" horiz-adv-x="607" d="M11 0l99 510h119l-53 -266l-14 -62h2q24 33 51 63l241 265h124l-100 -510h-118l51 265l15 62h-2q-25 -34 -51 -63l-241 -264h-123z" />
<glyph unicode="&#x439;" horiz-adv-x="607" d="M371 558q-66 0 -108 31.5t-42 81.5q0 14 6 38h98q-3 -10 -3 -25q0 -23 14.5 -37t40.5 -14q71 0 82 76h96q-12 -78 -63.5 -114.5t-120.5 -36.5zM11 0l99 510h119l-53 -266l-14 -62h2q24 33 51 63l241 265h124l-100 -510h-118l51 265l15 62h-2q-25 -34 -51 -63l-241 -264 h-123z" />
<glyph unicode="&#x43a;" horiz-adv-x="548" d="M11 0l99 510h127l-39 -195h64l154 195h148l-210 -258v-2l131 -250h-140l-101 207h-66l-41 -207h-126z" />
<glyph unicode="&#x43b;" horiz-adv-x="567" d="M-38 -5l21 112q111 18 154 243l31 160h372l-99 -510h-127l79 407h-125l-10 -57q-35 -175 -103.5 -263.5t-192.5 -91.5z" />
<glyph unicode="&#x43c;" horiz-adv-x="742" d="M-10 0l144 510h141l60 -263l11 -66h2q19 37 36 66l163 263h144l-54 -510h-121l36 276l16 87h-2q-19 -38 -43 -74l-143 -225h-105l-56 224l-15 76h-2q-10 -54 -18 -88l-72 -276h-122z" />
<glyph unicode="&#x43d;" horiz-adv-x="609" d="M11 0l99 510h127l-39 -197h219l38 197h127l-100 -510h-126l40 206h-218l-41 -206h-126z" />
<glyph unicode="&#x43e;" horiz-adv-x="633" d="M25 214q0 129 96.5 218.5t219.5 89.5q111 0 181 -62.5t70 -162.5q0 -130 -96.5 -219.5t-219.5 -89.5q-111 0 -181 62.5t-70 163.5zM154 220q0 -56 34.5 -90t89.5 -34q71 0 128 55.5t57 137.5q0 56 -35 90.5t-89 34.5q-71 0 -128 -56.5t-57 -137.5z" />
<glyph unicode="&#x43f;" horiz-adv-x="602" d="M11 0l99 510h465l-100 -510h-127l79 402h-211l-79 -402h-126z" />
<glyph unicode="&#x440;" horiz-adv-x="614" d="M140 17l-42 -217h-126l138 710h115l-6 -37l-11 -37h2q28 39 72 62.5t96 23.5q91 0 142.5 -58t51.5 -157q0 -137 -84.5 -228t-193.5 -91q-102 0 -145 75h-2q-2 -20 -7 -46zM179 210q0 -50 25.5 -82.5t74.5 -32.5q62 0 113 56.5t51 146.5q0 53 -27 84t-74 31 q-64 0 -113.5 -60.5t-49.5 -142.5z" />
<glyph unicode="&#x441;" horiz-adv-x="549" d="M26 214q0 124 92 216t224 92q127 0 198 -75l-67 -80q-49 47 -125 47q-80 0 -137 -57.5t-57 -134.5q0 -55 35.5 -90.5t96.5 -35.5q80 0 163 65l35 -98q-38 -33 -97 -54t-116 -21q-114 0 -179.5 63t-65.5 163z" />
<glyph unicode="&#x442;" horiz-adv-x="499" d="M128 0l78 402h-168l21 108h464l-21 -108h-169l-78 -402h-127z" />
<glyph unicode="&#x443;" horiz-adv-x="548" d="M-20 -85q23 -18 54 -18q61 0 101 65l28 46l-117 502h132l58 -309l6 -65h2q16 37 29 63l161 311h142l-342 -588q-38 -66 -89.5 -99t-104.5 -33q-64 0 -117 36z" />
<glyph unicode="&#x444;" horiz-adv-x="754" d="M27 219q0 124 94.5 208.5t238.5 93.5l35 179h120l-35 -179q100 -4 165.5 -66.5t65.5 -163.5q0 -123 -95 -208.5t-239 -94.5l-37 -188h-120l37 188q-99 4 -164.5 67.5t-65.5 163.5zM397 91q78 5 133.5 62t55.5 135q0 58 -33.5 92t-91.5 39zM150 222q0 -58 33.5 -92 t93.5 -39l63 328q-78 -5 -134 -62t-56 -135z" />
<glyph unicode="&#x445;" horiz-adv-x="518" d="M-43 0l222 262l-121 248h135l58 -135l12 -34h2q11 20 21 33l106 136h148l-216 -256l124 -254h-132l-66 143l-10 30h-2q-10 -18 -19 -28l-116 -145h-146z" />
<glyph unicode="&#x446;" horiz-adv-x="627" d="M11 0l99 510h127l-78 -402h204l78 402h127l-78 -402h72l-44 -228h-115l23 120h-415z" />
<glyph unicode="&#x447;" horiz-adv-x="542" d="M195 172q-74 0 -114.5 33t-40.5 93q0 21 4 41l33 171h125l-27 -137q-1 -5 -2 -14t-2 -14.5t-1 -8.5q0 -27 17 -44t53 -17q60 0 108 33l40 202h127l-100 -510h-127l35 177l7 26h-2q-59 -31 -133 -31z" />
<glyph unicode="&#x448;" horiz-adv-x="818" d="M11 0l99 510h120l-78 -402h160l78 402h121l-79 -402h160l78 402h121l-100 -510h-680z" />
<glyph unicode="&#x449;" horiz-adv-x="849" d="M11 0l99 510h120l-78 -402h160l78 402h121l-79 -402h160l78 402h121l-79 -402h72l-44 -228h-114l23 120h-638z" />
<glyph unicode="&#x44a;" horiz-adv-x="580" d="M82 0l79 402h-134l21 108h261l-35 -175h94q79 0 122 -36.5t43 -106.5q0 -87 -60 -139.5t-160 -52.5h-231zM226 87h74q43 0 73 27.5t30 70.5q0 64 -73 64h-73z" />
<glyph unicode="&#x44b;" horiz-adv-x="744" d="M491 0l99 510h127l-100 -510h-126zM11 0l99 510h127l-35 -175h91q79 0 122 -36.5t43 -106.5q0 -87 -59.5 -139.5t-160.5 -52.5h-227zM154 87h71q43 0 73 27.5t30 70.5q0 64 -73 64h-69z" />
<glyph unicode="&#x44c;" horiz-adv-x="508" d="M11 0l99 510h127l-35 -175h94q80 0 122.5 -36t42.5 -107q0 -87 -59.5 -139.5t-160.5 -52.5h-230zM154 87h74q44 0 74 27.5t30 70.5q0 64 -73 64h-73z" />
<glyph unicode="&#x44d;" horiz-adv-x="546" d="M146 212l17 87h224q-1 62 -39.5 92t-94.5 30q-83 0 -147 -56l-48 85q37 34 94 53t114 19q112 0 175.5 -64t63.5 -162q0 -124 -95 -216t-231 -92q-54 0 -109 19.5t-87 56.5l54 84q24 -27 63.5 -43t81.5 -16q63 0 113.5 34t74.5 89h-224z" />
<glyph unicode="&#x44e;" horiz-adv-x="853" d="M11 0l99 510h127l-40 -202h78q31 94 115 154t183 60q103 0 170.5 -62.5t67.5 -166.5q0 -127 -93 -216t-217 -89q-100 0 -167.5 59t-72.5 158h-83l-41 -205h-126zM390 222q0 -58 31.5 -92t83.5 -34q68 0 122.5 55.5t54.5 135.5q0 58 -33 92.5t-85 34.5q-68 0 -121 -56 t-53 -136z" />
<glyph unicode="&#x44f;" horiz-adv-x="535" d="M-35 0l141 166l29 31v2q-33 15 -54 48.5t-21 78.5q0 80 57.5 132t145.5 52h245l-100 -510h-127l34 173h-66l-141 -173h-143zM188 326q0 -65 73 -65h71l33 166h-71q-47 0 -76.5 -26.5t-29.5 -74.5z" />
<glyph unicode="&#x450;" horiz-adv-x="559" d="M26 207q0 131 84.5 223t210.5 92q100 0 152 -52.5t52 -140.5q0 -38 -17 -98h-352q-2 -16 -2 -24q0 -44 34.5 -77.5t92.5 -33.5q79 0 158 56l34 -97q-32 -26 -88.5 -46.5t-110.5 -20.5q-116 0 -182 62t-66 157zM174 318h224q2 7 2 22q0 41 -22 63.5t-59 22.5 q-49 0 -87.5 -29t-57.5 -79zM313 574l-77 136h125l49 -136h-97z" />
<glyph unicode="&#x451;" horiz-adv-x="559" d="M393 594l23 116h98l-23 -116h-98zM209 594l23 116h98l-23 -116h-98zM26 207q0 131 84.5 223t210.5 92q100 0 152 -52.5t52 -140.5q0 -38 -17 -98h-352q-2 -16 -2 -24q0 -44 34.5 -77.5t92.5 -33.5q79 0 158 56l34 -97q-32 -26 -88.5 -46.5t-110.5 -20.5q-116 0 -182 62 t-66 157zM174 318h224q2 7 2 22q0 41 -22 63.5t-59 22.5q-49 0 -87.5 -29t-57.5 -79z" />
<glyph unicode="&#x452;" horiz-adv-x="613" d="M55 541l17 88h61l16 81h127l-16 -81h190l-17 -88h-190l-27 -138l-12 -44h2q23 40 76.5 71t113.5 31q71 0 112 -34t41 -105q0 -26 -8 -61l-50 -266q-12 -62 -40.5 -105.5t-66.5 -63.5t-69.5 -27.5t-62.5 -7.5l-52 3l22 108q13 -2 31 -2q92 0 114 110l44 227q5 28 5 46 q0 62 -63 62q-64 0 -116 -52t-66 -124l-33 -169h-127l105 541h-61z" />
<glyph unicode="&#x453;" horiz-adv-x="424" d="M213 574l103 136h136l-132 -136h-107zM11 0l99 510h335l-21 -108h-208l-79 -402h-126z" />
<glyph unicode="&#x454;" horiz-adv-x="551" d="M25 216q0 121 96.5 213.5t229.5 92.5q127 0 188 -71l-60 -84q-23 24 -60.5 38t-75.5 14q-60 0 -110 -32t-74 -85h226l-17 -88h-227q1 -63 41.5 -94t101.5 -31q88 0 164 67l39 -93q-36 -32 -101 -53.5t-123 -21.5q-111 0 -174.5 63.5t-63.5 164.5z" />
<glyph unicode="&#x455;" horiz-adv-x="455" d="M-11 59l62 86q23 -23 60.5 -37.5t75.5 -14.5q37 0 60.5 14t23.5 41q0 20 -22 35.5t-53.5 27.5t-62.5 28.5t-53 48t-22 75.5q0 72 59.5 115.5t145.5 43.5q101 0 173 -57l-54 -88q-45 40 -122 40q-36 0 -59.5 -13.5t-23.5 -40.5q0 -20 22 -35t53.5 -27.5t63 -28.5t53.5 -48 t22 -77q0 -71 -56 -115t-144 -44q-120 0 -202 71z" />
<glyph unicode="&#x456;" horiz-adv-x="263" d="M127 597l22 113h127l-22 -113h-127zM11 0l99 510h127l-100 -510h-126z" />
<glyph unicode="&#x457;" horiz-adv-x="263" d="M233 594l23 116h98l-23 -116h-98zM49 594l23 116h98l-23 -116h-98zM11 0l99 510h126l-99 -510h-126z" />
<glyph unicode="&#x458;" horiz-adv-x="264" d="M126 597l22 113h127l-22 -113h-127zM10 -5l100 515h126l-101 -524q-10 -49 -31.5 -86t-46.5 -56.5t-56 -31.5t-54.5 -15.5t-47.5 -3.5q-25 0 -52 3l21 107q10 -2 22 -2q102 0 120 94z" />
<glyph unicode="&#x459;" horiz-adv-x="782" d="M-32 -5l20 112q55 8 93.5 60.5t62.5 176.5l32 166h339l-37 -185h88q169 0 169 -141q0 -87 -62.5 -135.5t-160.5 -48.5h-223l79 407h-93l-11 -59q-36 -183 -104 -268t-192 -85zM432 87h76q43 0 73.5 23.5t30.5 64.5q0 62 -75 62h-75z" />
<glyph unicode="&#x45a;" horiz-adv-x="838" d="M11 0l99 510h127l-36 -186h208l36 186h127l-37 -188h85q82 0 126.5 -35t44.5 -102q0 -87 -61.5 -136t-160.5 -49h-224l44 224h-208l-44 -224h-126zM489 87h76q43 0 73.5 23.5t30.5 66.5q0 58 -78 58h-73z" />
<glyph unicode="&#x45b;" horiz-adv-x="613" d="M55 541l17 88h61l16 81h127l-16 -81h190l-18 -88h-189l-27 -137l-11 -45h2q23 40 75.5 71.5t112.5 31.5q72 0 113 -34t41 -105q0 -23 -7 -61l-50 -262h-127l46 238q5 28 5 47q0 61 -64 61t-116 -52t-66 -124l-32 -170h-127l105 541h-61z" />
<glyph unicode="&#x45c;" horiz-adv-x="548" d="M270 574l103 136h136l-132 -136h-107zM11 0l99 510h127l-39 -195h64l154 195h148l-210 -258v-2l131 -250h-140l-101 207h-66l-41 -207h-126z" />
<glyph unicode="&#x45d;" horiz-adv-x="607" d="M11 0l99 510h119l-53 -266l-14 -62h2q24 33 51 63l241 265h124l-100 -510h-118l51 265l15 62h-2q-25 -34 -51 -63l-241 -264h-123zM328 574l-77 136h125l49 -136h-97z" />
<glyph unicode="&#x45e;" horiz-adv-x="548" d="M-20 -85q23 -18 54 -18q61 0 101 65l28 46l-117 502h132l58 -309l6 -65h2q16 37 29 63l161 311h142l-342 -588q-38 -66 -89.5 -99t-104.5 -33q-64 0 -117 36zM333 559q-66 0 -108 31.5t-42 81.5q0 14 6 38h98q-3 -10 -3 -25q0 -23 14.5 -37t40.5 -14q71 0 82 76h96 q-12 -78 -63.5 -114.5t-120.5 -36.5z" />
<glyph unicode="&#x45f;" horiz-adv-x="588" d="M11 0l99 510h127l-78 -402h197l78 402h127l-99 -510h-168l-23 -120h-115l24 120h-169z" />
<glyph unicode="&#x462;" horiz-adv-x="697" d="M120 0l104 539h-170l19 99h173l19 94h125l-18 -94h204l-20 -99h-203l-20 -104h131q89 0 142.5 -50.5t53.5 -131.5q0 -102 -77 -177.5t-186 -75.5h-277zM270 111h117q56 0 97.5 36.5t41.5 93.5q0 39 -26 61t-73 22h-116z" />
<glyph unicode="&#x463;" horiz-adv-x="555" d="M57 0l90 458h-122l18 92h121l31 160h127l-31 -160h164l-18 -92h-164l-23 -123h93q81 0 124.5 -36t43.5 -107q0 -86 -61.5 -139t-161.5 -53h-231zM201 87h78q45 0 74.5 27.5t29.5 71.5q0 63 -74 63h-76z" />
<glyph unicode="&#x472;" horiz-adv-x="822" d="M51 300q0 111 59.5 209t156.5 155.5t204 57.5q145 0 234.5 -85.5t89.5 -219.5q0 -113 -60.5 -213t-157.5 -158t-203 -58q-145 0 -234 87.5t-89 224.5zM180 307q0 -91 54.5 -147.5t140.5 -56.5q85 0 162 57.5t110 146.5h-467zM470 607q-87 0 -163.5 -56.5t-108.5 -143.5 h467v2q0 88 -54.5 143t-140.5 55z" />
<glyph unicode="&#x473;" horiz-adv-x="634" d="M26 217q0 127 96.5 216t224.5 89q105 0 175 -62.5t70 -166.5q0 -127 -97 -216t-224 -89q-106 0 -175.5 62.5t-69.5 166.5zM276 83q60 0 114 37.5t75 99.5h-323q1 -65 37.5 -101t96.5 -36zM342 427q-59 0 -111.5 -36t-75.5 -96h321q-3 62 -40 97t-94 35z" />
<glyph unicode="&#x474;" horiz-adv-x="689" d="M202 0l-118 710h133l66 -463l7 -104h2q26 63 47 104l205 392q24 44 46.5 57.5t72.5 13.5h95l-22 -112h-23q-31 0 -45.5 -8t-31.5 -40l-300 -550h-134z" />
<glyph unicode="&#x475;" horiz-adv-x="575" d="M138 0l-86 510h128l44 -316l4 -77h2q18 47 33 77l115 222q26 53 56 73.5t84 20.5h82l-22 -109h-23q-30 0 -45 -10t-32 -42l-190 -349h-150z" />
<glyph unicode="&#x48a;" horiz-adv-x="804" d="M29 0l138 710h129l-80 -409l-28 -109h2q48 69 82 111l347 407h128l-117 -599h121l-14 -70l-114 -181h-92l67 140h-117l79 408l27 109h-2q-46 -68 -80 -110l-348 -407h-128zM465 742q-66 0 -108 31.5t-42 81.5q0 14 6 38h98q-3 -10 -3 -25q0 -23 14.5 -37t40.5 -14 q71 0 82 76h96q-12 -78 -63.5 -114.5t-120.5 -36.5z" />
<glyph unicode="&#x48b;" horiz-adv-x="662" d="M11 0l99 510h119l-53 -266l-14 -62h2q24 33 51 63l241 265h124l-79 -403h106l-13 -67l-100 -160h-86l56 120h-102l51 265l15 62h-2q-25 -34 -51 -63l-241 -264h-123zM356 559q-66 0 -108 31.5t-42 81.5q0 14 6 38h98q-3 -10 -3 -25q0 -23 14.5 -37t40.5 -14q71 0 82 76 h96q-12 -78 -63.5 -114.5t-120.5 -36.5z" />
<glyph unicode="&#x48c;" horiz-adv-x="690" d="M109 0l109 561h-161l18 98h164l18 91h126l-18 -91h192l-19 -98h-192l-24 -123h136q86 0 140 -53.5t54 -137.5q0 -101 -75.5 -174t-186.5 -73h-281zM259 111h121q55 0 98 37t43 93q0 42 -26.5 64t-74.5 22h-119z" />
<glyph unicode="&#x48d;" horiz-adv-x="560" d="M61 0l90 458h-122l18 92h121l31 160h127l-31 -160h164l-18 -92h-164l-23 -123h93q81 0 124.5 -36t43.5 -107q0 -86 -61.5 -139t-161.5 -53h-231zM205 87h78q45 0 74.5 27.5t29.5 71.5q0 63 -74 63h-76z" />
<glyph unicode="&#x48e;" horiz-adv-x="635" d="M29 0l138 710h254q67 0 110 -23q95 -47 95 -167q0 -127 -94 -211l54 -68l-68 -55l-61 77q-47 -18 -96 -18h-156l-48 -245h-128zM336 417l68 56l63 -81q39 49 39 118q0 42 -25 65.5t-72 23.5h-135l-48 -255h133q22 0 32 2z" />
<glyph unicode="&#x48f;" horiz-adv-x="629" d="M140 17l-42 -217h-126l138 710h115l-6 -37l-11 -37h2q64 86 170 86q89 0 140.5 -58t51.5 -157q0 -139 -88 -232l56 -70l-68 -56l-57 71q-61 -32 -121 -32q-102 0 -145 75h-2q-2 -20 -7 -46zM288 179l68 56l59 -74q41 56 41 130q0 56 -28.5 89t-78.5 33q-71 0 -120.5 -61 t-49.5 -141q0 -54 26.5 -88t77.5 -34q34 0 64 15z" />
<glyph unicode="&#x490;" horiz-adv-x="520" d="M29 0l138 710h314l20 106h106l-43 -217h-290l-116 -599h-129z" />
<glyph unicode="&#x491;" horiz-adv-x="431" d="M11 0l99 510h243l20 102h99l-40 -210h-216l-78 -402h-127z" />
<glyph unicode="&#x492;" horiz-adv-x="521" d="M34 0l58 298h-59l18 91h59l63 321h408l-22 -111h-280l-40 -210h157l-17 -91h-159l-57 -298h-129z" />
<glyph unicode="&#x493;" horiz-adv-x="434" d="M16 0l38 196h-61l17 88h61l45 226h335l-21 -108h-209l-23 -118h126l-17 -88h-126l-38 -196h-127z" />
<glyph unicode="&#x494;" horiz-adv-x="628" d="M29 0l138 710h409l-22 -111h-280l-39 -200q60 24 130 24q101 0 153.5 -57t52.5 -168q0 -99 -38.5 -187t-118.5 -144.5t-185 -49.5l20 105q85 1 135.5 82.5t50.5 180.5q0 60 -25.5 92.5t-89.5 32.5q-44 0 -106 -24l-56 -286h-129z" />
<glyph unicode="&#x495;" horiz-adv-x="519" d="M11 0l99 510h347l-20 -102h-220l-26 -137q47 21 102 21q79 0 120.5 -46.5t41.5 -127.5q0 -98 -56 -185.5t-153 -140.5l-56 89q63 34 103.5 99t40.5 126q0 84 -84 84q-35 0 -79 -22l-33 -168h-127z" />
<glyph unicode="&#x496;" horiz-adv-x="1000" d="M-41 0l281 380v2l-139 328h133l120 -289h81l56 289h129l-57 -289h79l206 289h155l-259 -348v-2l91 -249h116l-49 -251h-115l28 140h-72l-110 310h-92l-60 -310h-128l60 310h-79l-224 -310h-151z" />
<glyph unicode="&#x497;" horiz-adv-x="827" d="M-41 0l200 269v2l-91 239h124l76 -198h62l38 198h119l-38 -198h60l146 198h140l-195 -258v-2l61 -142h111l-44 -228h-113l23 120h-63l-82 205h-65l-40 -205h-119l40 205h-63l-148 -205h-139z" />
<glyph unicode="&#x498;" horiz-adv-x="556" d="M-13 90l75 83q55 -71 148 -71q63 0 107.5 34.5t44.5 91.5q0 79 -98 79h-98l20 105h81q51 0 91.5 33t40.5 83q0 37 -23 59t-70 22q-75 0 -156 -59l-47 94q101 78 220 78q95 0 153.5 -45t58.5 -127q0 -63 -36.5 -111t-96.5 -71l-1 -2q42 -16 67.5 -52.5t25.5 -88.5 q0 -88 -62.5 -150.5t-153.5 -80.5l-27 -134h-115l26 133q-114 16 -175 97z" />
<glyph unicode="&#x499;" horiz-adv-x="459" d="M-21 60l59 81q57 -55 125 -55q40 0 70.5 22t30.5 61q0 49 -72 49h-64l17 88h55q37 0 65 18.5t28 53.5q0 48 -70 48q-57 0 -126 -42l-34 82q79 56 188 56q78 0 123.5 -34.5t45.5 -92.5q0 -91 -94 -130v-2q65 -33 65 -104q0 -67 -47 -110.5t-119 -55.5l-22 -113h-112 l22 115q-81 15 -134 65z" />
<glyph unicode="&#x49a;" horiz-adv-x="684" d="M29 0l138 710h129l-57 -289h88l226 289h150l-275 -344v-2l97 -253h106l-49 -251h-115l27 140h-63l-113 310h-100l-61 -310h-128z" />
<glyph unicode="&#x49b;" horiz-adv-x="592" d="M11 0l99 510h127l-39 -195h64l154 195h148l-210 -258v-2l74 -142h109l-44 -228h-114l23 120h-57l-101 207h-66l-41 -207h-126z" />
<glyph unicode="&#x49c;" horiz-adv-x="741" d="M29 0l138 710h129l-57 -289h64l22 114h92l-22 -114h41l208 289h152l-268 -357v-2l144 -351h-134l-124 310h-41l-22 -116h-92l22 116h-63l-61 -310h-128z" />
<glyph unicode="&#x49d;" horiz-adv-x="634" d="M11 0l99 510h127l-39 -195h45l19 98h88l-19 -98h21l149 195h148l-205 -254v-2l127 -254h-139l-98 207h-24l-19 -100h-88l20 100h-45l-41 -207h-126z" />
<glyph unicode="&#x49e;" horiz-adv-x="648" d="M58 521l16 87h79l20 102h129l-20 -102h84l-16 -87h-86l-19 -100h88l226 289h150l-275 -344v-2l140 -364h-137l-113 310h-100l-61 -310h-128l101 521h-78z" />
<glyph unicode="&#x49f;" horiz-adv-x="552" d="M47 528l17 85h67l19 97h126l-19 -97h101l-17 -85h-101l-38 -198h61l159 180h150l-212 -234v-2l124 -274h-135l-95 223h-72l-44 -223h-127l103 528h-67z" />
<glyph unicode="&#x4a0;" horiz-adv-x="770" d="M157 0l117 599h-201l22 111h329l-56 -289h89l223 289h151l-274 -346v-2l140 -362h-137l-115 310h-99l-60 -310h-129z" />
<glyph unicode="&#x4a1;" horiz-adv-x="620" d="M82 0l79 402h-134l21 108h261l-39 -195h64l153 195h148l-209 -258v-2l130 -250h-139l-102 207h-65l-41 -207h-127z" />
<glyph unicode="&#x4a2;" horiz-adv-x="794" d="M29 0l138 710h129l-59 -301h325l59 301h128l-116 -599h104l-49 -251h-116l28 140h-117l57 298h-325l-57 -298h-129z" />
<glyph unicode="&#x4a3;" horiz-adv-x="651" d="M11 0l99 510h127l-39 -197h218l39 197h127l-79 -402h91l-44 -228h-114l23 120h-103l40 206h-218l-41 -206h-126z" />
<glyph unicode="&#x4a4;" horiz-adv-x="945" d="M29 0l138 710h129l-59 -301h307l59 301h408l-22 -111h-279l-117 -599h-128l58 298h-308l-58 -298h-128z" />
<glyph unicode="&#x4a5;" horiz-adv-x="743" d="M11 0l99 510h127l-39 -197h205l38 197h323l-21 -108h-196l-79 -402h-126l40 206h-204l-41 -206h-126z" />
<glyph unicode="&#x4a6;" horiz-adv-x="1000" d="M29 0l138 710h507l-58 -301q60 24 129 24q100 0 152 -58t52 -172q0 -100 -38 -188.5t-118 -146.5t-185 -51l20 105q57 0 101 42.5t64 102.5t20 123t-25 96.5t-88 33.5q-44 0 -106 -24l-58 -296h-128l116 600h-249l-117 -600h-129z" />
<glyph unicode="&#x4a7;" horiz-adv-x="835" d="M11 0l99 510h428l-41 -205q60 23 110 23q79 0 123.5 -55t44.5 -149q0 -116 -67.5 -206t-163.5 -126l-36 95q61 31 99.5 89.5t38.5 138.5q0 49 -22 77.5t-68 28.5q-36 0 -78 -21l-39 -200h-127l78 402h-174l-78 -402h-127z" />
<glyph unicode="&#x4a8;" horiz-adv-x="940" d="M53 302q0 146 85.5 256.5t206.5 162.5l51 -115q-86 -37 -149 -115.5t-63 -184.5q0 -86 52 -143t151 -57q39 0 78 9q-92 95 -92 232q0 145 93 254t227 109q103 0 162 -65.5t59 -168.5q0 -102 -55.5 -198.5t-147.5 -168.5q25 -4 62 -4h68l-20 -105h-68q-91 0 -168 34 q-101 -46 -204 -46q-144 0 -236 86t-92 228zM503 345q0 -117 81 -182q87 52 142.5 134t55.5 174q0 57 -26.5 89t-73.5 32q-74 0 -126.5 -74t-52.5 -173z" />
<glyph unicode="&#x4a9;" horiz-adv-x="811" d="M29 235q0 97 61.5 174.5t155.5 111.5l41 -102q-57 -22 -98.5 -69.5t-41.5 -111.5q0 -63 42.5 -106t117.5 -43q37 0 77 9q-78 75 -78 180q0 100 73 172t181 72q90 0 142.5 -53t52.5 -131q0 -134 -139 -239q25 -3 53 -3h75l-19 -96h-68q-83 0 -161 30q-98 -42 -193 -42 q-116 0 -195 67.5t-79 179.5zM425 281q0 -91 71 -140q62 34 100.5 83.5t38.5 108.5q0 39 -21 65t-65 26q-54 0 -89 -42t-35 -101z" />
<glyph unicode="&#x4aa;" horiz-adv-x="718" d="M52 298q0 173 125 298.5t294 125.5q75 0 146 -24t117 -74l-74 -89q-76 69 -185 69q-124 0 -207 -91t-83 -207q0 -87 52 -143.5t144 -56.5q117 0 225 89l53 -102q-46 -41 -115.5 -69.5t-140.5 -34.5l-25 -129h-115l26 137q-111 23 -174 104t-63 197z" />
<glyph unicode="&#x4ab;" horiz-adv-x="551" d="M27 214q0 124 92 216t224 92q127 0 198 -75l-67 -80q-49 47 -125 47q-80 0 -137 -57.5t-57 -134.5q0 -55 35.5 -90.5t96.5 -35.5q80 0 163 65l35 -98q-73 -63 -185 -73l-20 -110h-112l22 118q-78 21 -120.5 78.5t-42.5 137.5z" />
<glyph unicode="&#x4ac;" horiz-adv-x="621" d="M185 0l117 599h-232l21 111h593l-22 -111h-232l-95 -488h105l-49 -251h-115l27 140h-118z" />
<glyph unicode="&#x4ad;" horiz-adv-x="506" d="M128 0l78 402h-168l22 108h463l-21 -108h-169l-57 -294h89l-44 -228h-113l23 120h-103z" />
<glyph unicode="&#x4ae;" horiz-adv-x="589" d="M172 0l58 297l-153 413h139l70 -209l25 -95h2q31 50 61 95l148 209h155l-320 -418l-57 -292h-128z" />
<glyph unicode="&#x4af;" horiz-adv-x="539" d="M152 14l-101 496h128l50 -291l4 -75h2q17 44 34 75l162 291h139l-292 -496l-42 -214h-125z" />
<glyph unicode="&#x4b0;" horiz-adv-x="588" d="M101 215l18 92h107l-152 403h140l70 -209l25 -95h2q30 51 61 95l151 209h152l-309 -403h117l-18 -92h-122l-42 -215h-129l42 215h-113z" />
<glyph unicode="&#x4b1;" horiz-adv-x="539" d="M32 0l18 88h88l-85 422h128l50 -291l4 -75h2q17 44 34 75l160 291h139l-249 -422h90l-17 -88h-119l-38 -200h-126l39 200h-118z" />
<glyph unicode="&#x4b2;" horiz-adv-x="663" d="M-44 0l290 365l-145 345h140l66 -171l29 -87h2q25 42 58 86l132 172h151l-284 -354l105 -245h111l-49 -251h-115l28 140h-64l-76 188l-28 83h-2q-24 -38 -58 -82l-146 -189h-145z" />
<glyph unicode="&#x4b3;" horiz-adv-x="555" d="M-43 0l222 262l-121 248h135l58 -135l12 -34h2q11 20 21 33l106 136h148l-216 -256l71 -146h102l-44 -228h-114l24 120h-47l-66 143l-10 30h-2q-10 -18 -19 -28l-116 -145h-146z" />
<glyph unicode="&#x4b4;" horiz-adv-x="913" d="M158 0l116 599h-201l22 111h531l-22 -111h-202l-94 -488h318l117 599h128l-116 -599h93l-49 -251h-115l28 140h-554z" />
<glyph unicode="&#x4b5;" horiz-adv-x="745" d="M102 0l78 402h-140l21 108h406l-21 -108h-140l-57 -294h230l78 402h127l-78 -402h78l-44 -227h-115l23 119h-446z" />
<glyph unicode="&#x4b6;" horiz-adv-x="696" d="M264 264q-93 0 -142.5 42.5t-49.5 118.5q0 30 7 61l43 224h131l-39 -204q-5 -19 -5 -42q0 -83 95 -83q83 0 160 47l55 282h131l-117 -599h105l-49 -251h-115l28 140h-121l52 272l9 32h-2q-98 -40 -176 -40z" />
<glyph unicode="&#x4b7;" horiz-adv-x="582" d="M195 172q-74 0 -114.5 33t-40.5 93q0 21 4 41l33 171h125l-27 -137q-1 -5 -2 -14t-2 -14.5t-1 -8.5q0 -27 17 -44t53 -17q60 0 108 33l40 202h127l-79 -402h92l-44 -228h-114l24 120h-106l35 177l7 26h-2q-59 -31 -133 -31z" />
<glyph unicode="&#x4b8;" horiz-adv-x="681" d="M243 167l19 100q-92 2 -141.5 43.5t-49.5 114.5q0 30 7 61l43 224h131l-39 -204q-5 -19 -5 -42q0 -72 77 -82l26 137h92l-26 -131q59 11 112 40l55 282h131l-139 -710h-131l55 278l9 32h-2q-62 -25 -111 -35l-21 -108h-92z" />
<glyph unicode="&#x4b9;" horiz-adv-x="580" d="M188 93l15 79q-77 2 -119 36.5t-42 99.5q0 19 5 49l30 153h125l-27 -134q-4 -24 -4 -34q0 -53 53 -64l23 118h88l-23 -116q41 9 75 28l40 202h126l-99 -510h-127l35 177l7 26h-1q-29 -13 -75 -23l-17 -87h-88z" />
<glyph unicode="&#x4ba;" horiz-adv-x="637" d="M30 0l137 710h129l-50 -257l-9 -34h2q87 38 175 38q87 0 130 -43t43 -117q0 -31 -6 -65l-46 -232h-131l43 219q5 38 5 43q0 79 -93 79q-77 0 -142 -39l-59 -302h-128z" />
<glyph unicode="&#x4bb;" horiz-adv-x="612" d="M11 0l138 710h127l-48 -246l-11 -45h2q23 40 75.5 71.5t112.5 31.5q71 0 112.5 -34t41.5 -105q0 -23 -7 -61l-62 -322h-127l58 298q5 28 5 46q0 62 -64 62t-116 -52t-66 -124l-44 -230h-127z" />
<glyph unicode="&#x4bc;" horiz-adv-x="889" d="M67 480q0 64 44 161h120q-47 -92 -47 -146q0 -62 55 -65q42 126 143.5 209t235.5 83q119 0 185 -68t66 -184q0 -62 -24 -140h-492q-10 -93 36 -158.5t146 -65.5q58 0 117 22.5t97 56.5l53 -102q-39 -33 -113 -64t-166 -31q-143 0 -225 82.5t-82 218.5q0 28 2 42 q-67 0 -109 38t-42 111zM373 430h366q5 27 5 45q0 59 -35.5 96t-103.5 37q-83 0 -146.5 -53t-85.5 -125z" />
<glyph unicode="&#x4bd;" horiz-adv-x="693" d="M39 357q0 53 32 112h102q-34 -56 -34 -101q0 -44 39 -49q31 90 105.5 146.5t174.5 56.5q96 0 148 -52.5t52 -139.5q0 -45 -17 -99h-351q-2 -6 -2 -19q0 -52 33 -84t94 -32q79 0 158 56l34 -97q-35 -27 -89.5 -47t-115.5 -20q-106 0 -174 60t-68 166v18q-59 3 -90 35 t-31 90zM308 318h224q2 14 2 22q0 41 -22 63.5t-61 22.5q-47 0 -85.5 -28.5t-57.5 -79.5z" />
<glyph unicode="&#x4be;" horiz-adv-x="890" d="M67 480q0 64 44 161h120q-47 -92 -47 -146q0 -62 55 -65q42 126 143.5 209t235.5 83q119 0 185 -68t66 -184q0 -62 -24 -140h-492q-10 -93 36 -158.5t146 -65.5q58 0 117 22.5t97 56.5l53 -102q-37 -31 -106 -61t-155 -33l-25 -129h-115l27 139q-101 25 -156.5 102 t-55.5 188q0 28 2 42q-67 0 -109 38t-42 111zM373 430h366q5 27 5 45q0 59 -35.5 96t-103.5 37q-83 0 -146.5 -53t-85.5 -125z" />
<glyph unicode="&#x4bf;" horiz-adv-x="695" d="M39 357q0 53 32 112h102q-34 -56 -34 -101q0 -44 39 -49q31 90 105.5 146.5t174.5 56.5q96 0 148 -52.5t52 -139.5q0 -45 -17 -99h-351q-2 -6 -2 -19q0 -52 33 -84t94 -32q79 0 158 56l34 -97q-31 -25 -80.5 -44t-105.5 -22l-21 -109h-111l23 121q-70 22 -111 77t-41 136 v18q-59 3 -90 35t-31 90zM308 318h224q2 14 2 22q0 41 -22 63.5t-61 22.5q-47 0 -85.5 -28.5t-57.5 -79.5z" />
<glyph unicode="&#x4c0;" horiz-adv-x="302" d="M29 0l138 710h129l-139 -710h-128z" />
<glyph unicode="&#x4c1;" horiz-adv-x="951" d="M-41 0l281 380v2l-139 328h133l120 -289h81l56 289h129l-57 -289h79l206 289h155l-259 -348v-2l132 -360h-133l-110 310h-92l-60 -310h-128l60 310h-79l-224 -310h-151zM568 742q-66 0 -108 31.5t-42 81.5q0 14 6 38h98q-3 -10 -3 -25q0 -23 14.5 -37t40.5 -14 q71 0 82 76h96q-12 -78 -63.5 -114.5t-120.5 -36.5z" />
<glyph unicode="&#x4c2;" horiz-adv-x="779" d="M-41 0l200 269v2l-91 239h124l76 -198h62l38 198h119l-38 -198h60l146 198h140l-195 -258v-2l107 -250h-132l-82 205h-65l-40 -205h-119l40 205h-63l-148 -205h-139zM445 559q-66 0 -108 31.5t-42 81.5q0 14 6 38h98q-3 -10 -3 -25q0 -23 14.5 -37t40.5 -14q71 0 82 76 h96q-12 -78 -63.5 -114.5t-120.5 -36.5z" />
<glyph unicode="&#x4c3;" horiz-adv-x="660" d="M29 0l138 710h129l-56 -289q66 0 90 -1l217 290h150l-245 -321q65 -30 98 -89t33 -134q0 -49 -12.5 -99.5t-39 -97t-63.5 -82t-90.5 -55t-115.5 -15.5l21 108q54 0 93.5 42t55.5 94.5t16 104.5q0 147 -159 147h-70l-61 -313h-129z" />
<glyph unicode="&#x4c4;" horiz-adv-x="555" d="M11 0l99 510h127l-38 -196q39 0 63 -2l154 198h150l-193 -234q101 -52 101 -178q0 -95 -59 -177.5t-151 -128.5l-52 89q62 29 102 89t40 123q0 113 -130 113h-46l-40 -206h-127z" />
<glyph unicode="&#x4c5;" horiz-adv-x="743" d="M418 0l117 599h-188l-18 -94q-51 -260 -139.5 -384.5t-235.5 -128.5l23 118q79 10 135 103.5t94 292.5l40 204h439l-117 -599h121l-14 -70l-114 -181h-91l67 140h-119z" />
<glyph unicode="&#x4c6;" horiz-adv-x="618" d="M-38 -5l21 112q111 18 154 243l31 160h372l-78 -403h98l-12 -67l-100 -160h-87l56 120h-103l79 407h-125l-10 -57q-35 -175 -103.5 -263.5t-192.5 -91.5z" />
<glyph unicode="&#x4c7;" horiz-adv-x="756" d="M29 0l138 710h129l-59 -301h325l59 301h128l-125 -647q-15 -79 -43.5 -132t-67.5 -77.5t-78.5 -33t-89.5 -4.5l22 113q48 -2 79.5 26t48.5 113l45 230h-325l-57 -298h-129z" />
<glyph unicode="&#x4c8;" horiz-adv-x="609" d="M11 0l99 510h127l-38 -197h218l38 197h127l-90 -464q-18 -96 -68 -153t-136 -101l-55 91q59 31 89.5 65t44.5 107l29 151h-218l-40 -206h-127z" />
<glyph unicode="&#x4c9;" horiz-adv-x="805" d="M29 0l138 710h129l-59 -301h325l59 301h128l-117 -599h123l-14 -70l-115 -181h-91l67 140h-120l58 298h-325l-58 -298h-128z" />
<glyph unicode="&#x4ca;" horiz-adv-x="665" d="M11 0l99 510h127l-39 -197h219l38 197h127l-79 -403h109l-12 -67l-100 -160h-86l56 120h-114l40 206h-218l-41 -206h-126z" />
<glyph unicode="&#x4cb;" horiz-adv-x="656" d="M264 264q-93 0 -142.5 42.5t-49.5 118.5q0 30 7 61l43 224h131l-39 -204q-5 -19 -5 -42q0 -83 95 -83q83 0 160 47l55 282h131l-138 -710h-120l-28 -140h-115l49 251h104l31 161l9 32h-2q-98 -40 -176 -40z" />
<glyph unicode="&#x4cc;" horiz-adv-x="540" d="M177 -120l39 202h87l21 108l7 26h-2q-59 -31 -133 -31t-115 33.5t-41 92.5q0 17 5 40l30 159h125l-24 -124q-1 -5 -2 -14t-2 -14.5t-1 -8.5q0 -61 70 -61q57 0 108 33l37 189h127l-99 -510h-100l-23 -120h-114z" />
<glyph unicode="&#x4cd;" horiz-adv-x="913" d="M3 0l192 710h138l72 -351l14 -104h2q32 61 56 104l208 351h140l-69 -599h119l-14 -70l-114 -181h-91l67 140h-106l49 397l20 110h-2q-36 -70 -60 -110l-168 -275h-114l-62 275l-17 112h-2q-10 -65 -22 -112l-107 -397h-129z" />
<glyph unicode="&#x4ce;" horiz-adv-x="799" d="M-10 0l144 510h141l60 -263l11 -66h2q19 37 36 66l163 263h144l-43 -403h106l-13 -67l-100 -160h-86l56 120h-95l36 276l16 87h-2q-19 -38 -43 -74l-143 -225h-105l-56 224l-15 76h-2q-10 -54 -18 -88l-72 -276h-122z" />
<glyph unicode="&#x4cf;" horiz-adv-x="266" d="M12 0l138 710h129l-139 -710h-128z" />
<glyph unicode="&#x4d0;" horiz-adv-x="653" d="M-46 0l381 710h146l109 -710h-129l-25 182h-249l-95 -182h-138zM239 287h185l-26 190l-8 110h-2q-28 -70 -48 -110zM422 742q-66 0 -108 31.5t-42 81.5q0 14 6 38h98q-3 -10 -3 -25q0 -23 14.5 -37t40.5 -14q71 0 82 76h96q-12 -78 -63.5 -114.5t-120.5 -36.5z" />
<glyph unicode="&#x4d1;" horiz-adv-x="534" d="M-3 120q0 46 22 82t56 57.5t79.5 36t88.5 19.5t87 5h19q3 16 3 32q0 65 -82 65q-70 0 -150 -48l-30 98q31 20 89 37.5t113 17.5q79 0 133 -37t54 -118q0 -20 -5 -52l-61 -315h-117l8 43l10 37h-2q-21 -34 -65.5 -63t-100.5 -29q-62 0 -105.5 35.5t-43.5 96.5zM122 140 q0 -24 16.5 -39.5t50.5 -15.5q47 0 89 42.5t52 91.5l3 14h-22q-28 0 -55 -3t-60 -11.5t-53.5 -29t-20.5 -49.5zM332 559q-66 0 -108 31.5t-42 81.5q0 14 6 38h98q-3 -10 -3 -25q0 -23 14.5 -37t40.5 -14q71 0 82 76h96q-12 -78 -63.5 -114.5t-120.5 -36.5z" />
<glyph unicode="&#x4d2;" horiz-adv-x="653" d="M-46 0l381 710h146l109 -710h-129l-25 182h-249l-95 -182h-138zM239 287h185l-26 190l-8 110h-2q-28 -70 -48 -110zM464 777l23 116h98l-23 -116h-98zM280 777l23 116h98l-23 -116h-98z" />
<glyph unicode="&#x4d3;" horiz-adv-x="534" d="M-3 120q0 46 22 82t56 57.5t79.5 36t88.5 19.5t87 5h19q3 16 3 32q0 65 -82 65q-70 0 -150 -48l-30 98q31 20 89 37.5t113 17.5q79 0 133 -37t54 -118q0 -20 -5 -52l-61 -315h-117l8 43l10 37h-2q-21 -34 -65.5 -63t-100.5 -29q-62 0 -105.5 35.5t-43.5 96.5zM122 140 q0 -24 16.5 -39.5t50.5 -15.5q47 0 89 42.5t52 91.5l3 14h-22q-28 0 -55 -3t-60 -11.5t-53.5 -29t-20.5 -49.5zM363 594l23 116h98l-23 -116h-98zM179 594l23 116h98l-23 -116h-98z" />
<glyph unicode="&#x4d4;" horiz-adv-x="914" d="M-54 0l428 710h565l-22 -111h-296l-36 -186h239l-22 -111h-239l-37 -191h311l-21 -111h-440l59 304h-168l-179 -304h-142zM328 409h127l37 190h-50z" />
<glyph unicode="&#x4d5;" horiz-adv-x="858" d="M-3 118q0 47 21.5 83.5t55 58.5t79.5 36t89 19t88 5h18q5 21 5 31q0 66 -83 66q-71 0 -149 -48l-30 98q99 55 201 55q106 0 149 -73h2q76 73 175 73t151.5 -52.5t52.5 -141.5q0 -45 -17 -96h-348q-3 -20 0 -37q5 -49 38 -74t83 -25q80 0 158 56l34 -97q-32 -26 -89 -46.5 t-109 -20.5q-154 0 -212 111h-2q-6 -12 -18 -27t-35.5 -36t-62 -34.5t-83.5 -13.5q-68 0 -115 34.5t-47 95.5zM476 320h219q2 8 2 21q0 39 -22.5 61t-58.5 22q-48 0 -84.5 -27.5t-55.5 -76.5zM125 140q0 -23 17 -38t49 -15q48 0 89.5 42.5t50.5 91.5l2 11h-33 q-27 0 -52.5 -3t-55.5 -12t-48.5 -28.5t-18.5 -48.5z" />
<glyph unicode="&#x4d6;" horiz-adv-x="569" d="M29 0l139 710h424l-22 -111h-296l-36 -186h239l-22 -111h-239l-37 -191h312l-21 -111h-441zM398 742q-66 0 -108 31.5t-42 81.5q0 14 6 38h98q-3 -10 -3 -25q0 -23 14.5 -37t40.5 -14q71 0 82 76h96q-12 -78 -63.5 -114.5t-120.5 -36.5z" />
<glyph unicode="&#x4d7;" horiz-adv-x="559" d="M26 207q0 131 84.5 223t210.5 92q100 0 152 -52.5t52 -140.5q0 -38 -17 -98h-352q-2 -16 -2 -24q0 -44 34.5 -77.5t92.5 -33.5q79 0 158 56l34 -97q-32 -26 -88.5 -46.5t-110.5 -20.5q-116 0 -182 62t-66 157zM174 318h224q2 7 2 22q0 41 -22 63.5t-59 22.5 q-49 0 -87.5 -29t-57.5 -79zM351 559q-66 0 -108 31.5t-42 81.5q0 14 6 38h98q-3 -10 -3 -25q0 -23 14.5 -37t40.5 -14q71 0 82 76h96q-12 -78 -63.5 -114.5t-120.5 -36.5z" />
<glyph unicode="&#x4d8;" horiz-adv-x="727" d="M43 250q0 68 26 149h492q3 17 3 28q0 81 -46.5 129t-131.5 48q-47 0 -97 -16t-76.5 -31t-45.5 -29l-52 100q14 12 45 30.5t100 41t139 22.5q142 0 220 -84.5t78 -219.5q0 -77 -27 -153t-75 -138t-122.5 -100.5t-162.5 -38.5q-121 0 -194 70.5t-73 191.5zM169 240 q0 -66 36 -102t107 -36q89 0 149.5 54t80.5 143h-367q-6 -26 -6 -59z" />
<glyph unicode="&#x4d9;" horiz-adv-x="564" d="M22 179q0 48 20 112h350q2 5 2 21q0 43 -36 75t-94 32q-48 0 -95.5 -18t-65.5 -33l-35 94q21 16 80 38t128 22q112 0 178.5 -61.5t66.5 -166.5q0 -124 -84.5 -215t-213.5 -91q-96 0 -148.5 52.5t-52.5 138.5zM139 169q0 -40 24.5 -61.5t64.5 -21.5q50 0 93.5 32.5 t60.5 86.5h-238q-5 -23 -5 -36z" />
<glyph unicode="&#x4da;" horiz-adv-x="726" d="M42 247q0 62 26 145h493q3 31 -1 56q-8 68 -53.5 112t-122.5 44q-58 0 -117.5 -22.5t-99.5 -53.5l-51 101q39 31 117.5 62t166.5 31q140 0 218.5 -88.5t78.5 -220.5q0 -77 -28 -153t-77.5 -136.5t-123.5 -98t-158 -37.5q-124 0 -196 71.5t-72 187.5zM168 241 q0 -64 37 -101.5t111 -37.5q82 0 142 53.5t82 136.5h-366q-6 -27 -6 -51zM487 777l23 116h98l-23 -116h-98zM303 777l23 116h98l-23 -116h-98z" />
<glyph unicode="&#x4db;" horiz-adv-x="564" d="M367 594l23 116h98l-23 -116h-98zM183 594l23 116h98l-23 -116h-98zM22 179q0 48 20 112h350q2 5 2 21q0 43 -36 75t-94 32q-48 0 -95.5 -18t-65.5 -33l-35 94q21 16 80 38t128 22q112 0 178.5 -61.5t66.5 -166.5q0 -124 -84.5 -215t-213.5 -91q-96 0 -148.5 52.5 t-52.5 138.5zM139 169q0 -40 24.5 -61.5t64.5 -21.5q50 0 93.5 32.5t60.5 86.5h-238q-5 -23 -5 -36z" />
<glyph unicode="&#x4dc;" horiz-adv-x="951" d="M610 777l23 116h98l-23 -116h-98zM426 777l23 116h98l-23 -116h-98zM-41 0l281 380v2l-139 328h133l120 -289h81l56 289h129l-57 -289h79l206 289h155l-259 -348v-2l132 -360h-133l-110 310h-92l-60 -310h-128l60 310h-79l-224 -310h-151z" />
<glyph unicode="&#x4dd;" horiz-adv-x="779" d="M487 594l23 116h98l-23 -116h-98zM303 594l23 116h98l-23 -116h-98zM-41 0l200 269v2l-91 239h124l76 -198h62l38 198h119l-38 -198h60l146 198h140l-195 -258v-2l107 -250h-132l-82 205h-65l-40 -205h-119l40 205h-63l-148 -205h-139z" />
<glyph unicode="&#x4de;" horiz-adv-x="555" d="M404 777l23 116h98l-23 -116h-98zM220 777l23 116h98l-23 -116h-98zM-13 90l75 83q55 -71 148 -71q63 0 107.5 34.5t44.5 91.5q0 79 -98 79h-98l20 105h81q51 0 91.5 33t40.5 83q0 37 -23 59t-70 22q-75 0 -156 -59l-47 94q101 78 220 78q95 0 153.5 -45t58.5 -127 q0 -63 -36.5 -111t-96.5 -71l-1 -2q42 -16 67.5 -52.5t25.5 -88.5q0 -104 -84.5 -170.5t-195.5 -66.5q-68 0 -129 27t-98 75z" />
<glyph unicode="&#x4df;" horiz-adv-x="457" d="M319 594l23 116h98l-23 -116h-98zM135 594l23 116h98l-23 -116h-98zM-21 60l59 81q57 -55 125 -55q40 0 70.5 22t30.5 61q0 49 -72 49h-64l17 88h55q37 0 65 18.5t28 53.5q0 48 -70 48q-57 0 -126 -42l-34 82q79 56 188 56q78 0 123.5 -34.5t45.5 -92.5q0 -91 -94 -130 v-2q65 -33 65 -104q0 -79 -64 -125t-154 -46q-55 0 -107 20t-87 52z" />
<glyph unicode="&#x4e0;" horiz-adv-x="533" d="M35 142q22 -18 64 -32.5t83 -14.5q68 0 117.5 37t49.5 94q0 41 -32 59.5t-106 18.5h-100l16 83l193 180q12 10 24 19t18 13l7 4l-1 2q-25 -3 -58 -3h-206l21 108h419l-19 -100l-202 -180l-39 -27v-2q101 -1 146 -47.5t45 -119.5q0 -107 -86.5 -175.5t-207.5 -68.5 q-108 0 -195 59z" />
<glyph unicode="&#x4e1;" horiz-adv-x="490" d="M-28 -58q22 -18 64 -32.5t83 -14.5q68 0 117.5 37t49.5 94q0 41 -32 59.5t-106 18.5h-100l16 83l193 180q12 10 24 19t19 13l6 4l-1 2q-25 -3 -58 -3h-206l21 108h419l-19 -100l-202 -180l-39 -27v-2q101 -1 146 -47.5t45 -119.5q0 -107 -86.5 -175.5t-207.5 -68.5 q-108 0 -195 59z" />
<glyph unicode="&#x4e2;" horiz-adv-x="754" d="M351 784l17 87h262l-16 -87h-263zM29 0l138 710h129l-80 -409l-28 -109h2q48 69 82 111l347 407h128l-138 -710h-128l79 408l27 109h-2q-46 -68 -80 -110l-348 -407h-128z" />
<glyph unicode="&#x4e3;" horiz-adv-x="607" d="M235 600l17 87h262l-16 -87h-263zM11 0l99 510h119l-53 -266l-14 -62h2q24 33 51 63l241 265h124l-100 -510h-118l51 265l15 62h-2q-25 -34 -51 -63l-241 -264h-123z" />
<glyph unicode="&#x4e4;" horiz-adv-x="754" d="M513 777l23 116h98l-23 -116h-98zM329 777l23 116h98l-23 -116h-98zM29 0l138 710h129l-80 -409l-28 -109h2q48 69 82 111l347 407h128l-138 -710h-128l79 408l27 109h-2q-46 -68 -80 -110l-348 -407h-128z" />
<glyph unicode="&#x4e5;" horiz-adv-x="607" d="M406 594l23 116h98l-23 -116h-98zM222 594l23 116h98l-23 -116h-98zM11 0l99 510h119l-53 -266l-14 -62h2q24 33 51 63l241 265h124l-100 -510h-118l51 265l15 62h-2q-25 -34 -51 -63l-241 -264h-123z" />
<glyph unicode="&#x4e6;" horiz-adv-x="822" d="M546 777l23 116h98l-23 -116h-98zM362 777l23 116h98l-23 -116h-98zM51 300q0 111 59.5 209t156.5 155.5t204 57.5q145 0 234.5 -85.5t89.5 -219.5q0 -113 -60.5 -213t-157.5 -158t-203 -58q-145 0 -234 87.5t-89 224.5zM183 307q0 -89 53.5 -145t138.5 -56q109 0 198 90 t89 213q0 87 -53.5 141t-138.5 54q-111 0 -199 -88t-88 -209z" />
<glyph unicode="&#x4e7;" horiz-adv-x="633" d="M415 594l23 116h98l-23 -116h-98zM231 594l23 116h98l-23 -116h-98zM25 214q0 129 96.5 218.5t219.5 89.5q111 0 181 -62.5t70 -162.5q0 -130 -96.5 -219.5t-219.5 -89.5q-111 0 -181 62.5t-70 163.5zM154 220q0 -56 34.5 -90t89.5 -34q71 0 128 55.5t57 137.5 q0 56 -35 90.5t-89 34.5q-71 0 -128 -56.5t-57 -137.5z" />
<glyph unicode="&#x4e8;" horiz-adv-x="822" d="M51 300q0 111 59.5 209t156.5 155.5t204 57.5q145 0 234.5 -85.5t89.5 -219.5q0 -113 -60.5 -213t-157.5 -158t-203 -58q-145 0 -234 87.5t-89 224.5zM180 307q0 -91 54.5 -147.5t140.5 -56.5q85 0 162 57.5t110 146.5h-467zM470 607q-87 0 -163.5 -56.5t-108.5 -143.5 h467v2q0 88 -54.5 143t-140.5 55z" />
<glyph unicode="&#x4e9;" horiz-adv-x="634" d="M26 217q0 127 96.5 216t224.5 89q105 0 175 -62.5t70 -166.5q0 -127 -97 -216t-224 -89q-106 0 -175.5 62.5t-69.5 166.5zM276 83q60 0 114 37.5t75 99.5h-323q1 -65 37.5 -101t96.5 -36zM342 427q-59 0 -111.5 -36t-75.5 -96h321q-3 62 -40 97t-94 35z" />
<glyph unicode="&#x4ea;" horiz-adv-x="822" d="M51 300q0 111 59.5 209t156.5 155.5t204 57.5q145 0 234.5 -85.5t89.5 -219.5q0 -113 -60.5 -213t-157.5 -158t-203 -58q-145 0 -234 87.5t-89 224.5zM180 307q0 -91 54.5 -147.5t140.5 -56.5q85 0 162 57.5t110 146.5h-467zM470 607q-87 0 -163.5 -56.5t-108.5 -143.5 h467v2q0 88 -54.5 143t-140.5 55zM362 777l23 116h98l-23 -116h-98zM546 777l23 116h98l-23 -116h-98z" />
<glyph unicode="&#x4eb;" horiz-adv-x="634" d="M26 217q0 127 96.5 216t224.5 89q105 0 175 -62.5t70 -166.5q0 -127 -97 -216t-224 -89q-106 0 -175.5 62.5t-69.5 166.5zM276 83q60 0 114 37.5t75 99.5h-323q1 -65 37.5 -101t96.5 -36zM342 427q-59 0 -111.5 -36t-75.5 -96h321q-3 62 -40 97t-94 35zM234 594l23 116 h98l-23 -116h-98zM418 594l23 116h98l-23 -116h-98z" />
<glyph unicode="&#x4ec;" horiz-adv-x="718" d="M196 303l20 105h342v5q0 91 -51.5 141.5t-140.5 50.5q-112 0 -213 -78l-56 95q125 100 276 100q149 0 233.5 -85t84.5 -218q0 -112 -58 -211.5t-158.5 -159.5t-215.5 -60q-75 0 -147 27.5t-120 81.5l73 87q33 -37 85.5 -58t110.5 -21q96 0 170.5 55.5t106.5 142.5h-342z M275 777l23 116h98l-23 -116h-98zM459 777l23 116h98l-23 -116h-98z" />
<glyph unicode="&#x4ed;" horiz-adv-x="546" d="M146 212l17 87h224q-1 62 -39.5 92t-94.5 30q-83 0 -147 -56l-48 85q37 34 94 53t114 19q112 0 175.5 -64t63.5 -162q0 -124 -95 -216t-231 -92q-54 0 -109 19.5t-87 56.5l54 84q24 -27 63.5 -43t81.5 -16q63 0 113.5 34t74.5 89h-224zM169 594l23 116h98l-23 -116h-98z M353 594l23 116h98l-23 -116h-98z" />
<glyph unicode="&#x4ee;" horiz-adv-x="612" d="M267 783l17 87h262l-16 -87h-263zM15 38l64 92q35 -31 81 -31t84 64l-171 547h133l91 -317l23 -95h2q21 48 47 94l173 318h144l-326 -561q-43 -75 -90.5 -118t-114.5 -43q-77 0 -140 50z" />
<glyph unicode="&#x4ef;" horiz-adv-x="548" d="M-20 -85q23 -18 54 -18q61 0 101 65l28 46l-117 502h132l58 -309l6 -65h2q16 37 29 63l161 311h142l-342 -588q-38 -66 -89.5 -99t-104.5 -33q-64 0 -117 36zM203 600l17 87h262l-16 -87h-263z" />
<glyph unicode="&#x4f0;" horiz-adv-x="612" d="M443 777l23 116h98l-23 -116h-98zM259 777l23 116h98l-23 -116h-98zM15 38l64 92q35 -31 81 -31t84 64l-171 547h133l91 -317l23 -95h2q21 48 47 94l173 318h144l-326 -561q-43 -75 -90.5 -118t-114.5 -43q-77 0 -140 50z" />
<glyph unicode="&#x4f1;" horiz-adv-x="548" d="M-20 -85q23 -18 54 -18q61 0 101 65l28 46l-117 502h132l58 -309l6 -65h2q16 37 29 63l161 311h142l-342 -588q-38 -66 -89.5 -99t-104.5 -33q-64 0 -117 36zM372 594l23 116h98l-23 -116h-98zM188 594l23 116h98l-23 -116h-98z" />
<glyph unicode="&#x4f2;" horiz-adv-x="612" d="M15 38l64 92q35 -31 81 -31t84 64l-171 547h133l91 -317l23 -95h2q21 48 47 94l173 318h144l-326 -561q-43 -75 -90.5 -118t-114.5 -43q-77 0 -140 50zM426 757l103 136h130l-131 -136h-102zM250 757l99 136h113l-102 -136h-110z" />
<glyph unicode="&#x4f3;" horiz-adv-x="548" d="M-20 -85q23 -18 54 -18q61 0 101 65l28 46l-117 502h132l58 -309l6 -65h2q16 37 29 63l161 311h142l-342 -588q-38 -66 -89.5 -99t-104.5 -33q-64 0 -117 36zM351 574l103 136h130l-131 -136h-102zM175 574l99 136h113l-102 -136h-110z" />
<glyph unicode="&#x4f4;" horiz-adv-x="656" d="M450 777l23 116h98l-23 -116h-98zM266 777l23 116h98l-23 -116h-98zM264 264q-93 0 -142.5 42.5t-49.5 118.5q0 30 7 61l43 224h131l-39 -204q-5 -19 -5 -42q0 -83 95 -83q83 0 160 47l55 282h131l-138 -710h-131l52 272l9 32h-2q-98 -40 -176 -40z" />
<glyph unicode="&#x4f5;" horiz-adv-x="542" d="M358 594l23 116h98l-23 -116h-98zM174 594l23 116h98l-23 -116h-98zM195 172q-74 0 -114.5 33t-40.5 93q0 21 4 41l33 171h125l-27 -137q-1 -5 -2 -14t-2 -14.5t-1 -8.5q0 -27 17 -44t53 -17q60 0 108 33l40 202h127l-100 -510h-127l35 177l7 26h-2q-59 -31 -133 -31z " />
<glyph unicode="&#x4f6;" horiz-adv-x="513" d="M29 0l138 710h408l-21 -111h-280l-95 -488h105l-49 -251h-115l27 140h-118z" />
<glyph unicode="&#x4f7;" horiz-adv-x="427" d="M11 0l99 510h335l-21 -108h-209l-57 -294h90l-43 -228h-114l23 120h-103z" />
<glyph unicode="&#x4f8;" horiz-adv-x="877" d="M574 777l23 116h98l-23 -116h-98zM390 777l23 116h98l-23 -116h-98zM604 0l138 710h128l-138 -710h-128zM29 0l138 710h129l-49 -249h127q87 0 137.5 -51.5t50.5 -140.5q0 -110 -76.5 -189.5t-188.5 -79.5h-268zM179 111h112q60 0 100 42.5t40 107.5q0 41 -25.5 65 t-70.5 24h-110z" />
<glyph unicode="&#x4f9;" horiz-adv-x="744" d="M472 594l23 116h98l-23 -116h-98zM288 594l23 116h98l-23 -116h-98zM491 0l99 510h127l-100 -510h-126zM11 0l99 510h127l-35 -175h91q79 0 122 -36.5t43 -106.5q0 -87 -59.5 -139.5t-160.5 -52.5h-227zM154 87h71q43 0 73 27.5t30 70.5q0 64 -73 64h-69z" />
<glyph unicode="&#x524;" horiz-adv-x="787" d="M29 0l138 710h575l-117 -599h104l-49 -251h-115l28 140h-118l117 599h-318l-116 -599h-129z" />
<glyph unicode="&#x525;" horiz-adv-x="643" d="M11 0l99 510h465l-79 -402h90l-44 -228h-114l23 120h-102l78 402h-211l-78 -402h-127z" />
<glyph unicode="&#x1e9e;" horiz-adv-x="686" d="M24 0l98 507q17 91 81.5 147t153.5 56h337l-17 -89l-154 -181l-29 -32v-2q58 -10 95.5 -54t37.5 -111q0 -72 -43.5 -134.5t-112.5 -89.5q-45 -17 -139 -17h-101l21 111h90q57 0 83 11q31 14 50.5 45t19.5 65q0 37 -22.5 56t-78.5 19h-64l18 89l114 141q16 21 29.5 36.5 t19.5 20.5l6 5v2q-6 -2 -42 -2h-116q-39 0 -70 -29t-39 -72l-98 -498h-128z" />
<glyph unicode="&#x2009;" horiz-adv-x="16" />
<glyph unicode="&#x2013;" horiz-adv-x="689" d="M56 236l18 99h554l-19 -99h-553z" />
<glyph unicode="&#x2014;" horiz-adv-x="885" d="M54 236l19 99h753l-18 -99h-754z" />
<glyph unicode="&#x2018;" horiz-adv-x="268" d="M93 504l116 218h94l-89 -218h-121z" />
<glyph unicode="&#x2019;" horiz-adv-x="263" d="M97 504l89 218h122l-117 -218h-94z" />
<glyph unicode="&#x201a;" horiz-adv-x="275" d="M58 129h121l-116 -218h-95z" />
<glyph unicode="&#x201c;" horiz-adv-x="432" d="M256 504l117 218h94l-90 -218h-121zM93 504l116 218h94l-89 -218h-121z" />
<glyph unicode="&#x201d;" horiz-adv-x="426" d="M261 504l89 218h121l-116 -218h-94zM97 504l89 218h122l-117 -218h-94z" />
<glyph unicode="&#x201e;" horiz-adv-x="438" d="M132 -89l89 218h121l-116 -218h-94zM-32 -89l90 218h121l-116 -218h-95z" />
<glyph unicode="&#x2020;" horiz-adv-x="456" d="M98 -50l90 461h-124l19 99h124l39 200h122l-39 -200h127l-19 -99h-127l-90 -461h-122z" />
<glyph unicode="&#x2021;" horiz-adv-x="479" d="M110 -50l41 213h-124l19 98h124l30 150h-124l19 99h124l39 200h121l-38 -200h126l-19 -99h-126l-30 -150h126l-19 -98h-126l-41 -213h-122z" />
<glyph unicode="&#x2022;" horiz-adv-x="497" d="M247 124q-69 0 -118 49t-49 118t49 118t118 49q70 0 118.5 -49t48.5 -118t-48.5 -118t-118.5 -49z" />
<glyph unicode="&#x2026;" horiz-adv-x="826" d="M579 0l25 128h124l-25 -128h-124zM295 0l24 128h124l-25 -128h-123zM10 0l24 128h124l-25 -128h-123z" />
<glyph unicode="&#x2030;" horiz-adv-x="1185" d="M244 406q-66 0 -106.5 39t-40.5 102q0 67 57 121t128 54q65 0 106 -40.5t41 -101.5q0 -68 -57 -121t-128 -53zM26 0l669 710h123l-670 -710h-122zM253 498q31 0 54.5 23t23.5 55q0 24 -15.5 39t-42.5 15q-30 0 -54 -24t-24 -55q0 -23 16 -38t42 -15zM790 128 q0 68 56.5 121.5t128.5 53.5q65 0 106 -40.5t41 -101.5q0 -68 -57 -120.5t-128 -52.5q-66 0 -106.5 39t-40.5 101zM415 128q0 67 57 121t128 54q65 0 106 -40.5t41 -101.5q0 -68 -57 -120.5t-128 -52.5q-66 0 -106.5 39t-40.5 101zM888 133q0 -24 15.5 -38.5t42.5 -14.5 q31 0 54.5 23t23.5 55q0 23 -16 38.5t-42 15.5q-30 0 -54 -24t-24 -55zM513 133q0 -23 16 -38t42 -15q31 0 54.5 23t23.5 55q0 23 -16 38.5t-42 15.5q-29 0 -53.5 -24t-24.5 -55z" />
<glyph unicode="&#x2039;" horiz-adv-x="368" d="M165 77l-129 206l191 205h127l-201 -211l128 -200h-116z" />
<glyph unicode="&#x203a;" horiz-adv-x="366" d="M7 77l201 211l-129 200h116l129 -206l-191 -205h-126z" />
<glyph unicode="&#x2044;" horiz-adv-x="180" d="M-86 0h-98l473 710h98z" />
<glyph unicode="&#x2070;" d="M234 413q-143 0 -143 150q0 48 11 98.5t33 99.5t63 80t94 31q143 0 143 -151q0 -48 -11 -98.5t-33 -99t-63 -79.5t-94 -31zM234 500q48 0 75.5 68.5t27.5 146.5q0 69 -46 69q-33 0 -57.5 -36.5t-35 -84t-10.5 -95.5q0 -68 46 -68z" />
<glyph unicode="&#x2074;" d="M243 423l19 99h-204l12 64l238 276h113l-50 -258h59l-16 -82h-58l-20 -99h-93zM176 604h102l21 110l15 55h-2q-17 -27 -35 -47l-101 -116v-2z" />
<glyph unicode="&#x2075;" d="M222 413q-42 0 -83 17.5t-68 49.5l60 62q33 -42 91 -42q33 0 61 23t28 57q0 25 -19 41t-48 16q-36 0 -74 -18l-50 19l66 224h247l-16 -84h-168l-14 -47l-9 -25l1 -1q21 8 47 8q57 0 95.5 -37t38.5 -92q0 -66 -54 -118.5t-132 -52.5z" />
<glyph unicode="&#x2076;" d="M244 413q-67 0 -109 43t-42 120q0 62 29.5 129t89 117t131.5 50q60 0 102 -25l-40 -76q-33 13 -65 13q-38 0 -69.5 -27t-49.5 -70h2q29 21 67 21q55 0 90 -34.5t35 -87.5q0 -70 -50 -121.5t-121 -51.5zM248 500q31 0 51 25t20 57q0 24 -14.5 39.5t-42.5 15.5 q-31 0 -51.5 -18.5t-20.5 -45.5q0 -30 16 -51.5t42 -21.5z" />
<glyph unicode="&#x2077;" d="M72 423l236 317l32 38v2q-19 -2 -40 -2h-161l16 84h314l-12 -65l-276 -374h-109z" />
<glyph unicode="&#x2078;" d="M233 413q-66 0 -111.5 32t-45.5 89q0 41 30 75.5t63 55.5q-32 29 -32 69q0 64 49.5 101t111.5 37q63 0 102 -29t39 -77q0 -27 -18 -58t-33 -46t-26 -25q47 -33 47 -82q0 -62 -54.5 -102t-121.5 -40zM299 671q7 6 16 15.5t19.5 28.5t10.5 37t-15.5 28t-36.5 10 q-25 0 -45 -13.5t-20 -39.5q0 -15 12 -28t22.5 -19t36.5 -19zM235 494q28 0 52.5 17t24.5 43q0 8 -4 16t-8.5 13.5t-14.5 12t-16.5 10t-20.5 11t-20 10.5q-55 -41 -55 -83q0 -23 18.5 -36.5t43.5 -13.5z" />
<glyph unicode="&#x2079;" d="M80 437l40 77q23 -13 65 -13q38 0 69.5 26.5t49.5 69.5h-2q-32 -21 -67 -21q-55 0 -90 34.5t-35 88.5q0 70 50 121.5t121 51.5q67 0 109 -43t42 -120q0 -62 -29.5 -129t-89 -117t-131.5 -50q-58 0 -102 24zM263 648q31 0 51 18t20 45q0 31 -15.5 52t-41.5 21 q-31 0 -51 -25t-20 -57q0 -24 14.5 -39t42.5 -15z" />
<glyph unicode="&#x2080;" d="M121 -167q-143 0 -143 150q0 48 11 98.5t33 99.5t63 80t94 31q143 0 143 -151q0 -48 -11 -98.5t-33 -99t-63 -79.5t-94 -31zM121 -80q48 0 75.5 68.5t27.5 146.5q0 69 -46 69q-33 0 -57.5 -36.5t-35 -84t-10.5 -95.5q0 -68 46 -68z" />
<glyph unicode="&#x2081;" d="M-20 -157l16 83h92l38 201l9 29h-2q-6 -10 -19 -20l-35 -27l-46 64l135 109h84l-69 -356h91l-16 -83h-278z" />
<glyph unicode="&#x2082;" d="M-43 -157q0 51 20 92t49.5 65t63.5 46t63 36.5t48.5 35.5t19.5 44q0 19 -14.5 30.5t-37.5 11.5q-39 0 -89 -46l-56 60q74 74 152 74q61 0 102 -32.5t41 -88.5q0 -51 -34.5 -91t-77 -60.5t-82 -45.5t-47.5 -48h201l-17 -83h-305z" />
<glyph unicode="&#x2083;" d="M108 -167q-94 0 -154 67l57 62q36 -42 98 -42q33 0 57 20.5t24 50.5q0 23 -19.5 36t-48.5 13h-35l-14 45l94 90l29 24v2q-20 -3 -35 -3h-125l16 84h280l-11 -61l-120 -112q36 -10 61.5 -40.5t25.5 -74.5q0 -63 -51 -112t-129 -49z" />
<glyph unicode="&#x2084;" d="M130 -157l19 99h-204l12 64l238 276h113l-50 -258h59l-16 -82h-58l-20 -99h-93zM63 24h102l21 110l15 55h-2q-17 -27 -35 -47l-101 -116v-2z" />
<glyph unicode="&#x2085;" d="M109 -167q-42 0 -83 17.5t-68 49.5l60 62q33 -42 91 -42q33 0 61 23t28 57q0 25 -19 41t-48 16q-36 0 -74 -18l-50 19l66 224h247l-16 -84h-168l-14 -47l-9 -25l1 -1q21 8 47 8q57 0 95.5 -37t38.5 -92q0 -66 -54 -118.5t-132 -52.5z" />
<glyph unicode="&#x2086;" d="M132 -167q-67 0 -109 43t-42 120q0 62 29.5 129t89 117t131.5 50q60 0 102 -25l-40 -76q-33 13 -65 13q-38 0 -69.5 -27t-49.5 -70h2q29 21 67 21q55 0 90 -34.5t35 -87.5q0 -70 -50 -121.5t-121 -51.5zM136 -80q31 0 51 25t20 57q0 24 -14.5 39.5t-42.5 15.5 q-31 0 -51.5 -18.5t-20.5 -45.5q0 -30 16 -51.5t42 -21.5z" />
<glyph unicode="&#x2087;" d="M-40 -157l236 317l32 38v2q-19 -2 -40 -2h-161l16 84h314l-12 -65l-276 -374h-109z" />
<glyph unicode="&#x2088;" d="M120 -166q-66 0 -111.5 32t-45.5 89q0 41 30 75.5t63 55.5q-32 29 -32 69q0 64 49.5 101t111.5 37q63 0 102 -29t39 -77q0 -27 -18 -58t-33 -46t-26 -25q47 -33 47 -82q0 -62 -54.5 -102t-121.5 -40zM186 92q7 6 16 15.5t19.5 28.5t10.5 37t-15.5 28t-36.5 10 q-25 0 -45 -13.5t-20 -39.5q0 -15 12 -28t22.5 -19t36.5 -19zM122 -85q28 0 52.5 17t24.5 43q0 8 -4 16t-8.5 13.5t-14.5 12t-16.5 10t-20.5 11t-20 10.5q-55 -41 -55 -83q0 -23 18.5 -36.5t43.5 -13.5z" />
<glyph unicode="&#x2089;" d="M-32 -143l40 77q23 -13 65 -13q38 0 69.5 26.5t49.5 69.5h-2q-32 -21 -67 -21q-55 0 -90 34.5t-35 88.5q0 70 50 121.5t121 51.5q67 0 109 -43t42 -120q0 -62 -29.5 -129t-89 -117t-131.5 -50q-58 0 -102 24zM151 68q31 0 51 18t20 45q0 31 -15.5 52t-41.5 21 q-31 0 -51 -25t-20 -57q0 -24 14.5 -39t42.5 -15z" />
<glyph unicode="&#x20ac;" horiz-adv-x="586" d="M17 250l15 76h55q2 32 9 62h-52l15 77h62q51 114 151.5 185.5t221.5 71.5q67 0 128 -19l-52 -111q-46 10 -77 10q-70 0 -131.5 -37t-97.5 -100h256l-30 -77h-259q-8 -33 -11 -62h246l-31 -76h-205q12 -63 56 -101.5t116 -38.5q48 0 96 14l1 -120q-46 -16 -103 -16 q-126 0 -208.5 71.5t-97.5 190.5h-73z" />
<glyph unicode="&#x2116;" horiz-adv-x="1080" d="M757 441q0 68 54 121.5t126 53.5q59 0 96 -37.5t37 -92.5q0 -68 -54.5 -120.5t-126.5 -52.5q-59 0 -95.5 36t-36.5 92zM852 451q0 -22 13.5 -36t35.5 -14q29 0 52 22.5t23 53.5q0 22 -14 36t-36 14q-29 0 -51.5 -22.5t-22.5 -53.5zM712 171l17 88h286l-17 -88h-286zM25 0 l138 710h123l189 -410q8 -19 17.5 -46.5t14.5 -45.5l5 -18h2q6 68 14 110l80 410h129l-139 -710h-121l-190 409q-8 19 -17.5 46.5t-15.5 45.5l-5 18h-2q-6 -68 -14 -110l-80 -409h-128z" />
<glyph unicode="&#x2122;" horiz-adv-x="1067" d="M550 267l35 443h88l92 -209l13 -42h2q7 25 14 42l91 209h89l34 -443h-96l-16 228l1 31h-2l-78 -178h-75l-78 178h-2l1 -31l-18 -228h-95zM280 267v359h-148v84h391v-84h-148v-359h-95z" />
<glyph unicode="&#x2212;" horiz-adv-x="586" d="M26 236v99h528v-99h-528z" />
<glyph unicode="&#x221e;" horiz-adv-x="499" d="M259 157q-79 0 -135 56.5t-56 135.5t56 135t135 56t135 -56t56 -135t-56 -135.5t-135 -56.5z" />
<glyph unicode="&#x2248;" horiz-adv-x="586" d="M84 322l-50 74q76 76 157 76q50 0 107.5 -35t90.5 -35q58 0 107 55l49 -75q-74 -76 -156 -76q-50 0 -107.5 35t-90.5 35q-55 0 -107 -54zM84 117l-50 75q77 75 157 75q50 0 107.5 -35t90.5 -35q58 0 107 55l49 -75q-75 -75 -156 -75q-50 0 -107.5 35t-90.5 35 q-54 0 -107 -55z" />
<glyph unicode="&#x2260;" horiz-adv-x="586" d="M97 63l49 71h-102v98h166l73 107h-239v98h304l77 112l61 -40l-50 -72h96v-98h-160l-74 -107h234v-98h-298l-75 -110z" />
<glyph unicode="&#x2264;" horiz-adv-x="586" d="M11 245v82l481 214v-111l-347 -143v-2l347 -143v-111zM13 -85h479v-98h-479v98z" />
<glyph unicode="&#x2265;" horiz-adv-x="586" d="M32 31v111l346 143v2l-346 143v111l481 -214v-82zM32 -85h479v-98h-479v98z" />
<glyph unicode="&#x25fc;" horiz-adv-x="510" d="M0 510h510v-510h-510v510z" />
<glyph unicode="&#xf6c3;" horiz-adv-x="335" d="M59 -55h105v-16q0 -63 -49 -135h-93q40 72 40 122q0 12 -3 29z" />
<glyph unicode="&#xf6d4;" horiz-adv-x="276" d="M231 742q-66 0 -108 31.5t-42 81.5q0 14 6 38h98q-3 -10 -3 -25q0 -23 14.5 -37t40.5 -14q71 0 82 76h96q-12 -78 -63.5 -114.5t-120.5 -36.5z" />
<glyph unicode="&#xf8ff;" horiz-adv-x="1130" d="M167 -5v152l-126 72v278l126 71v151l265 142l134 -71l132 71l265 -142v-151l124 -71v-278l-124 -72v-152l-265 -141l-132 71l-134 -71zM207 30l238 -126l121 66l118 -66l238 126v139l114 64v249l-114 66v136l-238 126l-118 -64l-121 64l-238 -126v-136l-114 -66v-249 l114 -64v-139zM241 64v121l-99 60v225l99 58v123l215 114l110 -59l107 59l214 -114v-123l100 -58v-225l-100 -60v-121l-214 -114l-107 58l-110 -58zM446 91h43v228h228v40h-228v192h199q17 0 23 -6.5t6 -22.5v-42h42v54q0 30 -13 43.5t-45 13.5h-320v-40h65v-460z" />
<glyph horiz-adv-x="586" d="M33 228q0 58 10 121t34 131t59.5 120.5t93 87t127.5 34.5q219 0 219 -239q0 -58 -10 -121t-34.5 -131t-60 -121t-92.5 -87.5t-127 -34.5q-219 0 -219 240zM165 232q0 -126 91 -126q47 0 85 39t59 98.5t32 120t11 112.5q0 127 -91 127q-46 0 -83.5 -38.5t-59 -97t-33 -120 t-11.5 -115.5z" />
<glyph horiz-adv-x="586" d="M38 0l20 111h154l76 384l11 48h-2q-12 -18 -40 -40l-66 -54l-66 88l217 173h113l-117 -599h153l-21 -111h-432z" />
<glyph horiz-adv-x="586" d="M5 0q1 52 16.5 98t36.5 78t57.5 65t64.5 52t72 46q8 5 25 15q34 20 50.5 30.5t41 28.5t36 32t20.5 33t9 39q0 39 -26 61t-67 22q-86 0 -147 -84l-91 71q108 135 251 135q90 0 152 -51.5t62 -139.5q0 -29 -8.5 -56.5t-19.5 -48.5t-34 -44.5t-38.5 -38t-47.5 -35.5 t-47 -30.5t-49 -29.5q-49 -29 -74 -45.5t-49 -41.5t-30 -50h326l-22 -111h-470z" />
<glyph horiz-adv-x="586" d="M-1 83l76 91q57 -64 156 -64q66 0 109.5 36.5t43.5 90.5q0 44 -35.5 66.5t-94.5 22.5h-57l-15 66l154 154q15 15 30.5 28.5t23.5 19.5l9 6v2q-23 -3 -64 -3h-205l21 111h433l-15 -81l-212 -207q60 -9 108.5 -54t48.5 -126q0 -101 -78 -177.5t-204 -76.5q-148 0 -233 95z " />
<glyph horiz-adv-x="586" d="M-7 183l15 79l382 448h164l-81 -420h91l-21 -107h-91l-36 -183h-127l36 183h-332zM157 290h189l42 220l19 74h-2q-24 -37 -47 -65l-201 -227v-2z" />
<glyph horiz-adv-x="586" d="M10 84l79 90q58 -64 142 -64q66 0 114 41t48 100q0 48 -34 75.5t-89 27.5q-28 0 -57 -7.5t-43 -14.5l-15 -8l-71 27l103 359h377l-21 -111h-262l-34 -115l-11 -33h2q33 14 78 14q91 0 150.5 -58.5t59.5 -149.5q0 -111 -86.5 -190t-210.5 -79q-64 0 -122.5 24.5 t-96.5 71.5z" />
<glyph horiz-adv-x="586" d="M41 252q0 73 27.5 154t76 152t125.5 117.5t167 46.5q91 0 155 -32l-55 -104q-49 17 -98 17q-78 0 -137 -54.5t-90 -135.5h2q22 23 58.5 36.5t71.5 13.5q94 0 145.5 -56t51.5 -146q0 -104 -73.5 -188.5t-187.5 -84.5q-105 0 -172 70.5t-67 193.5zM172 245q0 -57 31 -98 t78 -41q57 0 95 45t38 106q0 45 -27.5 72.5t-80.5 27.5t-93.5 -32.5t-40.5 -79.5z" />
<glyph horiz-adv-x="586" d="M31 0l370 534q13 20 27 36t22 22l7 7v2q-14 -2 -50 -2h-294l22 111h488l-17 -90l-432 -620h-143z" />
<glyph horiz-adv-x="586" d="M18 186q0 39 18 76t47 65t46.5 42t34.5 25q-56 51 -56 117q0 82 68.5 146.5t182.5 64.5q98 0 156 -47t58 -129q0 -33 -14.5 -68.5t-37 -64t-36.5 -44t-27 -26.5q70 -52 70 -126q0 -92 -78.5 -160.5t-197.5 -68.5q-109 0 -171.5 54.5t-62.5 143.5zM365 395q78 70 78 140 q0 34 -24 53t-66 19q-52 0 -84 -28t-32 -68q0 -9 2 -17.5t7.5 -16.5t9.5 -14t14 -13.5t15.5 -11.5t19 -11.5t18.5 -10.5t21.5 -11t20.5 -10zM153 195q0 -41 29 -67t73 -26q55 0 97.5 32t42.5 83q0 16 -7 29.5t-25 26.5t-29.5 20.5t-42 22.5t-40.5 21q-98 -69 -98 -142z" />
<glyph horiz-adv-x="586" d="M17 19l56 105q43 -18 98 -18q78 0 136.5 54.5t89.5 135.5h-2q-15 -18 -52 -34t-78 -16q-94 0 -145.5 56.5t-51.5 145.5q0 104 74.5 189t188.5 85q106 0 172 -70t66 -194q0 -58 -17 -122t-51 -126t-80.5 -111.5t-111.5 -80t-137 -30.5q-93 0 -155 31zM303 352 q52 0 93.5 33t41.5 80q0 57 -31 97.5t-79 40.5q-57 0 -95 -44.5t-38 -105.5q0 -45 27.5 -73t80.5 -28z" />
<glyph horiz-adv-x="434" d="M65 292l21 111h301l-21 -111h-301z" />
<glyph horiz-adv-x="309" d="M102 -65q-55 132 -55 271q0 323 210 565h111q-209 -260 -209 -568q0 -140 46 -268h-103z" />
<glyph horiz-adv-x="309" d="M-37 -65q209 260 209 568q0 144 -46 268h103q55 -130 55 -271q0 -325 -210 -565h-111z" />
<glyph horiz-adv-x="322" d="M9 -65l163 836h197l-18 -92h-89l-126 -652h89l-18 -92h-198z" />
<glyph horiz-adv-x="321" d="M-8 27h89l126 652h-89l19 92h197l-163 -836h-196z" />
<glyph horiz-adv-x="371" d="M81 64q0 19 5 47l17 87q3 15 3 28q0 32 -18 52t-50 24l22 111q40 4 68 32.5t37 73.5l19 95q31 160 208 160q5 0 15 -0.5t15 -0.5l-18 -94l-6 1h-12q-81 0 -97 -85l-24 -119q-8 -43 -37 -74t-70 -44v-2q28 -12 44.5 -40.5t16.5 -63.5q0 -14 -3 -31l-22 -110q-2 -9 -2 -26 q0 -59 68 -59q11 0 18 1l-19 -94q-12 -2 -31 -2t-40.5 5t-47.5 17.5t-42.5 41t-16.5 69.5z" />
<glyph horiz-adv-x="370" d="M7 26q80 0 96 85l25 127q9 45 37.5 76.5t69.5 43.5v2q-60 26 -60 103q0 13 3 31l19 101q3 13 3 26q0 59 -69 59q-4 0 -10 -0.5t-8 -0.5l19 94q7 1 31 1q15 0 31 -2.5t38 -10.5t38.5 -22t28 -39.5t11.5 -58.5q0 -18 -5 -46l-15 -78q-3 -17 -3 -28q0 -32 18 -52.5t50 -23.5 l-22 -111q-33 -5 -64 -30.5t-41 -76.5l-21 -104q-33 -160 -208 -160q-8 0 -30 2l18 94q6 -1 20 -1z" />
<glyph horiz-adv-x="817" d="M58 289q0 115 60.5 216t162.5 160.5t218 59.5q131 0 190 -50t59 -134q0 -21 -5 -48l-45 -235h72l-17 -91h-265q-91 0 -142.5 47t-51.5 118q0 79 68.5 141.5t172.5 62.5h97q0 2 0.5 6t0.5 7q0 34 -37.5 54.5t-97.5 20.5q-126 0 -220 -102t-94 -226q0 -93 59.5 -153 t165.5 -60l-19 -97q-146 0 -239 85.5t-93 217.5zM421 335q0 -34 21.5 -55.5t59.5 -21.5h76l38 196h-74q-50 0 -85.5 -36t-35.5 -83z" />
<glyph horiz-adv-x="601" d="M400 137l-129 206l210 205h128l-221 -211l128 -200h-116zM177 137l-129 206l191 205h127l-201 -211l128 -200h-116z" />
<glyph horiz-adv-x="602" d="M254 137l201 211l-128 200h116l129 -206l-192 -205h-126zM11 137l221 211l-128 200h116l129 -206l-210 -205h-128z" />
<glyph horiz-adv-x="369" d="M177 137l-129 206l191 205h127l-201 -211l128 -200h-116z" />
<glyph horiz-adv-x="365" d="M17 137l201 211l-129 200h116l130 -206l-192 -205h-126z" />
<glyph horiz-adv-x="687" d="M66 296l18 99h554l-19 -99h-553z" />
<glyph horiz-adv-x="888" d="M67 296l18 99h754l-19 -99h-753z" />
<glyph horiz-adv-x="257" d="M63 281l24 129h124l-24 -129h-124z" />
<glyph horiz-adv-x="488" d="M275 591l23 119h123l-23 -119h-123zM20 156q0 49 21.5 89.5t54 67.5t65 50.5t58.5 50t32 54.5l8 37h122l-9 -46q-8 -42 -34 -77.5t-56 -59.5t-59.5 -46t-49 -48t-19.5 -55q0 -30 22.5 -49.5t59.5 -19.5q55 0 114 43l57 -95q-35 -27 -87.5 -45.5t-102.5 -18.5 q-84 0 -140.5 45t-56.5 123z" />
<glyph horiz-adv-x="289" d="M139 591l23 119h123l-23 -119h-123zM21 0l109 505h111l-88 -505h-132z" />
<glyph horiz-adv-x="496" d="M258 187q-69 0 -117.5 49t-48.5 118q0 70 48.5 118.5t117.5 48.5q70 0 118.5 -48.5t48.5 -118.5q0 -69 -48.5 -118t-118.5 -49z" />
<glyph horiz-adv-x="588" d="M36 207q0 61 19 123t54.5 114.5t92 85t124.5 32.5q111 0 164 -61.5t53 -159.5q0 -85 -32 -164t-100 -134t-157 -55q-112 0 -165 61t-53 158zM164 210q0 -51 22.5 -82.5t68.5 -31.5q49 0 87 39.5t55.5 93.5t17.5 108q0 52 -22 84.5t-68 32.5q-49 0 -87.5 -40.5t-56 -95 t-17.5 -108.5z" />
<glyph horiz-adv-x="496" d="M6 0l21 108h148l47 242l14 65h-2q-19 -16 -45 -30l-82 -43l-43 92l210 116h110l-86 -442h136l-21 -108h-407z" />
<glyph horiz-adv-x="548" d="M0 0l17 86q58 33 101 59t92.5 60.5t81 63t52.5 60.5t21 59q0 32 -23 47.5t-58 15.5q-72 0 -158 -74l-55 90q44 42 107 68.5t124 26.5q86 0 139.5 -41.5t53.5 -116.5q0 -88 -74 -158.5t-209 -139.5v-2q22 4 64 4h192l-22 -108h-446z" />
<glyph horiz-adv-x="541" d="M-38 -40l71 82q57 -62 147 -62q62 0 106 34.5t44 87.5q0 44 -38.5 67t-91.5 23h-56l-19 62l144 138q14 15 29.5 27.5t23.5 18.5l8 5v2q-22 -4 -63 -4h-174l21 109h410l-14 -74l-212 -195q65 -8 113.5 -53t48.5 -121q0 -95 -81 -165t-200 -70q-62 0 -122.5 22.5 t-94.5 65.5z" />
<glyph horiz-adv-x="598" d="M-27 29l15 79l371 442h160l-81 -413h95l-21 -108h-95l-28 -145h-125l29 145h-320zM136 137h177l43 216q15 74 19 74h-2q0 -7 -48 -68l-189 -220v-2z" />
<glyph horiz-adv-x="550" d="M-26 -36l70 81q53 -61 143 -61q60 0 110.5 36.5t50.5 101.5q0 44 -33 69t-84 25q-57 0 -119 -27l-68 25l98 336h365l-21 -109h-251l-33 -107l-11 -31h2q36 13 77 13q92 0 150.5 -52t58.5 -136q0 -112 -87.5 -182t-204.5 -70q-62 0 -119 22.5t-94 65.5z" />
<glyph horiz-adv-x="599" d="M44 232q0 70 26.5 146.5t74 144t123 111.5t162.5 44q89 0 154 -32l-54 -95q-32 19 -97 19q-76 0 -135 -53.5t-88 -130.5h2q22 22 59.5 35t71.5 13q93 0 146 -53t53 -136q0 -98 -74.5 -177.5t-187.5 -79.5q-105 0 -170.5 64t-65.5 180zM173 227q0 -54 30 -92.5t80 -38.5 q54 0 91.5 41t37.5 102q0 42 -27.5 68.5t-79.5 26.5q-53 0 -92.5 -31.5t-39.5 -75.5z" />
<glyph horiz-adv-x="525" d="M-12 -116l349 498q13 19 25.5 34l17.5 21l6 6v2q-10 -3 -46 -3h-281l21 108h476l-17 -85l-410 -581h-141z" />
<glyph horiz-adv-x="595" d="M26 170q0 102 139 199q-52 44 -52 105q0 80 66.5 141.5t174.5 61.5q95 0 153 -42t58 -115q0 -81 -106 -199q65 -47 65 -116q0 -85 -77 -151t-192 -66q-105 0 -167 51t-62 131zM369 370q70 70 70 132q0 32 -24 50t-65 18q-50 0 -81.5 -26.5t-31.5 -63.5q0 -9 2 -17t7 -15 t10 -13t14.5 -12.5t16 -11t19 -11t19.5 -10t22 -10.5t22 -10zM156 183q0 -39 29 -63.5t72 -24.5q53 0 95.5 30.5t42.5 77.5q0 15 -7.5 27.5t-25 24.5t-30.5 19t-41.5 20.5t-40.5 19.5q-94 -57 -94 -131z" />
<glyph horiz-adv-x="583" d="M53 -1q36 -19 97 -19q76 0 135 53.5t88 129.5h-2q-22 -22 -59 -34.5t-72 -12.5q-93 0 -145.5 53t-52.5 136q0 97 74.5 177t186.5 80q106 0 171 -64t65 -180q0 -70 -26.5 -146.5t-73.5 -144t-122.5 -111.5t-162.5 -44q-93 0 -154 32zM278 216q53 0 93 31.5t40 75.5 q0 54 -30 92.5t-81 38.5q-53 0 -91 -41.5t-38 -101.5q0 -42 27.5 -68.5t79.5 -26.5z" />
<glyph horiz-adv-x="586" d="M35 207q0 61 19 123t54.5 114.5t92 85t124.5 32.5q111 0 164 -61.5t53 -159.5q0 -85 -32 -164t-100 -134t-157 -55q-112 0 -165 61t-53 158zM163 210q0 -51 22.5 -82.5t68.5 -31.5q49 0 87 39.5t55.5 93.5t17.5 108q0 52 -22 84.5t-68 32.5q-49 0 -87.5 -40.5t-56 -95 t-17.5 -108.5z" />
<glyph horiz-adv-x="586" d="M51 0l21 108h148l47 242l14 65h-2q-19 -16 -45 -30l-82 -43l-43 92l210 116h110l-86 -442h136l-21 -108h-407z" />
<glyph horiz-adv-x="586" d="M20 0l17 86q58 33 101 59t92.5 60.5t81 63t52.5 60.5t21 59q0 32 -23 47.5t-58 15.5q-72 0 -158 -74l-55 90q44 42 107 68.5t124 26.5q86 0 139.5 -41.5t53.5 -116.5q0 -88 -74 -158.5t-209 -139.5v-2q22 4 64 4h192l-22 -108h-446z" />
<glyph horiz-adv-x="586" d="M-15 -39l71 82q57 -62 147 -62q61 0 105 34.5t44 87.5q0 44 -38.5 66.5t-91.5 22.5h-55l-19 62l143 138q14 15 29.5 27.5t23.5 18.5l8 5v2q-22 -4 -63 -4h-173l21 109h409l-14 -74l-212 -195q65 -8 113.5 -53t48.5 -120q0 -95 -81 -165t-199 -70q-62 0 -122.5 22.5 t-94.5 65.5z" />
<glyph horiz-adv-x="586" d="M-32 29l15 79l371 442h160l-81 -413h95l-21 -108h-95l-28 -145h-125l29 145h-320zM131 137h177l43 216q15 74 19 74h-2q0 -7 -48 -68l-189 -220v-2z" />
<glyph horiz-adv-x="586" d="M-8 -36l70 81q53 -61 143 -61q60 0 110.5 36.5t50.5 101.5q0 44 -33 69t-84 25q-57 0 -119 -27l-68 25l98 336h365l-21 -109h-251l-33 -107l-11 -31h2q36 13 77 13q92 0 150.5 -52t58.5 -136q0 -112 -87.5 -182t-204.5 -70q-62 0 -119 22.5t-94 65.5z" />
<glyph horiz-adv-x="586" d="M39 232q0 70 26.5 146.5t74 144t123 111.5t162.5 44q89 0 154 -32l-54 -95q-32 19 -97 19q-76 0 -135 -53.5t-88 -130.5h2q22 22 59.5 35t71.5 13q93 0 146 -53t53 -136q0 -98 -74.5 -177.5t-187.5 -79.5q-105 0 -170.5 64t-65.5 180zM168 227q0 -54 30 -92.5t80 -38.5 q54 0 91.5 41t37.5 102q0 42 -27.5 68.5t-79.5 26.5q-53 0 -92.5 -31.5t-39.5 -75.5z" />
<glyph horiz-adv-x="586" d="M17 -116l349 498q13 19 25.5 34t18.5 21l5 6v2q-10 -3 -46 -3h-281l21 108h476l-17 -85l-410 -581h-141z" />
<glyph horiz-adv-x="586" d="M22 170q0 102 139 199q-52 44 -52 105q0 80 66.5 141.5t174.5 61.5q95 0 153 -42t58 -115q0 -81 -106 -199q65 -47 65 -116q0 -85 -77 -151t-192 -66q-105 0 -167 51t-62 131zM365 370q70 70 70 132q0 32 -24 50t-65 18q-50 0 -81.5 -26.5t-31.5 -63.5q0 -9 2 -17t7 -15 t10 -13t14.5 -12.5t16 -11t19 -11t19.5 -10t22 -10.5t22 -10zM152 183q0 -39 29 -63.5t72 -24.5q53 0 95.5 30.5t42.5 77.5q0 15 -7.5 27.5t-25 24.5t-30.5 19t-41.5 20.5t-40.5 19.5q-94 -57 -94 -131z" />
<glyph horiz-adv-x="586" d="M54 -1q36 -19 97 -19q76 0 135 53.5t88 129.5h-2q-22 -22 -59 -34.5t-72 -12.5q-93 0 -145.5 53t-52.5 136q0 97 74.5 177t186.5 80q106 0 171 -64t65 -180q0 -70 -26.5 -146.5t-73.5 -144t-122.5 -111.5t-162.5 -44q-93 0 -154 32zM279 216q53 0 93 31.5t40 75.5 q0 54 -30 92.5t-81 38.5q-53 0 -91 -41.5t-38 -101.5q0 -42 27.5 -68.5t79.5 -26.5z" />
<glyph horiz-adv-x="531" d="M0 84l73 86q67 -69 150 -69q43 0 73.5 19t30.5 51q0 21 -25 38.5t-60.5 33t-71 35.5t-60.5 54t-25 79q0 68 56 118t147 60l17 89h86l-18 -90q84 -12 141 -64l-64 -93q-22 21 -58 35t-71 14q-42 0 -73 -17t-31 -52q0 -21 25 -38t60.5 -32.5t71 -34.5t60.5 -52.5t25 -77.5 q0 -77 -60 -127.5t-147 -57.5l-18 -92h-85l19 95q-107 19 -168 90z" />
<glyph horiz-adv-x="559" d="M188 -28l17 86q-77 17 -120 71.5t-43 131.5q0 104 73.5 185.5t184.5 98.5l16 82h89l-17 -81q93 -14 152 -79l-70 -84q-43 54 -120 54t-128 -50t-51 -115q0 -49 33 -79.5t93 -30.5q74 0 139 58l43 -98q-79 -67 -187 -73l-15 -77h-89z" />
<glyph horiz-adv-x="605" d="M-1 0l20 108h59l25 129h-44l16 84h44l15 75q19 91 91.5 144t169.5 53q109 0 180 -61l-70 -86q-44 34 -117 34q-47 0 -83 -26t-44 -65l-14 -68h202l-16 -84h-202l-25 -129h311l-21 -108h-497z" />
<glyph horiz-adv-x="641" d="M60 136l15 77h164l3 15l-25 59h-128l15 76h82l-86 218h139l54 -158l29 -98h2q29 55 58 98l113 158h153l-171 -218h87l-15 -76h-133l-46 -59l-3 -15h168l-15 -77h-168l-26 -136h-128l26 136h-164z" />
<glyph horiz-adv-x="554" d="M-39 -12q29 -6 64 -6q22 0 43.5 5.5t46 28t34.5 59.5l60 214h-74l20 101h83l31 107q52 181 241 181q42 0 98 -9l-22 -106q-32 6 -76 6q-97 0 -123 -92l-24 -87h108l-20 -101h-117l-66 -236q-16 -56 -46.5 -95t-67.5 -56t-67.5 -23t-61.5 -6q-36 0 -86 9z" />
<glyph horiz-adv-x="594" d="M26 192l14 70h63q1 25 8 55h-60l13 70h71q41 90 126 148t202 58q66 0 119 -18l-45 -96q-35 10 -72 10q-123 0 -189 -102h224l-29 -70h-231q-9 -32 -9 -55h221l-27 -70h-180q13 -44 50.5 -71t97.5 -27q39 0 90 14l1 -105q-47 -15 -95 -15q-120 0 -191.5 57t-88.5 147h-83z " />
<glyph d="M205 262q-143 0 -143 150q0 48 11 98.5t33 99.5t63 80t94 31q143 0 143 -151q0 -48 -11 -98.5t-33 -99t-63 -79.5t-94 -31zM205 349q48 0 75.5 68.5t27.5 146.5q0 69 -46 69q-33 0 -57.5 -36.5t-35 -84t-10.5 -95.5q0 -68 46 -68z" />
<glyph d="M63 272l16 83h92l38 201l9 29h-2q-6 -10 -19 -20l-35 -27l-46 64l135 109h84l-69 -356h91l-16 -83h-278z" />
<glyph d="M40 272q0 51 20 92t49.5 65t63.5 46t63 36.5t48.5 35.5t19.5 44q0 19 -14.5 30.5t-37.5 11.5q-39 0 -89 -46l-56 60q74 74 152 74q61 0 102 -32.5t41 -88.5q0 -51 -34.5 -91t-77 -60.5t-82 -45.5t-47.5 -48h201l-17 -83h-305z" />
<glyph d="M191 262q-94 0 -154 67l57 62q36 -42 98 -42q33 0 57 20.5t24 50.5q0 23 -19.5 36t-48.5 13h-35l-14 45l94 90l29 24v2q-20 -3 -35 -3h-125l16 84h280l-11 -61l-120 -112q36 -10 61.5 -40.5t25.5 -74.5q0 -63 -51 -112t-129 -49z" />
<glyph d="M214 272l19 99h-204l12 64l238 276h113l-50 -258h59l-16 -82h-58l-20 -99h-93zM147 453h102l21 110l15 55h-2q-17 -27 -35 -47l-101 -116v-2z" />
<glyph d="M192 262q-42 0 -83 17.5t-68 49.5l60 62q33 -42 91 -42q33 0 61 23t28 57q0 25 -19 41t-48 16q-36 0 -74 -18l-50 19l66 224h247l-16 -84h-168l-14 -47l-9 -25l1 -1q21 8 47 8q57 0 95.5 -37t38.5 -92q0 -66 -54 -118.5t-132 -52.5z" />
<glyph d="M215 262q-67 0 -109 43t-42 120q0 62 29.5 129t89 117t131.5 50q60 0 102 -25l-40 -76q-33 13 -65 13q-38 0 -69.5 -27t-49.5 -70h2q29 21 67 21q55 0 90 -34.5t35 -87.5q0 -70 -50 -121.5t-121 -51.5zM219 349q31 0 51 25t20 57q0 24 -14.5 39.5t-42.5 15.5 q-31 0 -51.5 -18.5t-20.5 -45.5q0 -30 16 -51.5t42 -21.5z" />
<glyph d="M44 272l236 317l32 38v2q-19 -2 -40 -2h-161l16 84h314l-12 -65l-276 -374h-109z" />
<glyph d="M203 261q-66 0 -111.5 32t-45.5 89q0 41 30 75.5t63 55.5q-32 29 -32 69q0 64 49.5 101t111.5 37q63 0 102 -29t39 -77q0 -27 -18 -58t-33 -46t-26 -25q47 -33 47 -82q0 -62 -54.5 -102t-121.5 -40zM269 519q7 6 16 15.5t19.5 28.5t10.5 37t-15.5 28t-36.5 10 q-25 0 -45 -13.5t-20 -39.5q0 -15 12 -28t22.5 -19t36.5 -19zM205 342q28 0 52.5 17t24.5 43q0 8 -4 16t-8.5 13.5t-14.5 12t-16.5 10t-20.5 11t-20 10.5q-55 -41 -55 -83q0 -23 18.5 -36.5t43.5 -13.5z" />
<glyph d="M51 286l40 77q23 -13 65 -13q38 0 69.5 26.5t49.5 69.5h-2q-31 -21 -67 -21q-55 0 -90 34.5t-35 88.5q0 70 50 121.5t121 51.5q67 0 109 -43t42 -120q0 -62 -29.5 -129t-89 -117t-131.5 -50q-58 0 -102 24zM234 497q31 0 51 18t20 45q0 31 -15.5 52t-41.5 21 q-31 0 -51 -25t-20 -57q0 -24 14.5 -39t42.5 -15z" />
<glyph d="M152 -10q-143 0 -143 150q0 48 11 98.5t33 99.5t63 80t94 31q143 0 143 -151q0 -48 -11 -98.5t-33 -99t-63 -79.5t-94 -31zM152 77q48 0 75.5 68.5t27.5 146.5q0 69 -46 69q-33 0 -57.5 -36.5t-35 -84t-10.5 -95.5q0 -68 46 -68z" />
<glyph d="M10 0l16 83h92l38 201l9 29h-2q-6 -10 -19 -20l-35 -27l-46 64l135 109h84l-69 -356h91l-16 -83h-278z" />
<glyph d="M-13 0q0 51 20 92t49.5 65t63.5 46t63 36.5t48.5 35.5t19.5 44q0 19 -14.5 30.5t-37.5 11.5q-39 0 -89 -46l-56 60q74 74 152 74q61 0 102 -32.5t41 -88.5q0 -51 -34.5 -91t-77 -60.5t-82 -45.5t-47.5 -48h201l-17 -83h-305z" />
<glyph d="M138 -10q-94 0 -154 67l57 62q36 -42 98 -42q33 0 57 20.5t24 50.5q0 23 -19.5 36t-48.5 13h-35l-14 45l94 90l29 24v2q-20 -3 -35 -3h-125l16 84h280l-11 -61l-120 -112q36 -10 61.5 -40.5t25.5 -74.5q0 -63 -51 -112t-129 -49z" />
<glyph d="M161 0l19 99h-204l12 64l238 276h113l-50 -258h59l-16 -82h-58l-20 -99h-93zM94 181h102l21 110l15 55h-2q-17 -27 -35 -47l-101 -116v-2z" />
<glyph d="M140 -10q-42 0 -83 17.5t-68 49.5l60 62q33 -42 91 -42q33 0 61 23t28 57q0 25 -19 41t-48 16q-36 0 -74 -18l-50 19l66 224h247l-16 -84h-168l-14 -47l-9 -25l1 -1q21 8 47 8q57 0 95.5 -37t38.5 -92q0 -66 -54 -118.5t-132 -52.5z" />
<glyph d="M162 -10q-67 0 -109 43t-42 120q0 62 29.5 129t89 117t131.5 50q60 0 102 -25l-40 -76q-33 13 -65 13q-38 0 -69.5 -27t-49.5 -70h2q29 21 67 21q55 0 90 -34.5t35 -87.5q0 -70 -50 -121.5t-121 -51.5zM166 77q31 0 51 25t20 57q0 24 -14.5 39.5t-42.5 15.5 q-31 0 -51.5 -18.5t-20.5 -45.5q0 -30 16 -51.5t42 -21.5z" />
<glyph d="M-10 0l236 317l32 38v2q-19 -2 -40 -2h-161l16 84h314l-12 -65l-276 -374h-109z" />
<glyph d="M151 -10q-66 0 -111.5 32t-45.5 89q0 41 30 75.5t63 55.5q-32 29 -32 69q0 64 49.5 101t111.5 37q63 0 102 -29t39 -77q0 -27 -18 -58t-33 -46t-26 -25q47 -33 47 -82q0 -62 -54.5 -102t-121.5 -40zM217 248q7 6 16 15.5t19.5 28.5t10.5 37t-15.5 28t-36.5 10 q-25 0 -45 -13.5t-20 -39.5q0 -15 12 -28t22.5 -19t36.5 -19zM153 71q28 0 52.5 17t24.5 43q0 8 -4 16t-8.5 13.5t-14.5 12t-16.5 10t-20.5 11t-20 10.5q-55 -41 -55 -83q0 -23 18.5 -36.5t43.5 -13.5z" />
<glyph d="M-2 14l40 77q23 -13 65 -13q38 0 69.5 26.5t49.5 69.5h-2q-32 -21 -67 -21q-55 0 -90 34.5t-35 88.5q0 70 50 121.5t121 51.5q67 0 109 -43t42 -120q0 -62 -29.5 -129t-89 -117t-131.5 -50q-58 0 -102 24zM181 225q31 0 51 18t20 45q0 31 -15.5 52t-41.5 21 q-31 0 -51 -25t-20 -57q0 -24 14.5 -39t42.5 -15z" />
<glyph horiz-adv-x="460" d="M1 119q0 48 31.5 84.5t76.5 57.5t89.5 38t76 37t31.5 44q0 37 -53 37q-82 0 -140 -40l-40 91q84 54 191 54q75 0 120 -34t45 -96q0 -49 -31.5 -86t-76 -58.5t-89 -39t-76 -36.5t-31.5 -41q0 -38 60 -38q88 0 155 53l51 -91q-99 -67 -219 -67q-81 0 -126 35.5t-45 95.5z " />
<glyph horiz-adv-x="605" d="M51 -69q50 -33 138 -33q63 0 109 30t59 94l5 30l8 29h-2q-56 -71 -143 -71q-93 0 -144.5 58t-51.5 151q0 73 30.5 141t94 115t145.5 47q112 0 148 -70h3q0 10 1 18l8 40h119l-94 -487q-13 -63 -42.5 -110t-70.5 -73t-85 -38t-93 -12q-118 0 -194 48zM158 229 q0 -52 26 -82t76 -30q70 0 111.5 63.5t41.5 137.5q0 96 -103 96q-69 0 -110.5 -55t-41.5 -130z" />
<glyph horiz-adv-x="788" d="M-42 0l202 271v2l-93 237h125l77 -198h66l78 398h119l-78 -398h67l139 198h140l-188 -257v-2l102 -251h-130l-79 205h-72l-40 -205h-119l40 205h-66l-150 -205h-140z" />
<glyph horiz-adv-x="606" d="M35 127q0 23 7 61l62 322h127l-58 -298q-5 -30 -5 -47q0 -61 65 -61q62 0 112 52.5t63 123.5l44 230h127l-99 -510h-123l9 46l13 49h-2q-24 -41 -76 -74t-114 -33q-68 0 -110 33.5t-42 105.5z" />
<glyph horiz-adv-x="606" d="M35 127q0 23 7 61l62 322h127l-58 -298q-5 -30 -5 -47q0 -61 65 -61q62 0 112 52.5t63 123.5l44 230h127l-99 -510h-123l9 46l13 49h-2q-24 -41 -76 -74t-114 -33q-68 0 -110 33.5t-42 105.5zM359 559q-66 0 -108 31.5t-42 81.5q0 14 6 38h98q-3 -10 -3 -25 q0 -23 14.5 -37t40.5 -14q71 0 82 76h96q-12 -78 -63.5 -114.5t-120.5 -36.5z" />
<glyph horiz-adv-x="552" d="M11 0l139 710h126l-74 -380h61l159 180h150l-212 -234v-2l124 -274h-135l-95 223h-72l-44 -223h-127z" />
<glyph horiz-adv-x="545" d="M-44 0l283 510h151l83 -510h-128l-44 316l-3 76h-2q-18 -47 -33 -76l-168 -316h-139z" />
<glyph horiz-adv-x="612" d="M11 0l99 510h123l-8 -46l-14 -50h2q24 41 78 74.5t116 33.5q71 0 112.5 -34t41.5 -105q0 -23 -7 -61l-62 -322h-127l58 298q5 28 5 46q0 62 -64 62t-116 -52t-66 -124l-44 -230h-127z" />
<glyph horiz-adv-x="912" d="M11 0l99 510h123l-11 -55l-11 -41h2q27 43 75 75.5t104 32.5q116 0 135 -105h2q28 44 79.5 74.5t107.5 30.5q144 0 144 -137q0 -28 -8 -70l-61 -315h-126l58 301q5 24 5 45q0 60 -57 60q-59 0 -103.5 -54.5t-58.5 -127.5l-44 -224h-127l59 301q5 32 5 46q0 59 -56 59 q-58 0 -104 -54.5t-60 -127.5l-44 -224h-127z" />
<glyph horiz-adv-x="643" d="M35 127q0 23 7 61l62 322h127l-58 -298q-5 -28 -5 -47q0 -61 63 -61q64 0 114.5 51.5t64.5 124.5l44 230h127l-78 -402h82l-44 -228h-114l23 120h-91l8 46l14 49h-2q-24 -41 -76.5 -74t-114.5 -33q-71 0 -112 34t-41 105z" />
<glyph horiz-adv-x="911" d="M883 509l-99 -510h-123l11 55l11 41h-2q-27 -43 -75 -75.5t-104 -32.5q-116 0 -135 105h-2q-28 -44 -79.5 -74.5t-107.5 -30.5q-144 0 -144 137q0 28 8 70l61 315h126l-58 -301q-5 -24 -5 -45q0 -60 57 -60q59 0 103.5 54.5t58.5 127.5l44 224h127l-59 -301 q-5 -32 -5 -46q0 -59 56 -59q58 0 104 54.5t60 127.5l44 224h127z" />
<glyph horiz-adv-x="946" d="M883 509l-78 -401h83l-44 -228h-114l23 119h-92l11 55l11 41h-2q-27 -43 -75 -75.5t-104 -32.5q-116 0 -135 105h-2q-28 -44 -79.5 -74.5t-107.5 -30.5q-144 0 -144 137q0 28 8 70l61 315h126l-58 -301q-5 -24 -5 -45q0 -60 57 -60q59 0 103.5 54.5t58.5 127.5l44 224 h127l-59 -301q-5 -32 -5 -46q0 -59 56 -59q58 0 104 54.5t60 127.5l44 224h127z" />
<glyph horiz-adv-x="585" d="M97 150q0 20 7 55l39 197h-102l20 108h229l-27 -137l-9 -41h2q52 43 129 43q71 0 113.5 -42t42.5 -115q0 -98 -72 -164t-183 -66q-85 0 -137 41t-52 121zM225 172q-3 -38 15.5 -63t57.5 -25q50 0 81.5 37.5t31.5 87.5q0 70 -71 70q-45 0 -78 -31t-37 -76z" />
<glyph horiz-adv-x="525" d="M38 150q0 25 6 55l60 305h126l-27 -137q-1 -11 -9 -41h2q54 43 129 43q72 0 114.5 -41.5t42.5 -115.5q0 -98 -72.5 -164t-183.5 -66q-84 0 -136 41t-52 121zM164 160q0 -34 19 -55t55 -21q50 0 82 37.5t32 87.5q0 70 -72 70q-49 0 -82.5 -34.5t-33.5 -84.5z" />
<glyph horiz-adv-x="854" d="M11 0l138 710h126l-78 -402h78q31 94 114.5 154t179.5 60q107 0 175.5 -62.5t68.5 -162.5q0 -130 -94.5 -219.5t-214.5 -89.5q-106 0 -173.5 59.5t-70.5 157.5h-83l-40 -205h-126zM388 220q0 -56 33 -90t85 -34q68 0 123 55.5t55 137.5q0 56 -33 90.5t-84 34.5 q-69 0 -124 -56.5t-55 -137.5z" />
<glyph horiz-adv-x="602" d="M39 193q0 24 7 59l38 196q23 124 98.5 199t192.5 75q85 0 135 -39t50 -100q0 -97 -142 -166v-2q56 -7 96 -49t40 -114q0 -111 -87.5 -187.5t-208.5 -76.5q-102 0 -160.5 57t-58.5 148zM196 392h2q22 25 79 55l49 24q51 25 79.5 48.5t28.5 53.5q0 24 -19 37t-52 13 q-53 0 -92.5 -39.5t-55.5 -109.5zM162 195q0 -47 28 -71.5t74 -24.5q67 0 114 47.5t47 108.5q0 47 -30.5 69t-74.5 22q-68 0 -113 -44.5t-45 -106.5z" />
<glyph horiz-adv-x="458" d="M-24 -66q44 -35 110 -35q65 0 111 40.5t46 99.5q0 85 -109 85h-66l20 101h67q53 0 94.5 34.5t41.5 82.5q0 35 -24 54t-63 19q-63 0 -117 -44l-51 84q91 67 200 67q86 0 135 -44.5t49 -113.5q0 -62 -39 -112.5t-100 -75.5v-2q90 -44 90 -142q0 -104 -84.5 -173t-193.5 -69 q-48 0 -97 13.5t-76 35.5z" />
<glyph horiz-adv-x="725" d="M-75 -140l49 251h73l328 599h134l94 -599h77l-49 -251h-116l28 140h-475l-28 -140h-115zM186 111h288l-49 350l-8 104h-2q-25 -64 -45 -104z" />
<glyph horiz-adv-x="649" d="M-51 0l390 710h134l113 -710h-131l-65 461l-6 104h-2q-25 -64 -46 -104l-243 -461h-144z" />
<glyph horiz-adv-x="622" d="M-64 -120l44 222h61l232 408h157l72 -408h66l-44 -222h-114l23 120h-360l-23 -120h-114zM172 102h208l-38 227l-5 76h-2q-20 -47 -36 -76z" />
<glyph horiz-adv-x="545" d="M-44 0l283 510h151l83 -510h-128l-44 316l-3 76h-2q-18 -47 -33 -76l-168 -316h-139z" />
<glyph horiz-adv-x="915" d="M-46 0l398 710h263l-54 -279h120q90 0 145 -52.5t55 -137.5q0 -98 -75.5 -169.5t-185.5 -71.5h-271l116 599h-38l-333 -599h-140zM499 111h110q57 0 99 35.5t42 90.5q0 39 -27 61t-75 22h-109z" />
<glyph horiz-adv-x="781" d="M-44 0l305 510h254l-37 -185h88q82 0 125.5 -35.5t43.5 -105.5q0 -87 -62.5 -135.5t-160.5 -48.5h-224l81 415h-38l-243 -415h-132zM432 87h76q42 0 73 23.5t31 64.5q0 62 -76 62h-74z" />
<glyph horiz-adv-x="742" d="M-51 0l389 710h134l96 -599h138l-14 -70l-114 -181h-90l66 140h-100l-65 461l-6 104h-2q-26 -64 -46 -104l-243 -461h-143z" />
<glyph horiz-adv-x="613" d="M344 0l-45 316l-3 76h-2q-18 -47 -33 -76l-168 -316h-137l283 510h150l66 -403h122l-12 -67l-101 -160h-85l56 120h-91z" />
</font>
</defs>
</svg>
