<?xml version="1.0" standalone="no"?>
<!DOCTYPE svg PUBLIC "-//W3C//DTD SVG 1.1//EN" "http://www.w3.org/Graphics/SVG/1.1/DTD/svg11.dtd" >
<svg xmlns="http://www.w3.org/2000/svg">
<metadata></metadata>
<defs>
<font id="museo_sans_cyrl100_italic" horiz-adv-x="560" >
<font-face units-per-em="1000" ascent="750" descent="-250" />
<missing-glyph horiz-adv-x="250" />
<glyph unicode="ff" horiz-adv-x="618" d="M44 0l90 462h-63l7 38h63l5 25q11 56 35.5 95t54.5 55.5t53 23t45 6.5q21 0 31 -2l-9 -39q-4 2 -22 2q-19 0 -37 -5t-41 -18.5t-41.5 -45t-27.5 -77.5l-4 -20h267l5 25q11 56 35.5 95t54.5 55.5t53 23t45 6.5q21 0 31 -2l-9 -39q-4 2 -22 2q-19 0 -37 -5t-41 -18.5 t-41.5 -45t-27.5 -77.5l-4 -20h137l-7 -38h-137l-90 -462h-42l90 462h-267l-90 -462h-42z" />
<glyph unicode="fi" horiz-adv-x="512" d="M44 0l90 462h-63l7 38h63l5 25q11 56 35.5 95t54.5 55.5t53 23t45 6.5q21 0 31 -2l-9 -39q-6 2 -22 2q-19 0 -37 -5t-41 -18.5t-41.5 -45t-27.5 -77.5l-4 -20h284l-98 -500h-42l90 462h-241l-90 -462h-42zM445 627l15 73h50l-15 -73h-50z" />
<glyph unicode="fl" horiz-adv-x="541" d="M45 0l89 459h-63l7 38h63l5 25q9 47 28 82t39.5 53.5t45.5 30t42 14.5t34 3q21 0 31 -2l-9 -39q-10 2 -22 2q-19 0 -37 -5t-41 -18.5t-41.5 -45t-27.5 -76.5l-5 -24h137l-7 -38h-137l-89 -459h-42zM355 77q0 13 3 29l116 594h42l-114 -587q-3 -16 -3 -29q0 -21 8.5 -32.5 t17.5 -13.5t23 -2q7 0 13 1l-9 -39q-6 -2 -17 -2q-17 0 -33 4.5t-31.5 24t-15.5 52.5z" />
<glyph unicode="ffi" horiz-adv-x="825" d="M44 0l90 462h-63l7 38h63l5 25q11 56 35.5 95t54.5 55.5t53 23t45 6.5q21 0 31 -2l-9 -39q-10 2 -22 2q-19 0 -37 -5t-41 -18.5t-41.5 -45t-27.5 -77.5l-4 -20h267l5 25q11 56 35.5 95t54.5 55.5t53 23t45 6.5q11 0 31 -2l-9 -39q-6 2 -22 2q-19 0 -37 -5t-41 -18.5 t-41.5 -45t-27.5 -77.5l-4 -20h288l-98 -500h-42l90 462h-245l-90 -462h-42l90 462h-267l-90 -462h-42zM758 627l15 73h50l-15 -73h-50z" />
<glyph unicode="ffl" horiz-adv-x="849" d="M44 0l90 462h-63l7 38h63l5 25q11 56 35.5 95t54.5 55.5t53 23t45 6.5q21 0 31 -2l-9 -39q-4 2 -22 2q-19 0 -37 -5t-41 -18.5t-41.5 -45t-27.5 -77.5l-4 -20h267l5 25q11 56 35.5 95t54.5 55.5t53 23t45 6.5q21 0 31 -2l-9 -39q-4 2 -22 2q-19 0 -37 -5t-41 -18.5 t-41.5 -45t-27.5 -77.5l-4 -20h137l-7 -38h-137l-90 -462h-42l90 462h-267l-90 -462h-42zM663 77q0 13 3 29l116 594h42l-114 -587q-3 -17 -3 -29q0 -21 8.5 -32.5t17.5 -13.5t23 -2q7 0 13 1l-9 -39q-6 -2 -17 -2q-17 0 -33 4.5t-31.5 24t-15.5 52.5z" />
<glyph unicode="fj" horiz-adv-x="517" d="M44 0l90 462h-63l7 38h63l5 25q11 56 35.5 95t54.5 55.5t53 23t45 6.5q19 0 31 -2l-9 -39q-6 2 -22 2q-19 0 -37 -5t-41 -18.5t-41.5 -45t-27.5 -77.5l-4 -20h288l-101 -520q-11 -58 -34.5 -98t-52.5 -57.5t-51.5 -23.5t-45.5 -6t-35 2l8 39q10 -2 22 -2q18 0 36.5 5 t41.5 18.5t41.5 45t27.5 76.5l93 483h-245l-90 -462h-42zM449 627l14 73h50l-14 -73h-50z" />
<glyph unicode=" "  horiz-adv-x="250" />
<glyph unicode="&#x09;" horiz-adv-x="250" />
<glyph unicode="&#xa0;" horiz-adv-x="250" />
<glyph unicode="!" horiz-adv-x="250" d="M80 175l103 525h43l-103 -525h-43zM38 0l13 61h59l-13 -61h-59z" />
<glyph unicode="&#x22;" horiz-adv-x="314" d="M239 558l29 151h43l-29 -151h-43zM135 558l29 151h43l-29 -151h-43z" />
<glyph unicode="#" horiz-adv-x="728" d="M108 0l74 199h-151l15 40h151l82 221h-151l15 40h151l74 200h44l-74 -200h189l74 200h44l-74 -200h148l-15 -40h-148l-82 -221h148l-15 -40h-148l-74 -199h-44l74 199h-189l-74 -199h-44zM241 239h189l82 221h-189z" />
<glyph unicode="$" d="M29 75l31 31q66 -76 171 -76q79 0 135 42.5t56 113.5q0 42 -22 73t-54.5 48.5t-71 38t-71 39t-54.5 53.5t-22 81q0 83 64 134.5t154 57.5l19 94h43l-18 -94q91 -8 149 -66l-28 -33q-24 27 -64.5 42.5t-80.5 15.5q-75 0 -134 -40.5t-59 -108.5q0 -45 30.5 -77t73.5 -52.5 t86.5 -43t74 -62t30.5 -96.5q0 -85 -61.5 -140.5t-157.5 -60.5l-18 -93h-43l18 93q-49 4 -97 26.5t-79 59.5z" />
<glyph unicode="%" horiz-adv-x="701" d="M229 451q-52 0 -83 31t-31 84q0 55 47 100.5t106 45.5q51 0 82 -31t31 -82q0 -58 -46.5 -103t-105.5 -45zM4 0l662 700h57l-663 -700h-56zM231 491q42 0 74.5 32.5t32.5 76.5q0 31 -20 51.5t-52 20.5q-42 0 -75 -33t-33 -76q0 -31 20 -51.5t53 -20.5zM341 103 q0 55 47 100.5t106 45.5q51 0 82 -31t31 -82q0 -58 -46.5 -103t-105.5 -45q-52 0 -83 31t-31 84zM384 100q0 -31 20 -51.5t53 -20.5q42 0 74.5 32.5t32.5 76.5q0 31 -20 51.5t-52 20.5q-42 0 -75 -33t-33 -76z" />
<glyph unicode="&#x26;" horiz-adv-x="655" d="M41 160q0 74 48 136.5t125 82.5v2q-3 1 -8 3t-18 12t-23 22.5t-18 36t-8 52.5q0 87 65.5 146t166.5 59q39 0 81 -11l-20 -37q-38 8 -62 8q-77 0 -131 -46t-54 -119q0 -47 30.5 -78t116.5 -31h163l20 102h43l-20 -102h97l-8 -40h-97l-22 -112q-51 -258 -265 -258 q-95 0 -148.5 47t-53.5 125zM86 160q0 -57 41.5 -93.5t115.5 -36.5q179 0 222 216l22 112h-161q-101 0 -170.5 -52.5t-69.5 -145.5z" />
<glyph unicode="'" horiz-adv-x="210" d="M135 558l29 151h43l-29 -151h-43z" />
<glyph unicode="(" horiz-adv-x="264" d="M99 -95q-46 125 -46 263q0 306 201 557h46q-206 -262 -206 -558q0 -136 47 -262h-42z" />
<glyph unicode=")" horiz-adv-x="265" d="M-27 -95q206 262 206 558q0 136 -47 262h42q46 -125 46 -263q0 -306 -201 -557h-46z" />
<glyph unicode="*" horiz-adv-x="494" d="M161 344l-33 26l125 132l-145 47l21 41l144 -54l27 164h47l-37 -164l167 53l6 -42l-168 -49l72 -130l-37 -25l-69 135z" />
<glyph unicode="+" d="M201 0l52 263h-237l7 40h237l52 263h43l-52 -263h236l-7 -40h-236l-52 -263h-43z" />
<glyph unicode="," horiz-adv-x="253" d="M-21 -94l84 155h55l-95 -155h-44z" />
<glyph unicode="-" horiz-adv-x="432" d="M72 263l7 40h276l-7 -40h-276z" />
<glyph unicode="." horiz-adv-x="217" d="M22 0l12 63h61l-12 -63h-61z" />
<glyph unicode="/" horiz-adv-x="407" d="M-12 -42l405 782h47l-405 -782h-47z" />
<glyph unicode="0" horiz-adv-x="614" d="M66 209q0 58 9.5 122t33.5 133t58.5 123t90 89.5t123.5 35.5q188 0 188 -223q0 -74 -16.5 -155t-51 -161.5t-99 -132.5t-148.5 -52q-188 0 -188 221zM110 207q0 -177 145 -177q58 0 106 32.5t77.5 82t49.5 113t28 121.5t8 111q0 180 -144 180q-68 0 -122.5 -45 t-85 -116.5t-46.5 -149t-16 -152.5z" />
<glyph unicode="1" horiz-adv-x="446" d="M3 0l7 40h159l110 565l8 35h-2q-10 -13 -46 -43l-96 -81l-26 32l181 152h43l-129 -660h155l-8 -40h-356z" />
<glyph unicode="2" horiz-adv-x="553" d="M10 0q1 51 21 94t60 80.5t74 61.5t92 59q115 71 150 101q77 67 77 146q0 60 -38.5 94t-99.5 34q-53 0 -103.5 -27t-86.5 -72l-31 26q38 51 98 83t126 32q81 0 130.5 -45.5t49.5 -121.5q0 -47 -17 -86t-61.5 -77.5t-70 -56.5t-91.5 -58q-9 -6 -14 -9q-47 -29 -74.5 -47.5 t-61.5 -47t-53 -59t-26 -64.5h383l-8 -40h-425z" />
<glyph unicode="3" horiz-adv-x="555" d="M10 85l34 29q73 -84 179 -84q78 0 143.5 60t65.5 145q0 65 -45.5 99.5t-114.5 34.5h-52l-6 30l241 229l37 32v2q-19 -2 -54 -2h-283l8 40h401l-6 -30l-277 -261q24 0 48 -4.5t51.5 -16.5t48 -30.5t34.5 -50.5t14 -72q0 -99 -78.5 -173t-177.5 -74q-63 0 -118.5 25 t-92.5 72z" />
<glyph unicode="4" horiz-adv-x="591" d="M23 200l6 30l449 470h45l-90 -460h104l-8 -40h-104l-39 -200h-43l39 200h-359zM95 240h295l64 328l15 63h-2q-22 -25 -44 -48l-328 -342v-1z" />
<glyph unicode="5" horiz-adv-x="553" d="M19 89l37 25q55 -84 156 -84q90 0 158.5 64t68.5 152q0 69 -45 110.5t-118 41.5q-36 0 -72 -10.5t-54 -21.5l-18 -10l-31 11l105 333h326l-8 -40h-287l-65 -207l-15 -43h2q48 30 123 30q90 0 146 -53.5t56 -139.5q0 -106 -81.5 -182.5t-192.5 -76.5q-59 0 -110.5 26.5 t-80.5 74.5z" />
<glyph unicode="6" horiz-adv-x="584" d="M61 236q0 50 14.5 111t46 125.5t75 118t107 87.5t135.5 34q69 0 126 -28l-26 -37q-40 23 -100 23q-59 0 -112.5 -28.5t-93 -75.5t-67.5 -102.5t-44 -115.5h2q37 44 92.5 70t114.5 26q85 0 135.5 -47.5t50.5 -130.5q0 -68 -30.5 -131t-90 -105t-134.5 -42q-97 0 -149 68.5 t-52 179.5zM106 221q0 -75 40.5 -133t112.5 -58q89 0 151 68.5t62 167.5q0 64 -38.5 100t-105.5 36q-45 0 -95.5 -21.5t-88.5 -65t-38 -94.5z" />
<glyph unicode="7" horiz-adv-x="516" d="M46 0l408 595l50 65v2q-20 -2 -55 -2h-336l8 40h443l-6 -30l-463 -670h-49z" />
<glyph unicode="8" horiz-adv-x="590" d="M42 168q0 39 16.5 77t37.5 62.5t48.5 47.5t40.5 31t23 13q-70 48 -70 119q0 76 65.5 135t168.5 59q90 0 137.5 -39.5t47.5 -109.5q0 -40 -18.5 -82t-45.5 -73.5t-43.5 -48t-27.5 -24.5q82 -52 82 -127q0 -94 -78 -157t-181 -63q-87 0 -145 47t-58 133zM383 356 q14 10 29.5 24.5t41 43t41.5 65.5t16 74q0 49 -38 78t-101 29q-81 0 -134.5 -44.5t-53.5 -106.5q0 -25 10.5 -45t35 -37t43.5 -27.5t56.5 -28t53.5 -25.5zM88 168q0 -64 45.5 -101t111.5 -37q82 0 147.5 50t65.5 127q0 25 -12 46t-36.5 38t-47 28.5t-59 28.5t-56.5 28 q-18 -10 -38 -23.5t-51 -40t-50.5 -64.5t-19.5 -80z" />
<glyph unicode="9" horiz-adv-x="584" d="M41 16l26 37q46 -23 100 -23q59 0 112.5 28.5t93 75.5t67.5 102.5t44 115.5h-2q-37 -44 -92.5 -70t-114.5 -26q-85 0 -135.5 47.5t-50.5 130.5q0 68 30.5 131t90 105t134.5 42q97 0 149 -68.5t52 -179.5q0 -50 -14.5 -111t-46 -125.5t-75 -118t-107 -87.5t-135.5 -34 q-73 0 -126 28zM275 298q45 0 96 21.5t90 65t39 94.5q0 75 -40.5 133t-112.5 58q-89 0 -151 -68.5t-62 -167.5q0 -63 38 -99.5t103 -36.5z" />
<glyph unicode=":" horiz-adv-x="215" d="M105 437l12 63h61l-12 -63h-61zM20 0l12 63h61l-12 -63h-61z" />
<glyph unicode=";" horiz-adv-x="282" d="M152 437l12 63h61l-12 -63h-61zM-3 -94l84 155h55l-95 -155h-44z" />
<glyph unicode="&#x3c;" d="M36 265v36l439 197v-48l-377 -166v-2l377 -166v-48z" />
<glyph unicode="=" d="M48 343v40h456v-40h-456zM48 183v40h456v-40h-456z" />
<glyph unicode="&#x3e;" d="M75 68v48l377 166v2l-377 166v48l439 -197v-36z" />
<glyph unicode="?" horiz-adv-x="433" d="M136 175l9 44q10 47 38.5 86.5t62.5 66.5t66.5 54t54 62t21.5 77q0 46 -33 75.5t-89 29.5q-69 0 -136 -42l-17 37q71 47 155 47q77 0 121.5 -40t44.5 -105q0 -49 -22.5 -89.5t-56 -69t-68 -55t-63 -61t-36.5 -73.5l-9 -44h-43zM95 0l13 61h59l-13 -61h-59z" />
<glyph unicode="@" horiz-adv-x="759" d="M47 174q0 112 61 213.5t158 161t200 59.5q107 0 156 -41t49 -106q0 -17 -3 -35l-66 -339h70l-8 -40h-257q-74 0 -120.5 46t-46.5 117q0 88 70.5 157.5t156.5 69.5h158q2 14 2 22q0 48 -37 78.5t-120 30.5q-149 0 -263.5 -118.5t-114.5 -275.5q0 -111 69.5 -183t182.5 -72 l-8 -41q-124 0 -206.5 84t-82.5 212zM285 211q0 -54 35.5 -89t91.5 -35h145l60 310h-143q-73 0 -131 -56.5t-58 -129.5z" />
<glyph unicode="A" horiz-adv-x="625" d="M-25 0l397 700h45l127 -700h-44l-43 242h-297l-137 -242h-48zM182 282h267l-50 284l-12 84h-2q-25 -54 -42 -84z" />
<glyph unicode="B" horiz-adv-x="608" d="M49 0l137 700h225q43 0 74 -12q83 -34 83 -131q0 -67 -34.5 -116t-90.5 -71v-2q39 -13 63 -49.5t24 -89.5q0 -72 -36 -127.5t-94 -81.5q-43 -20 -96 -20h-255zM168 388h190q67 0 116 47.5t49 121.5q0 48 -29.5 75.5t-82.5 27.5h-190zM100 40h198q46 0 79 15 q49 22 78.5 67.5t29.5 105.5q0 56 -34.5 88t-93.5 32h-197z" />
<glyph unicode="C" horiz-adv-x="719" d="M65 286q0 114 59.5 213t155.5 156t202 57q68 0 133.5 -21.5t106.5 -66.5l-30 -31q-78 78 -210 78q-95 0 -180.5 -51t-138.5 -140.5t-53 -193.5q0 -112 68.5 -184.5t181.5 -72.5q67 0 135 25.5t120 69.5l25 -33q-50 -45 -128.5 -74t-151.5 -29q-136 0 -215.5 83t-79.5 215 z" />
<glyph unicode="D" horiz-adv-x="738" d="M49 0l137 700h209q140 0 219.5 -70.5t79.5 -199.5q0 -180 -117.5 -305t-298.5 -125h-229zM99 40h170q163 0 271.5 111t108.5 277q0 111 -69 171.5t-190 60.5h-169z" />
<glyph unicode="E" horiz-adv-x="553" d="M49 0l137 700h383l-9 -40h-339l-56 -287h279l-8 -40h-278l-58 -293h358l-7 -40h-402z" />
<glyph unicode="F" horiz-adv-x="501" d="M49 0l137 700h353l-8 -40h-310l-57 -292h268l-8 -40h-268l-64 -328h-43z" />
<glyph unicode="G" horiz-adv-x="754" d="M63 277q0 174 127 304.5t292 130.5q149 0 237 -78l-30 -32q-35 32 -92 50.5t-115 18.5q-148 0 -261 -117.5t-113 -276.5q0 -110 66.5 -179t176.5 -69q142 0 265 123l25 127h-124l7 40h168l-62 -319h-43l12 62l7 30h-2q-4 -4 -12 -11t-34 -25t-53.5 -32t-69.5 -25t-84 -11 q-130 0 -209 81t-79 208z" />
<glyph unicode="H" horiz-adv-x="743" d="M49 0l137 700h43l-64 -329h444l64 329h43l-137 -700h-43l65 331h-444l-65 -331h-43z" />
<glyph unicode="I" horiz-adv-x="256" d="M49 0l137 700h43l-137 -700h-43z" />
<glyph unicode="J" horiz-adv-x="505" d="M7 139q0 19 6 52l4 22h43l-4 -22q-5 -25 -5 -45q0 -117 116 -117q59 0 109.5 39t66.5 123l90 469h-166l8 40h209l-100 -515q-20 -103 -81 -150t-136 -47q-69 0 -114.5 37t-45.5 114z" />
<glyph unicode="K" horiz-adv-x="567" d="M49 0l137 700h43l-61 -312h126l265 312h52l-281 -331v-2l158 -367h-47l-148 348h-133l-68 -348h-43z" />
<glyph unicode="L" horiz-adv-x="498" d="M49 0l137 700h43l-129 -660h334l-9 -40h-376z" />
<glyph unicode="M" horiz-adv-x="835" d="M22 0l194 700h39l118 -440l19 -79h2q26 44 49 79l290 440h44l-81 -700h-43l62 534l15 93h-2q-31 -59 -54 -93l-265 -399h-44l-110 399l-20 95h-2q-10 -61 -19 -95l-149 -534h-43z" />
<glyph unicode="N" horiz-adv-x="743" d="M49 0l137 700h35l292 -549l40 -88h2q4 53 11 88l107 549h43l-137 -700h-35l-292 549l-40 88h-2q-4 -53 -11 -88l-107 -549h-43z" />
<glyph unicode="O" horiz-adv-x="826" d="M64 288q0 112 61 210.5t159 156t203 57.5q132 0 215 -82t83 -210q0 -114 -61.5 -214.5t-159 -159t-202.5 -58.5q-132 0 -215 84t-83 216zM109 288q0 -114 70.5 -186.5t182.5 -72.5q93 0 180.5 52.5t142.5 143.5t55 194q0 111 -70.5 181.5t-182.5 70.5q-95 0 -182 -51 t-141.5 -140.5t-54.5 -191.5z" />
<glyph unicode="P" horiz-adv-x="591" d="M49 0l137 700h219q70 0 112 -24q77 -43 77 -140q0 -79 -41 -139.5t-106 -87.5q-47 -19 -101 -19h-197l-57 -290h-43zM157 330h185q49 0 88 16q54 23 86.5 72.5t32.5 117.5q0 59 -38 91.5t-106 32.5h-184z" />
<glyph unicode="Q" horiz-adv-x="826" d="M64 288q0 112 61 210.5t159 156t203 57.5q132 0 215 -82t83 -210q0 -90 -39.5 -173t-106.5 -145l69 -91l-30 -26l-70 92q-114 -89 -246 -89t-215 84t-83 216zM109 288q0 -114 70.5 -186.5t182.5 -72.5q119 0 222 81l-72 95l30 26l72 -96q58 56 92 130t34 154 q0 111 -70.5 181.5t-182.5 70.5q-95 0 -182 -51t-141.5 -140.5t-54.5 -191.5z" />
<glyph unicode="R" horiz-adv-x="604" d="M50 0l136 700h222q60 0 97 -19q77 -40 77 -137q0 -86 -53 -148.5t-132 -77.5v-2q4 -8 10 -25l102 -291h-46l-108 310h-202l-60 -310h-43zM161 350h185q80 0 135.5 54.5t55.5 139.5q0 54 -34 85t-95 31h-187z" />
<glyph unicode="S" horiz-adv-x="527" d="M12 75l31 31q2 -3 6.5 -8t20.5 -18.5t34 -23.5t48 -18t62 -8q79 0 135 42.5t56 113.5q0 42 -22 73t-54.5 48.5t-71 38t-71 39t-54.5 53.5t-22 81q0 88 70.5 140.5t166.5 52.5q53 0 96.5 -17t60.5 -33l17 -17l-28 -33q-6 6 -16.5 16t-48 26t-80.5 16q-75 0 -134 -40.5 t-59 -108.5q0 -45 30.5 -77t73.5 -52.5t86.5 -43t74 -62t30.5 -96.5q0 -89 -66.5 -145.5t-168.5 -56.5q-38 0 -73 9t-58 22t-40 25.5t-24 21.5z" />
<glyph unicode="T" horiz-adv-x="596" d="M218 0l128 660h-260l7 40h565l-7 -40h-262l-128 -660h-43z" />
<glyph unicode="U" horiz-adv-x="721" d="M84 187q0 27 6 57l89 456h43l-89 -457q-5 -23 -5 -52q0 -77 48 -119.5t134 -42.5q99 0 169.5 58t90.5 158l89 455h43l-92 -465q-22 -115 -103.5 -181t-196.5 -66q-105 0 -165.5 53t-60.5 146z" />
<glyph unicode="V" horiz-adv-x="621" d="M226 0l-124 700h43l100 -566l11 -84h2q25 51 44 84l321 566h48l-398 -700h-47z" />
<glyph unicode="W" horiz-adv-x="907" d="M164 0l-48 700h43l36 -570l2 -75h2q18 40 35 75l278 570h50l39 -570l2 -75h2q17 41 32 75l259 570h48l-321 -700h-54l-38 528l-3 111h-2q-28 -65 -50 -110l-260 -529h-52z" />
<glyph unicode="X" horiz-adv-x="550" d="M-35 0l297 373l-137 327h46l91 -221l32 -78h2q25 36 57 76l180 223h54l-270 -334l157 -366h-46l-112 263l-30 75h-2q-21 -31 -55 -73l-213 -265h-51z" />
<glyph unicode="Y" horiz-adv-x="567" d="M199 0l60 304l-160 396h46l111 -276l29 -79h2q31 43 58 78l219 277h53l-315 -397l-60 -303h-43z" />
<glyph unicode="Z" d="M-24 0l7 34l489 562l61 64v2q-15 -2 -50 -2h-358l9 40h463l-7 -34l-490 -562l-61 -64v-2q15 2 50 2h381l-7 -40h-487z" />
<glyph unicode="[" horiz-adv-x="264" d="M23 -95l159 820h108l-8 -40h-65l-143 -740h65l-8 -40h-108z" />
<glyph unicode="\" horiz-adv-x="383" d="M231 -42l-100 782h42l100 -782h-42z" />
<glyph unicode="]" horiz-adv-x="264" d="M-9 -55h65l143 740h-65l8 40h108l-159 -820h-108z" />
<glyph unicode="^" horiz-adv-x="600" d="M85 252l197 448h32l197 -448h-46l-167 388l-167 -388h-46z" />
<glyph unicode="_" horiz-adv-x="577" d="M-11 0h496l-7 -40h-496z" />
<glyph unicode="`" horiz-adv-x="509" d="M208 750l-57 111h52l45 -111h-40z" />
<glyph unicode="a" horiz-adv-x="508" d="M7 113q0 57 32 97.5t86.5 59.5t108 27t113.5 8h39q7 38 7 64q0 102 -112 102q-82 0 -152 -48l-18 38q71 51 170 51q156 0 156 -137q0 -25 -6 -57l-62 -318h-42l13 65l12 46h-2q-23 -45 -74.5 -84t-118.5 -39q-64 0 -107 34t-43 91zM51 117q0 -38 28 -64t82 -26 q75 0 135 67t78 149l5 23h-32q-296 0 -296 -149z" />
<glyph unicode="b" horiz-adv-x="577" d="M30 0l136 700h42l-49 -255l-14 -46h2q28 50 80.5 81.5t112.5 31.5q87 0 134.5 -52.5t47.5 -144.5q0 -141 -81.5 -234t-190.5 -93q-60 0 -103 29.5t-58 83.5h-2q0 -23 -5 -49l-10 -52h-42zM113 184q0 -68 34.5 -111.5t102.5 -43.5q87 0 157.5 79t70.5 205q0 74 -37 116 t-101 42q-68 0 -121 -44t-79.5 -109t-26.5 -134z" />
<glyph unicode="c" horiz-adv-x="540" d="M38 197q0 136 94 225.5t211 89.5q51 0 99 -18t77 -53l-30 -31q-24 28 -63 44.5t-81 16.5q-100 0 -181.5 -77t-81.5 -193q0 -78 50.5 -125t127.5 -47q104 0 181 72l16 -38q-37 -34 -89 -54.5t-106 -20.5q-98 0 -161 57t-63 152z" />
<glyph unicode="d" horiz-adv-x="579" d="M39 185q0 141 81.5 234t190.5 93q59 0 102.5 -29.5t58.5 -83.5h2q0 23 5 46l50 255h42l-136 -700h-42l11 58l12 43h-2q-28 -47 -78.5 -80t-113.5 -33q-88 0 -135.5 52.5t-47.5 144.5zM83 187q0 -74 37 -116t102 -42q67 0 120.5 45t79.5 110t26 132q0 68 -34.5 111.5 t-102.5 43.5q-87 0 -157.5 -79t-70.5 -205z" />
<glyph unicode="e" horiz-adv-x="548" d="M39 197q0 124 84 219.5t207 95.5q87 0 130.5 -48.5t43.5 -128.5q0 -33 -13 -78h-401q-6 -29 -6 -55q0 -76 46 -124.5t130 -48.5q89 0 167 63l16 -38q-33 -27 -83 -46.5t-100 -19.5q-98 0 -159.5 57t-61.5 152zM100 296h355q4 15 4 42q0 67 -35.5 101t-93.5 34 q-73 0 -136.5 -46.5t-93.5 -130.5z" />
<glyph unicode="f" horiz-adv-x="310" d="M45 0l89 459h-63l7 38h63l5 25q9 47 28 82t39.5 53.5t45.5 30t42 14.5t34 3q21 0 31 -2l-9 -39q-10 2 -22 2q-19 0 -37 -5t-41 -18.5t-41.5 -45t-27.5 -76.5l-5 -24h137l-7 -38h-137l-89 -459h-42z" />
<glyph unicode="g" horiz-adv-x="571" d="M32 -136q56 -33 130 -33q84 0 144.5 43t78.5 129l11 53l13 46h-2q-64 -102 -178 -102q-87 0 -138 53t-51 143q0 73 29 144t91 121.5t142 50.5q61 0 106.5 -23t58.5 -75h2q-1 12 1 24l12 62h42l-97 -502q-21 -107 -93 -157.5t-167 -50.5q-87 0 -159 39zM84 197 q0 -73 39 -114.5t107 -41.5q53 0 95 28t67.5 72.5t38.5 95t13 100.5q0 134 -140 134q-100 0 -160 -84t-60 -190z" />
<glyph unicode="h" horiz-adv-x="585" d="M30 0l136 700h42l-54 -283l-13 -46h2q25 50 88.5 95.5t145.5 45.5q69 0 104 -32.5t35 -93.5q0 -29 -8 -69l-61 -317h-42l58 302q9 47 9 76q0 46 -26 69.5t-70 23.5q-91 0 -165.5 -70t-93.5 -167l-45 -234h-42z" />
<glyph unicode="i" horiz-adv-x="216" d="M148 627l15 73h50l-15 -73h-50zM30 0l98 500h42l-98 -500h-42z" />
<glyph unicode="j" horiz-adv-x="216" d="M147 627l14 73h50l-14 -73h-50zM26 -21l101 521h42l-101 -520q-11 -58 -34.5 -98t-52.5 -57.5t-51.5 -23.5t-45.5 -6q-25 0 -35 2l8 39q6 -2 22 -2q18 0 36.5 5t41.5 18.5t41.5 45t27.5 76.5z" />
<glyph unicode="k" horiz-adv-x="470" d="M30 0l137 700h42l-78 -397h85l202 197h57l-222 -216v-2l142 -282h-48l-131 264h-92l-52 -264h-42z" />
<glyph unicode="l" horiz-adv-x="233" d="M47 77q0 13 3 29l116 594h42l-114 -587q-3 -17 -3 -29q0 -21 8.5 -32.5t17.5 -13.5t23 -2q7 0 13 1l-9 -39q-6 -2 -17 -2q-17 0 -33 4.5t-31.5 24t-15.5 52.5z" />
<glyph unicode="m" horiz-adv-x="917" d="M30 0l97 500h42l-16 -83l-13 -46h2q30 60 92 100.5t128 40.5q71 0 101 -34.5t30 -101.5h2q31 59 90.5 97.5t124.5 38.5q68 0 103 -33.5t35 -95.5q0 -28 -8 -66l-61 -317h-42l58 302q9 47 9 73q0 98 -100 98q-83 0 -149 -71.5t-82 -157.5l-47 -244h-42l58 302q9 47 9 76 q0 95 -96 95q-83 0 -151 -70.5t-85 -159.5l-47 -243h-42z" />
<glyph unicode="n" horiz-adv-x="585" d="M30 0l97 500h42l-15 -83l-14 -46h2q25 49 89 95t146 46q69 0 104 -32.5t35 -93.5q0 -29 -8 -69l-61 -317h-42l58 302q9 47 9 76q0 46 -26 69.5t-70 23.5q-92 0 -166 -70t-93 -167l-45 -234h-42z" />
<glyph unicode="o" horiz-adv-x="620" d="M38 205q0 125 93.5 216t212.5 91q98 0 159.5 -60t61.5 -154q0 -126 -94 -218t-212 -92q-98 0 -159.5 61t-61.5 156zM82 206q0 -78 49.5 -127.5t127.5 -49.5q100 0 181 79.5t81 188.5q0 76 -49.5 125t-127.5 49q-102 0 -182 -78.5t-80 -186.5z" />
<glyph unicode="p" horiz-adv-x="578" d="M82 52l-49 -252h-42l136 700h42l-10 -55l-12 -45h2q28 48 77.5 80t113.5 32q87 0 135 -52.5t48 -144.5q0 -140 -81.5 -233.5t-188.5 -93.5q-61 0 -104.5 29t-58.5 84h-2q-1 -23 -6 -49zM114 187q0 -69 35 -113.5t102 -44.5q87 0 157.5 79t70.5 205q0 74 -37 116t-102 42 q-67 0 -120 -44.5t-79.5 -108.5t-26.5 -131z" />
<glyph unicode="q" horiz-adv-x="578" d="M38 184q0 141 82 234.5t191 93.5q60 0 102.5 -29t57.5 -83h2q1 17 5 40l11 60h42l-136 -700h-42l49 252l14 49h-2q-29 -49 -78 -81t-115 -32q-87 0 -135 52.5t-48 143.5zM82 187q0 -73 37 -115.5t102 -42.5q67 0 120.5 45t80 110t26.5 132q0 68 -34.5 111.5t-102.5 43.5 q-87 0 -158 -79t-71 -205z" />
<glyph unicode="r" horiz-adv-x="340" d="M30 0l97 500h42l-18 -90l-13 -46h2q29 60 77.5 100t108.5 40q14 0 30 -3l-9 -42q-16 2 -22 2q-43 0 -82 -27.5t-65 -70t-43.5 -86.5t-25.5 -86l-37 -191h-42z" />
<glyph unicode="s" horiz-adv-x="430" d="M-1 61l27 30q24 -28 62.5 -45t80.5 -17q56 0 97 26.5t41 73.5q0 33 -24 56.5t-57.5 38t-67.5 30.5t-58 45.5t-24 72.5q0 66 54 103t128 37q96 0 143 -56l-28 -30q-42 45 -116 45q-54 0 -95.5 -25t-41.5 -73q0 -34 24 -57t58 -37.5t67.5 -30.5t57.5 -44.5t24 -70.5 q0 -64 -52.5 -104.5t-130.5 -40.5q-110 0 -169 73z" />
<glyph unicode="t" horiz-adv-x="297" d="M72 133q0 25 6 58l52 268h-66l7 38h66l28 142h42l-28 -142h131l-7 -38h-131l-53 -275q-5 -24 -5 -49q0 -100 89 -100q13 0 29 2l-8 -39q-6 -2 -21 -2q-131 0 -131 137z" />
<glyph unicode="u" horiz-adv-x="580" d="M52 114q0 29 8 69l61 317h42l-58 -300q-9 -44 -9 -78q0 -44 22 -68.5t77 -24.5q90 0 162 73t89 166l45 232h42l-97 -500h-42l16 83l13 46h-2q-27 -51 -88.5 -96t-144.5 -45q-60 0 -98 30.5t-38 95.5z" />
<glyph unicode="v" horiz-adv-x="495" d="M168 0l-100 500h43l76 -395l7 -54h2q15 30 29 54l229 395h47l-293 -500h-40z" />
<glyph unicode="w" horiz-adv-x="823" d="M150 0l-79 500h43l60 -395l6 -54h2q15 30 28 54l212 393h49l60 -393l7 -54h2q14 29 27 54l214 395h46l-273 -500h-45l-64 391l-6 54h-2q-15 -30 -28 -54l-212 -391h-47z" />
<glyph unicode="x" horiz-adv-x="460" d="M-35 0l233 265l-120 235h48l89 -179l13 -28h1q9 12 20 25l157 182h53l-209 -240l134 -260h-47l-103 203l-13 30h-2q-8 -13 -21 -27l-180 -206h-53z" />
<glyph unicode="y" horiz-adv-x="520" d="M-48 -149q21 -21 58 -21q61 0 116 89l53 85l-112 496h44l87 -406l9 -47h1q13 23 27 47l244 406h48l-379 -620q-56 -90 -138 -90q-46 0 -82 28z" />
<glyph unicode="z" horiz-adv-x="482" d="M-20 0l6 34l374 381q44 46 47 46v2q-17 -2 -50 -2h-275l7 39h386l-7 -34l-375 -381q-11 -11 -22.5 -22t-18.5 -17l-7 -7v-2q18 2 51 2h300l-7 -39h-409z" />
<glyph unicode="{" horiz-adv-x="324" d="M85 28q0 22 7 60l18 94q3 18 3 32q0 70 -65 87l8 40q41 8 70 40t38 79l16 81q36 183 172 183h8l-7 -39h-5q-12 0 -25 -3.5t-34 -16t-39 -44t-27 -79.5l-18 -93q-9 -45 -36 -79.5t-68 -47.5v-2q25 -14 41 -40.5t16 -58.5q0 -13 -3 -28l-21 -106q-6 -30 -6 -52 q0 -30 8.5 -50t23 -28t24.5 -10.5t20 -2.5h5l-8 -39q-3 -1 -9 -1q-13 0 -27.5 4t-34.5 15.5t-32.5 38.5t-12.5 66z" />
<glyph unicode="|" horiz-adv-x="293" d="M128 -155v940h43v-940h-43z" />
<glyph unicode="}" horiz-adv-x="324" d="M-10 -56q6 0 14 1.5t25 9.5t31 21.5t28.5 42.5t21.5 68l20 105q9 49 36 83.5t68 46.5v2q-56 34 -56 96q0 13 3 28l18 94q6 30 6 52q0 30 -9 50t-23 28t-24 10.5t-20 2.5h-5l8 39q3 1 9 1q13 0 27.5 -4t34.5 -15.5t32.5 -38.5t12.5 -66q0 -21 -7 -60l-16 -82 q-3 -18 -3 -32q0 -33 17 -56.5t48 -30.5l-8 -40q-43 -9 -71.5 -41.5t-36.5 -77.5l-18 -93q-37 -184 -172 -184h-8l7 40h10z" />
<glyph unicode="~" horiz-adv-x="575" d="M68 213q0 74 31.5 109t83.5 35q31 0 55.5 -11.5t40 -27.5t30 -32t35 -27.5t45.5 -11.5q31 0 49 21t22 41.5t4 43.5h40q0 -74 -31.5 -109t-83.5 -35q-31 0 -55.5 11.5t-40 27.5t-30 32t-35 27.5t-45.5 11.5q-31 0 -49 -21t-22 -41.5t-4 -43.5h-40z" />
<glyph unicode="&#xa1;" horiz-adv-x="226" d="M111 439l13 61h59l-13 -61h-59zM-5 -200l103 525h43l-103 -525h-43z" />
<glyph unicode="&#xa2;" d="M210 -13l16 85q-77 9 -120 62.5t-43 143.5q0 79 30 155.5t94 133.5t148 61l16 84h43l-17 -85q38 -4 68 -20.5t46 -36t26.5 -38.5t14.5 -32l3 -13l-41 -16q-1 5 -3 12.5t-12.5 27.5t-24.5 35.5t-41.5 28t-61.5 12.5q-110 0 -176 -92t-66 -220q0 -74 37 -118t113 -44 q33 0 64.5 12t52.5 29t37 34t23 29l8 12l41 -16q-3 -5 -9 -14.5t-26.5 -33t-43.5 -42t-60.5 -34.5t-76.5 -18l-16 -84h-43z" />
<glyph unicode="&#xa3;" d="M-3 0l8 40h64l57 293h-45l8 40h44l33 167q14 72 76.5 122t145.5 50q89 0 145 -52l-33 -30q-43 40 -112 40q-72 0 -120.5 -40t-59.5 -99l-31 -158h198l-8 -40h-198l-57 -293h351l-8 -40h-458z" />
<glyph unicode="&#xa4;" horiz-adv-x="585" d="M75 0l37 190h-74l8 40h74l16 80h-74l8 40h74l68 350h192q84 0 134 -43t50 -119q0 -94 -72.5 -161t-177.5 -67h-159l-16 -80h255l-8 -40h-255l-37 -190h-43zM187 350h152q88 0 146 53t58 133q0 62 -37.5 93t-106.5 31h-152z" />
<glyph unicode="&#xa5;" d="M200 0l44 222h-163l7 40h163l9 42l-20 48h-134l8 40h110l-125 308h47l110 -276l30 -79h2q30 43 57 78l219 277h53l-245 -308h108l-8 -40h-132l-37 -48l-9 -42h160l-7 -40h-160l-44 -222h-43z" />
<glyph unicode="&#xa7;" horiz-adv-x="387" d="M96 62l26 481q4 69 54.5 119t127.5 50q53 0 93 -34l-30 -30q-23 23 -64 23q-58 0 -96 -38.5t-41 -95.5l-28 -475h-42zM1 -28l30 30q23 -23 64 -23q58 0 96 38.5t41 95.5l28 475h42l-26 -481q-4 -69 -54.5 -119t-127.5 -50q-53 0 -93 34z" />
<glyph unicode="&#xa8;" horiz-adv-x="509" d="M242 788l14 73h46l-14 -73h-46zM105 788l14 73h46l-14 -73h-46z" />
<glyph unicode="&#xa9;" horiz-adv-x="841" d="M78 350q0 151 103 256.5t249 105.5q149 0 252.5 -105.5t103.5 -256.5q0 -152 -103.5 -257t-252.5 -105q-147 0 -249.5 105t-102.5 257zM123 350q0 -136 88.5 -228t218.5 -92q132 0 221.5 92t89.5 228q0 135 -89.5 227.5t-221.5 92.5q-130 0 -218.5 -92.5t-88.5 -227.5z M227 349q0 85 57 148t158 63q47 0 91 -24t72 -64l-33 -29q-20 31 -56 52.5t-73 21.5q-81 0 -126 -49.5t-45 -117.5t45 -117.5t126 -49.5q76 0 129 74l33 -29q-28 -39 -72 -63.5t-91 -24.5q-101 0 -158 62t-57 147z" />
<glyph unicode="&#xaa;" horiz-adv-x="422" d="M214 382q-36 0 -65.5 21t-29.5 61q0 122 211 122h21l1 5q16 82 -60 82q-43 0 -92 -29l-17 32q18 14 50.5 24t59.5 10q101 0 101 -90q0 -18 -5 -40l-38 -192h-39l10 51h-2q-45 -55 -106 -57zM222 419q41 0 77 42t43 79l2 10h-13q-169 0 -169 -83q0 -21 15 -34.5t45 -13.5z M77 263l7 37h253l-7 -37h-253z" />
<glyph unicode="&#xab;" horiz-adv-x="488" d="M334 77l-128 208l204 203h57l-211 -208l126 -203h-48zM179 77l-128 208l192 203h57l-199 -208l126 -203h-48z" />
<glyph unicode="&#xac;" horiz-adv-x="668" d="M109 343v40h456v-219h-42v179h-414z" />
<glyph unicode="&#xad;" horiz-adv-x="432" d="M72 263l7 40h276l-7 -40h-276z" />
<glyph unicode="&#xae;" horiz-adv-x="841" d="M78 350q0 151 103 256.5t249 105.5q149 0 252.5 -105.5t103.5 -256.5q0 -152 -103.5 -257t-252.5 -105q-147 0 -249.5 105t-102.5 257zM123 350q0 -136 88.5 -228t218.5 -92q132 0 221.5 92t89.5 228q0 135 -89.5 227.5t-221.5 92.5q-130 0 -218.5 -92.5t-88.5 -227.5z M314 150v400h133q51 0 83.5 -32t32.5 -84q0 -42 -22 -70.5t-55 -36.5v-2q4 -5 13 -22l79 -153h-49l-85 167h-86v-167h-44zM358 355h84q35 0 55.5 21t20.5 58q0 36 -20.5 56t-55.5 20h-84v-155z" />
<glyph unicode="&#xaf;" horiz-adv-x="509" d="M80 786l7 40h239l-7 -40h-239z" />
<glyph unicode="&#xb0;" horiz-adv-x="389" d="M230 449q-51 0 -82.5 31.5t-31.5 80.5q0 58 47 103.5t106 45.5q50 0 81.5 -32t31.5 -80q0 -58 -47.5 -103.5t-104.5 -45.5zM232 489q42 0 74.5 32.5t32.5 76.5q0 31 -20 51.5t-52 20.5q-42 0 -75 -33t-33 -76q0 -31 20 -51.5t53 -20.5z" />
<glyph unicode="&#xb1;" d="M234 0v263h-237v40h237v263h43v-263h236v-40h-236v-263h-43zM17 -113h476v-40h-476v40z" />
<glyph unicode="&#xb2;" horiz-adv-x="376" d="M80 423q1 44 23 81t53.5 59.5t68 46t67.5 43t51.5 47.5t20.5 61q0 30 -20.5 50t-55.5 20q-50 0 -104 -50l-21 28q23 24 57.5 41t68.5 17q56 0 85 -29t29 -75q0 -45 -25 -80t-62.5 -59t-76 -45.5t-71 -52t-42.5 -67.5h227l-7 -36h-266z" />
<glyph unicode="&#xb3;" horiz-adv-x="376" d="M215 413q-83 0 -140 65l30 24q47 -53 111 -53q45 0 81.5 35t36.5 84q0 36 -27 57t-64 21h-32l-7 24l133 127l30 25v2q-18 -3 -38 -3h-164l7 36h255l-5 -26l-158 -150q38 -3 73.5 -30t35.5 -83q0 -61 -47.5 -108t-110.5 -47z" />
<glyph unicode="&#xb4;" horiz-adv-x="509" d="M125 750l89 111h60l-101 -111h-48z" />
<glyph unicode="&#xb6;" horiz-adv-x="543" d="M215 -50l56 291q-81 0 -140 57t-59 141q0 105 85.5 183t191.5 78h220l-7 -40h-167l-138 -710h-42zM319 -50l125 647h42l-125 -647h-42z" />
<glyph unicode="&#xb7;" horiz-adv-x="217" d="M70 254l12 63h61l-12 -63h-61z" />
<glyph unicode="&#xb8;" horiz-adv-x="509" d="M149 -93l45 111l33 -6l-28 -72q24 -4 40.5 -20.5t16.5 -43.5q0 -39 -31.5 -59.5t-70.5 -20.5q-28 0 -48 5l8 37q13 -5 39 -5q24 0 43 10t19 33q0 32 -54 32q-8 0 -12 -1z" />
<glyph unicode="&#xb9;" horiz-adv-x="376" d="M109 423l7 36h96l62 322l6 22h-2q-5 -8 -27 -27l-51 -42l-22 29l112 94h38l-78 -398h93l-7 -36h-227z" />
<glyph unicode="&#xba;" horiz-adv-x="487" d="M267 383q-62 0 -101 38t-39 97q0 77 58.5 135t131.5 58q62 0 101.5 -38.5t39.5 -96.5q0 -78 -59 -135.5t-132 -57.5zM267 420q58 0 105 45.5t47 109.5q0 44 -28.5 71.5t-73.5 27.5q-59 0 -105 -45t-46 -108q0 -45 28 -73t73 -28zM92 263l7 37h294l-7 -37h-294z" />
<glyph unicode="&#xbb;" horiz-adv-x="488" d="M184 77l199 208l-126 203h48l128 -208l-192 -203h-57zM17 77l211 208l-126 203h48l128 -208l-204 -203h-57z" />
<glyph unicode="&#xbc;" horiz-adv-x="896" d="M691 0l24 121h-218l5 26l278 287h34l-54 -277h68l-7 -36h-68l-24 -121h-38zM230 0h-47l472 700h46zM55 266l7 36h96l62 322l6 22h-2q-5 -8 -27 -27l-51 -42l-22 29l112 94h38l-78 -398h93l-7 -36h-227zM562 157h160l28 147l16 65h-2q-22 -27 -45 -50l-157 -160v-2z" />
<glyph unicode="&#xbd;" horiz-adv-x="890" d="M514 0q1 44 23 81t53.5 59.5t68 46t67.5 43t51.5 47.5t20.5 61q0 30 -20.5 50t-55.5 20q-50 0 -104 -50l-21 28q23 24 57.5 41t68.5 17q56 0 85 -29t29 -75q0 -45 -25 -80t-62.5 -59t-76 -45.5t-71 -52t-42.5 -67.5h227l-7 -36h-266zM229 0h-47l472 700h46zM54 266l7 36 h96l62 322l6 22h-2q-5 -8 -27 -27l-51 -42l-22 29l112 94h38l-78 -398h93l-7 -36h-227z" />
<glyph unicode="&#xbe;" horiz-adv-x="931" d="M266 0h-47l472 700h46zM727 0l24 121h-218l5 26l278 287h34l-54 -277h68l-7 -36h-68l-24 -121h-38zM598 157h160l28 147l16 65h-2q-22 -27 -45 -50l-157 -160v-2zM193 256q-83 0 -140 65l30 24q47 -53 111 -53q45 0 81.5 35t36.5 84q0 36 -27 57t-64 21h-32l-7 24 l133 127l30 25v2q-18 -3 -38 -3h-164l7 36h255l-5 -26l-158 -150q38 -3 73.5 -30t35.5 -83q0 -61 -47.5 -108t-110.5 -47z" />
<glyph unicode="&#xbf;" horiz-adv-x="429" d="M247 439l13 61h59l-13 -61h-59zM-20 -65q0 49 22.5 89.5t55.5 69t67.5 55t63.5 61t37 73.5l9 42h43l-9 -42q-10 -47 -39 -86.5t-62.5 -66.5t-66 -54t-54 -62t-21.5 -77q0 -46 33 -75.5t89 -29.5q70 0 136 42l17 -37q-73 -47 -155 -47q-77 0 -121.5 40t-44.5 105z" />
<glyph unicode="&#xc0;" horiz-adv-x="625" d="M-25 0l397 700h45l127 -700h-44l-43 242h-297l-137 -242h-48zM182 282h267l-50 284l-12 84h-2q-25 -54 -42 -84zM385 750l-57 111h52l45 -111h-40z" />
<glyph unicode="&#xc1;" horiz-adv-x="625" d="M-25 0l397 700h45l127 -700h-44l-43 242h-297l-137 -242h-48zM182 282h267l-50 284l-12 84h-2q-25 -54 -42 -84zM380 750l89 111h60l-101 -111h-48z" />
<glyph unicode="&#xc2;" horiz-adv-x="625" d="M-25 0l397 700h45l127 -700h-44l-43 242h-297l-137 -242h-48zM182 282h267l-50 284l-12 84h-2q-25 -54 -42 -84zM296 750l102 111h52l58 -111h-46l-40 80h-2l-72 -80h-52z" />
<glyph unicode="&#xc3;" horiz-adv-x="625" d="M-25 0l397 700h45l127 -700h-44l-43 242h-297l-137 -242h-48zM182 282h267l-50 284l-12 84h-2q-25 -54 -42 -84zM267 753q20 108 96 108q22 0 38.5 -11.5t25 -25.5t21 -25.5t26.5 -11.5q40 0 52 71h40q-11 -55 -34 -81.5t-63 -26.5q-22 0 -38 11.5t-24.5 25.5t-21 25.5 t-27.5 11.5q-21 0 -34 -23t-17 -48h-40z" />
<glyph unicode="&#xc4;" horiz-adv-x="625" d="M-25 0l397 700h45l127 -700h-44l-43 242h-297l-137 -242h-48zM182 282h267l-50 284l-12 84h-2q-25 -54 -42 -84zM459 788l14 73h46l-14 -73h-46zM322 788l14 73h46l-14 -73h-46z" />
<glyph unicode="&#xc5;" horiz-adv-x="625" d="M-25 0l397 700h45l127 -700h-44l-43 242h-297l-137 -242h-48zM182 282h267l-50 284l-12 84h-2q-25 -54 -42 -84zM410 740q-30 0 -46 15.5t-16 43.5q0 29 22.5 52t51.5 23q30 0 46 -16t16 -43q0 -29 -22.5 -52t-51.5 -23zM410 775q16 0 27.5 11.5t11.5 28.5q0 11 -7.5 18 t-19.5 7q-16 0 -27.5 -11.5t-11.5 -29.5q0 -24 27 -24z" />
<glyph unicode="&#xc6;" horiz-adv-x="828" d="M-31 0l423 700h452l-8 -40h-340l-56 -287h279l-8 -40h-279l-57 -293h359l-8 -40h-402l65 333h-170l-201 -333h-49zM243 373h154l56 287h-36z" />
<glyph unicode="&#xc7;" horiz-adv-x="719" d="M292 -93l33 83q-120 10 -190 91.5t-70 204.5q0 114 59.5 213t155.5 156t202 57q68 0 133.5 -21.5t106.5 -66.5l-30 -31q-78 78 -210 78q-95 0 -180.5 -51t-138.5 -140.5t-53 -193.5q0 -112 68.5 -184.5t181.5 -72.5q67 0 135 25.5t120 69.5l25 -33q-50 -45 -128.5 -74 t-151.5 -29l-18 -48q24 -4 40.5 -20.5t16.5 -43.5q0 -39 -31.5 -59.5t-70.5 -20.5q-28 0 -48 5l8 37q13 -5 39 -5q24 0 43 10t19 33q0 32 -54 32q-8 0 -12 -1z" />
<glyph unicode="&#xc8;" horiz-adv-x="553" d="M49 0l137 700h383l-9 -40h-339l-56 -287h279l-8 -40h-278l-58 -293h358l-7 -40h-402zM379 750l-57 111h52l45 -111h-40z" />
<glyph unicode="&#xc9;" horiz-adv-x="553" d="M49 0l137 700h383l-9 -40h-339l-56 -287h279l-8 -40h-278l-58 -293h358l-7 -40h-402zM374 750l89 111h60l-101 -111h-48z" />
<glyph unicode="&#xca;" horiz-adv-x="553" d="M49 0l137 700h383l-9 -40h-339l-56 -287h279l-8 -40h-278l-58 -293h358l-7 -40h-402zM290 750l102 111h52l58 -111h-46l-40 80h-2l-72 -80h-52z" />
<glyph unicode="&#xcb;" horiz-adv-x="553" d="M49 0l137 700h383l-9 -40h-339l-56 -287h279l-8 -40h-278l-58 -293h358l-7 -40h-402zM453 788l14 73h46l-14 -73h-46zM316 788l14 73h46l-14 -73h-46z" />
<glyph unicode="&#xcc;" horiz-adv-x="256" d="M49 0l137 700h43l-137 -700h-43zM197 750l-57 111h52l45 -111h-40z" />
<glyph unicode="&#xcd;" horiz-adv-x="256" d="M49 0l137 700h43l-137 -700h-43zM192 750l89 111h60l-101 -111h-48z" />
<glyph unicode="&#xce;" horiz-adv-x="256" d="M49 0l137 700h43l-137 -700h-43zM108 750l102 111h52l58 -111h-46l-40 80h-2l-72 -80h-52z" />
<glyph unicode="&#xcf;" horiz-adv-x="256" d="M49 0l137 700h43l-137 -700h-43zM271 788l14 73h46l-14 -73h-46zM134 788l14 73h46l-14 -73h-46z" />
<glyph unicode="&#xd0;" horiz-adv-x="746" d="M57 0l65 333h-60l8 40h60l64 327h209q140 0 219.5 -70.5t79.5 -199.5q0 -180 -117.5 -305t-298.5 -125h-229zM107 40h170q163 0 271.5 111t108.5 277q0 111 -69 171.5t-190 60.5h-169l-57 -287h184l-8 -40h-184z" />
<glyph unicode="&#xd1;" horiz-adv-x="743" d="M49 0l137 700h35l292 -549l40 -88h2q4 53 11 88l107 549h43l-137 -700h-35l-292 549l-40 88h-2q-4 -53 -11 -88l-107 -549h-43zM322 753q20 108 96 108q22 0 38.5 -11.5t25 -25.5t21 -25.5t26.5 -11.5q40 0 52 71h40q-11 -55 -34 -81.5t-63 -26.5q-22 0 -38 11.5 t-24.5 25.5t-21 25.5t-27.5 11.5q-21 0 -34 -23t-17 -48h-40z" />
<glyph unicode="&#xd2;" horiz-adv-x="826" d="M64 288q0 112 61 210.5t159 156t203 57.5q132 0 215 -82t83 -210q0 -114 -61.5 -214.5t-159 -159t-202.5 -58.5q-132 0 -215 84t-83 216zM109 288q0 -114 70.5 -186.5t182.5 -72.5q93 0 180.5 52.5t142.5 143.5t55 194q0 111 -70.5 181.5t-182.5 70.5q-95 0 -182 -51 t-141.5 -140.5t-54.5 -191.5zM481 750l-57 111h52l45 -111h-40z" />
<glyph unicode="&#xd3;" horiz-adv-x="826" d="M64 288q0 112 61 210.5t159 156t203 57.5q132 0 215 -82t83 -210q0 -114 -61.5 -214.5t-159 -159t-202.5 -58.5q-132 0 -215 84t-83 216zM109 288q0 -114 70.5 -186.5t182.5 -72.5q93 0 180.5 52.5t142.5 143.5t55 194q0 111 -70.5 181.5t-182.5 70.5q-95 0 -182 -51 t-141.5 -140.5t-54.5 -191.5zM476 750l89 111h60l-101 -111h-48z" />
<glyph unicode="&#xd4;" horiz-adv-x="826" d="M64 288q0 112 61 210.5t159 156t203 57.5q132 0 215 -82t83 -210q0 -114 -61.5 -214.5t-159 -159t-202.5 -58.5q-132 0 -215 84t-83 216zM109 288q0 -114 70.5 -186.5t182.5 -72.5q93 0 180.5 52.5t142.5 143.5t55 194q0 111 -70.5 181.5t-182.5 70.5q-95 0 -182 -51 t-141.5 -140.5t-54.5 -191.5zM392 750l102 111h52l58 -111h-46l-40 80h-2l-72 -80h-52z" />
<glyph unicode="&#xd5;" horiz-adv-x="826" d="M64 288q0 112 61 210.5t159 156t203 57.5q132 0 215 -82t83 -210q0 -114 -61.5 -214.5t-159 -159t-202.5 -58.5q-132 0 -215 84t-83 216zM109 288q0 -114 70.5 -186.5t182.5 -72.5q93 0 180.5 52.5t142.5 143.5t55 194q0 111 -70.5 181.5t-182.5 70.5q-95 0 -182 -51 t-141.5 -140.5t-54.5 -191.5zM363 753q20 108 96 108q22 0 38.5 -11.5t25 -25.5t21 -25.5t26.5 -11.5q40 0 52 71h40q-11 -55 -34 -81.5t-63 -26.5q-22 0 -38 11.5t-24.5 25.5t-21 25.5t-27.5 11.5q-21 0 -34 -23t-17 -48h-40z" />
<glyph unicode="&#xd6;" horiz-adv-x="826" d="M64 288q0 112 61 210.5t159 156t203 57.5q132 0 215 -82t83 -210q0 -114 -61.5 -214.5t-159 -159t-202.5 -58.5q-132 0 -215 84t-83 216zM109 288q0 -114 70.5 -186.5t182.5 -72.5q93 0 180.5 52.5t142.5 143.5t55 194q0 111 -70.5 181.5t-182.5 70.5q-95 0 -182 -51 t-141.5 -140.5t-54.5 -191.5zM555 788l14 73h46l-14 -73h-46zM418 788l14 73h46l-14 -73h-46z" />
<glyph unicode="&#xd7;" d="M32 28l224 255l-224 255l28 28l223 -253l223 253l28 -28l-225 -255l225 -255l-28 -28l-223 253l-223 -253z" />
<glyph unicode="&#xd8;" horiz-adv-x="826" d="M78 3l66 72q-80 83 -80 213q0 112 61 210.5t159 156t203 57.5q109 0 186 -58l64 70l32 -27l-64 -70q80 -83 80 -207q0 -114 -61.5 -214.5t-159 -159t-202.5 -58.5q-111 0 -187 59l-64 -70zM174 107l470 515q-66 49 -157 49q-95 0 -182 -51t-141.5 -140.5t-54.5 -191.5 q0 -110 65 -181zM204 79q66 -50 158 -50q93 0 180.5 52.5t142.5 143.5t55 194q0 105 -65 175z" />
<glyph unicode="&#xd9;" horiz-adv-x="721" d="M84 187q0 27 6 57l89 456h43l-89 -457q-5 -23 -5 -52q0 -77 48 -119.5t134 -42.5q99 0 169.5 58t90.5 158l89 455h43l-92 -465q-22 -115 -103.5 -181t-196.5 -66q-105 0 -165.5 53t-60.5 146zM429 750l-57 111h52l45 -111h-40z" />
<glyph unicode="&#xda;" horiz-adv-x="721" d="M84 187q0 27 6 57l89 456h43l-89 -457q-5 -23 -5 -52q0 -77 48 -119.5t134 -42.5q99 0 169.5 58t90.5 158l89 455h43l-92 -465q-22 -115 -103.5 -181t-196.5 -66q-105 0 -165.5 53t-60.5 146zM424 750l89 111h60l-101 -111h-48z" />
<glyph unicode="&#xdb;" horiz-adv-x="721" d="M84 187q0 27 6 57l89 456h43l-89 -457q-5 -23 -5 -52q0 -77 48 -119.5t134 -42.5q99 0 169.5 58t90.5 158l89 455h43l-92 -465q-22 -115 -103.5 -181t-196.5 -66q-105 0 -165.5 53t-60.5 146zM340 750l102 111h52l58 -111h-46l-40 80h-2l-72 -80h-52z" />
<glyph unicode="&#xdc;" horiz-adv-x="721" d="M84 187q0 27 6 57l89 456h43l-89 -457q-5 -23 -5 -52q0 -77 48 -119.5t134 -42.5q99 0 169.5 58t90.5 158l89 455h43l-92 -465q-22 -115 -103.5 -181t-196.5 -66q-105 0 -165.5 53t-60.5 146zM503 788l14 73h46l-14 -73h-46zM366 788l14 73h46l-14 -73h-46z" />
<glyph unicode="&#xdd;" horiz-adv-x="567" d="M199 0l60 304l-160 396h46l111 -276l29 -79h2q31 43 58 78l219 277h53l-315 -397l-60 -303h-43zM333 750l89 111h60l-101 -111h-48z" />
<glyph unicode="&#xde;" horiz-adv-x="593" d="M49 0l137 700h43l-26 -130h177q88 0 138.5 -43.5t50.5 -120.5q0 -110 -73 -178t-175 -68h-197l-32 -160h-43zM131 200h186q88 0 147.5 55t59.5 151q0 59 -38 91.5t-106 32.5h-185z" />
<glyph unicode="&#xdf;" horiz-adv-x="561" d="M30 0l104 539q16 80 78 126.5t134 46.5q70 0 108.5 -35t38.5 -87q0 -41 -25.5 -76t-56.5 -55.5t-56.5 -47t-25.5 -51.5q0 -22 26 -46.5t57.5 -45t57.5 -54.5t26 -72q0 -61 -52 -105t-120 -44q-92 0 -158 35l9 44q22 -16 66.5 -27t81.5 -11q48 0 88 28t40 80 q0 30 -26.5 59.5t-57.5 49t-57.5 49t-26.5 59.5q0 33 26 64.5t56.5 51.5t56.5 50.5t26 62.5q0 34 -26 58.5t-76 24.5q-58 0 -108 -38.5t-63 -103.5l-103 -529h-42z" />
<glyph unicode="&#xe0;" horiz-adv-x="508" d="M7 113q0 57 32 97.5t86.5 59.5t108 27t113.5 8h39q7 38 7 64q0 102 -112 102q-82 0 -152 -48l-18 38q71 51 170 51q156 0 156 -137q0 -25 -6 -57l-62 -318h-42l13 65l12 46h-2q-23 -45 -74.5 -84t-118.5 -39q-64 0 -107 34t-43 91zM51 117q0 -38 28 -64t82 -26 q75 0 135 67t78 149l5 23h-32q-296 0 -296 -149zM284 589l-57 111h52l45 -111h-40z" />
<glyph unicode="&#xe1;" horiz-adv-x="508" d="M7 113q0 57 32 97.5t86.5 59.5t108 27t113.5 8h39q7 38 7 64q0 102 -112 102q-82 0 -152 -48l-18 38q71 51 170 51q156 0 156 -137q0 -25 -6 -57l-62 -318h-42l13 65l12 46h-2q-23 -45 -74.5 -84t-118.5 -39q-64 0 -107 34t-43 91zM51 117q0 -38 28 -64t82 -26 q75 0 135 67t78 149l5 23h-32q-296 0 -296 -149zM279 589l89 111h60l-101 -111h-48z" />
<glyph unicode="&#xe2;" horiz-adv-x="508" d="M7 113q0 57 32 97.5t86.5 59.5t108 27t113.5 8h39q7 38 7 64q0 102 -112 102q-82 0 -152 -48l-18 38q71 51 170 51q156 0 156 -137q0 -25 -6 -57l-62 -318h-42l13 65l12 46h-2q-23 -45 -74.5 -84t-118.5 -39q-64 0 -107 34t-43 91zM51 117q0 -38 28 -64t82 -26 q75 0 135 67t78 149l5 23h-32q-296 0 -296 -149zM195 589l102 111h52l58 -111h-46l-40 80h-2l-72 -80h-52z" />
<glyph unicode="&#xe3;" horiz-adv-x="508" d="M7 113q0 57 32 97.5t86.5 59.5t108 27t113.5 8h39q7 38 7 64q0 102 -112 102q-82 0 -152 -48l-18 38q71 51 170 51q156 0 156 -137q0 -25 -6 -57l-62 -318h-42l13 65l12 46h-2q-23 -45 -74.5 -84t-118.5 -39q-64 0 -107 34t-43 91zM51 117q0 -38 28 -64t82 -26 q75 0 135 67t78 149l5 23h-32q-296 0 -296 -149zM166 592q20 108 96 108q22 0 38.5 -11.5t25 -25.5t21 -25.5t26.5 -11.5q40 0 52 71h40q-11 -55 -34 -81.5t-63 -26.5q-22 0 -38 11.5t-24.5 25.5t-21 25.5t-27.5 11.5q-21 0 -34 -23t-17 -48h-40z" />
<glyph unicode="&#xe4;" horiz-adv-x="508" d="M7 113q0 57 32 97.5t86.5 59.5t108 27t113.5 8h39q7 38 7 64q0 102 -112 102q-82 0 -152 -48l-18 38q71 51 170 51q156 0 156 -137q0 -25 -6 -57l-62 -318h-42l13 65l12 46h-2q-23 -45 -74.5 -84t-118.5 -39q-64 0 -107 34t-43 91zM51 117q0 -38 28 -64t82 -26 q75 0 135 67t78 149l5 23h-32q-296 0 -296 -149zM358 627l14 73h46l-14 -73h-46zM221 627l14 73h46l-14 -73h-46z" />
<glyph unicode="&#xe5;" horiz-adv-x="508" d="M7 113q0 57 32 97.5t86.5 59.5t108 27t113.5 8h39q7 38 7 64q0 102 -112 102q-82 0 -152 -48l-18 38q71 51 170 51q156 0 156 -137q0 -25 -6 -57l-62 -318h-42l13 65l12 46h-2q-23 -45 -74.5 -84t-118.5 -39q-64 0 -107 34t-43 91zM51 117q0 -38 28 -64t82 -26 q75 0 135 67t78 149l5 23h-32q-296 0 -296 -149zM309 579q-30 0 -46 15.5t-16 43.5q0 29 22.5 52t51.5 23q30 0 46 -16t16 -43q0 -29 -22.5 -52t-51.5 -23zM309 614q16 0 27.5 11.5t11.5 28.5q0 11 -7.5 18t-19.5 7q-16 0 -27.5 -11.5t-11.5 -29.5q0 -24 27 -24z" />
<glyph unicode="&#xe6;" horiz-adv-x="868" d="M8 113q0 58 30 97.5t84 58t105.5 25t117.5 6.5h40q9 50 9 70q0 101 -117 101q-80 0 -147 -48l-18 38q30 22 76 36.5t89 14.5q150 0 157 -108h2q80 108 213 108q86 0 130.5 -48t44.5 -130q0 -14 -3 -32.5t-6 -29.5l-3 -11h-392q-7 -32 -7 -64q0 -80 45 -124t121 -44 q88 0 168 63l16 -38q-33 -28 -85 -47t-97 -19q-82 0 -137 40t-69 109h-2q-6 -15 -20.5 -35.5t-40.5 -48.5t-67.5 -46.5t-89.5 -18.5q-64 0 -105.5 33t-41.5 92zM431 300h345q3 21 3 40q0 67 -36.5 100t-93.5 33q-71 0 -130 -44.5t-88 -128.5zM53 116q0 -38 28 -63.5 t81 -25.5q76 0 134.5 65t76.5 147l5 22h-69q-256 0 -256 -145z" />
<glyph unicode="&#xe7;" horiz-adv-x="541" d="M191 -93l34 84q-83 11 -134.5 66t-51.5 140q0 136 94 225.5t211 89.5q51 0 99 -18t77 -53l-30 -31q-24 28 -63 44.5t-81 16.5q-100 0 -181.5 -77t-81.5 -193q0 -78 50.5 -125t127.5 -47q104 0 181 72l16 -38q-37 -34 -89 -54.5t-106 -20.5h-4l-18 -48q24 -4 40.5 -20.5 t16.5 -43.5q0 -39 -31.5 -59.5t-70.5 -20.5q-28 0 -48 5l8 37q13 -5 39 -5q24 0 43 10t19 33q0 32 -54 32q-8 0 -12 -1z" />
<glyph unicode="&#xe8;" horiz-adv-x="548" d="M39 197q0 124 84 219.5t207 95.5q87 0 130.5 -48.5t43.5 -128.5q0 -33 -13 -78h-401q-6 -29 -6 -55q0 -76 46 -124.5t130 -48.5q89 0 167 63l16 -38q-33 -27 -83 -46.5t-100 -19.5q-98 0 -159.5 57t-61.5 152zM100 296h355q4 15 4 42q0 67 -35.5 101t-93.5 34 q-73 0 -136.5 -46.5t-93.5 -130.5zM334 589l-57 111h52l45 -111h-40z" />
<glyph unicode="&#xe9;" horiz-adv-x="548" d="M39 197q0 124 84 219.5t207 95.5q87 0 130.5 -48.5t43.5 -128.5q0 -33 -13 -78h-401q-6 -29 -6 -55q0 -76 46 -124.5t130 -48.5q89 0 167 63l16 -38q-33 -27 -83 -46.5t-100 -19.5q-98 0 -159.5 57t-61.5 152zM100 296h355q4 15 4 42q0 67 -35.5 101t-93.5 34 q-73 0 -136.5 -46.5t-93.5 -130.5zM329 589l89 111h60l-101 -111h-48z" />
<glyph unicode="&#xea;" horiz-adv-x="548" d="M39 197q0 124 84 219.5t207 95.5q87 0 130.5 -48.5t43.5 -128.5q0 -33 -13 -78h-401q-6 -29 -6 -55q0 -76 46 -124.5t130 -48.5q89 0 167 63l16 -38q-33 -27 -83 -46.5t-100 -19.5q-98 0 -159.5 57t-61.5 152zM100 296h355q4 15 4 42q0 67 -35.5 101t-93.5 34 q-73 0 -136.5 -46.5t-93.5 -130.5zM245 589l102 111h52l58 -111h-46l-40 80h-2l-72 -80h-52z" />
<glyph unicode="&#xeb;" horiz-adv-x="548" d="M39 197q0 124 84 219.5t207 95.5q87 0 130.5 -48.5t43.5 -128.5q0 -33 -13 -78h-401q-6 -29 -6 -55q0 -76 46 -124.5t130 -48.5q89 0 167 63l16 -38q-33 -27 -83 -46.5t-100 -19.5q-98 0 -159.5 57t-61.5 152zM100 296h355q4 15 4 42q0 67 -35.5 101t-93.5 34 q-73 0 -136.5 -46.5t-93.5 -130.5zM408 627l14 73h46l-14 -73h-46zM271 627l14 73h46l-14 -73h-46z" />
<glyph unicode="&#xec;" horiz-adv-x="216" d="M30 0l97 500h42l-97 -500h-42zM145 589l-57 111h52l45 -111h-40z" />
<glyph unicode="&#xed;" horiz-adv-x="216" d="M30 0l97 500h42l-97 -500h-42zM140 589l89 111h60l-101 -111h-48z" />
<glyph unicode="&#xee;" horiz-adv-x="216" d="M30 0l97 500h42l-97 -500h-42zM56 589l102 111h52l58 -111h-46l-40 80h-2l-72 -80h-52z" />
<glyph unicode="&#xef;" horiz-adv-x="216" d="M30 0l97 500h42l-97 -500h-42zM219 627l14 73h46l-14 -73h-46zM82 627l14 73h46l-14 -73h-46z" />
<glyph unicode="&#xf0;" horiz-adv-x="576" d="M36 183q0 109 78 197t206 88q32 0 60.5 -7t45.5 -17t29.5 -20.5t17.5 -17.5l5 -7h2q-17 117 -102 186l-187 -80l-10 37l161 69q-59 35 -143 59l18 35q102 -28 169 -75l139 59l11 -37l-116 -49q106 -95 106 -249q0 -56 -17.5 -117t-51.5 -118t-93.5 -94t-134.5 -37 q-93 0 -143 56t-50 139zM80 185q0 -67 39 -112t110 -45q103 0 173.5 88.5t70.5 180.5q0 59 -41.5 95t-112.5 36q-97 0 -168 -72t-71 -171z" />
<glyph unicode="&#xf1;" horiz-adv-x="585" d="M30 0l97 500h42l-15 -83l-14 -46h2q25 49 89 95t146 46q69 0 104 -32.5t35 -93.5q0 -29 -8 -69l-61 -317h-42l58 302q9 47 9 76q0 46 -26 69.5t-70 23.5q-92 0 -166 -70t-93 -167l-45 -234h-42zM226 592q20 108 96 108q22 0 38.5 -11.5t25 -25.5t21 -25.5t26.5 -11.5 q40 0 52 71h40q-11 -55 -34 -81.5t-63 -26.5q-22 0 -38 11.5t-24.5 25.5t-21 25.5t-27.5 11.5q-21 0 -34 -23t-17 -48h-40z" />
<glyph unicode="&#xf2;" horiz-adv-x="620" d="M38 205q0 125 93.5 216t212.5 91q98 0 159.5 -60t61.5 -154q0 -126 -94 -218t-212 -92q-98 0 -159.5 61t-61.5 156zM82 206q0 -78 49.5 -127.5t127.5 -49.5q100 0 181 79.5t81 188.5q0 76 -49.5 125t-127.5 49q-102 0 -182 -78.5t-80 -186.5zM347 589l-57 111h52l45 -111 h-40z" />
<glyph unicode="&#xf3;" horiz-adv-x="620" d="M38 205q0 125 93.5 216t212.5 91q98 0 159.5 -60t61.5 -154q0 -126 -94 -218t-212 -92q-98 0 -159.5 61t-61.5 156zM82 206q0 -78 49.5 -127.5t127.5 -49.5q100 0 181 79.5t81 188.5q0 76 -49.5 125t-127.5 49q-102 0 -182 -78.5t-80 -186.5zM342 589l89 111h60 l-101 -111h-48z" />
<glyph unicode="&#xf4;" horiz-adv-x="620" d="M38 205q0 125 93.5 216t212.5 91q98 0 159.5 -60t61.5 -154q0 -126 -94 -218t-212 -92q-98 0 -159.5 61t-61.5 156zM82 206q0 -78 49.5 -127.5t127.5 -49.5q100 0 181 79.5t81 188.5q0 76 -49.5 125t-127.5 49q-102 0 -182 -78.5t-80 -186.5zM258 589l102 111h52l58 -111 h-46l-40 80h-2l-72 -80h-52z" />
<glyph unicode="&#xf5;" horiz-adv-x="620" d="M38 205q0 125 93.5 216t212.5 91q98 0 159.5 -60t61.5 -154q0 -126 -94 -218t-212 -92q-98 0 -159.5 61t-61.5 156zM82 206q0 -78 49.5 -127.5t127.5 -49.5q100 0 181 79.5t81 188.5q0 76 -49.5 125t-127.5 49q-102 0 -182 -78.5t-80 -186.5zM229 592q20 108 96 108 q22 0 38.5 -11.5t25 -25.5t21 -25.5t26.5 -11.5q40 0 52 71h40q-11 -55 -34 -81.5t-63 -26.5q-22 0 -38 11.5t-24.5 25.5t-21 25.5t-27.5 11.5q-21 0 -34 -23t-17 -48h-40z" />
<glyph unicode="&#xf6;" horiz-adv-x="620" d="M38 205q0 125 93.5 216t212.5 91q98 0 159.5 -60t61.5 -154q0 -126 -94 -218t-212 -92q-98 0 -159.5 61t-61.5 156zM82 206q0 -78 49.5 -127.5t127.5 -49.5q100 0 181 79.5t81 188.5q0 76 -49.5 125t-127.5 49q-102 0 -182 -78.5t-80 -186.5zM421 627l14 73h46l-14 -73 h-46zM284 627l14 73h46l-14 -73h-46z" />
<glyph unicode="&#xf7;" d="M248 431v59h57v-59h-57zM39 263v40h476v-40h-476zM248 76v59h57v-59h-57z" />
<glyph unicode="&#xf8;" horiz-adv-x="620" d="M49 -1l48 52q-59 61 -59 154q0 125 93.5 216t212.5 91q79 0 137 -41l50 55l32 -28l-51 -56q53 -59 53 -144q0 -126 -94 -218t-212 -92q-74 0 -129 36l-49 -53zM126 83l325 356q-46 32 -107 32q-102 0 -182 -78.5t-80 -186.5q0 -74 44 -123zM159 56q44 -27 100 -27 q100 0 181 79.5t81 188.5q0 66 -39 113z" />
<glyph unicode="&#xf9;" horiz-adv-x="580" d="M52 114q0 29 8 69l61 317h42l-58 -300q-9 -44 -9 -78q0 -44 22 -68.5t77 -24.5q90 0 162 73t89 166l45 232h42l-97 -500h-42l16 83l13 46h-2q-27 -51 -88.5 -96t-144.5 -45q-60 0 -98 30.5t-38 95.5zM324 589l-57 111h52l45 -111h-40z" />
<glyph unicode="&#xfa;" horiz-adv-x="580" d="M52 114q0 29 8 69l61 317h42l-58 -300q-9 -44 -9 -78q0 -44 22 -68.5t77 -24.5q90 0 162 73t89 166l45 232h42l-97 -500h-42l16 83l13 46h-2q-27 -51 -88.5 -96t-144.5 -45q-60 0 -98 30.5t-38 95.5zM319 589l89 111h60l-101 -111h-48z" />
<glyph unicode="&#xfb;" horiz-adv-x="580" d="M52 114q0 29 8 69l61 317h42l-58 -300q-9 -44 -9 -78q0 -44 22 -68.5t77 -24.5q90 0 162 73t89 166l45 232h42l-97 -500h-42l16 83l13 46h-2q-27 -51 -88.5 -96t-144.5 -45q-60 0 -98 30.5t-38 95.5zM235 589l102 111h52l58 -111h-46l-40 80h-2l-72 -80h-52z" />
<glyph unicode="&#xfc;" horiz-adv-x="580" d="M52 114q0 29 8 69l61 317h42l-58 -300q-9 -44 -9 -78q0 -44 22 -68.5t77 -24.5q90 0 162 73t89 166l45 232h42l-97 -500h-42l16 83l13 46h-2q-27 -51 -88.5 -96t-144.5 -45q-60 0 -98 30.5t-38 95.5zM398 627l14 73h46l-14 -73h-46zM261 627l14 73h46l-14 -73h-46z" />
<glyph unicode="&#xfd;" horiz-adv-x="520" d="M-48 -149q21 -21 58 -21q61 0 116 89l53 85l-112 496h44l87 -406l9 -47h1q13 23 27 47l244 406h48l-379 -620q-56 -90 -138 -90q-46 0 -82 28zM290 589l89 111h60l-101 -111h-48z" />
<glyph unicode="&#xfe;" horiz-adv-x="579" d="M83 52l-49 -252h-42l174 900h42l-49 -255l-12 -45h2q27 47 77 79.5t115 32.5q87 0 135 -52.5t48 -144.5q0 -140 -81.5 -233.5t-188.5 -93.5q-61 0 -104.5 29t-58.5 84h-2q-1 -23 -6 -49zM115 187q0 -69 35 -113.5t102 -44.5q87 0 157 79t70 205q0 74 -37 116t-101 42 q-67 0 -120 -44.5t-79.5 -108.5t-26.5 -131z" />
<glyph unicode="&#xff;" horiz-adv-x="520" d="M-48 -149q21 -21 58 -21q61 0 116 89l53 85l-112 496h44l87 -406l9 -47h1q13 23 27 47l244 406h48l-379 -620q-56 -90 -138 -90q-46 0 -82 28zM369 627l14 73h46l-14 -73h-46zM232 627l14 73h46l-14 -73h-46z" />
<glyph unicode="&#x100;" horiz-adv-x="625" d="M-25 0l397 700h45l127 -700h-44l-43 242h-297l-137 -242h-48zM182 282h267l-50 284l-12 84h-2q-25 -54 -42 -84zM293 786l7 40h239l-7 -40h-239z" />
<glyph unicode="&#x101;" horiz-adv-x="508" d="M7 113q0 57 32 97.5t86.5 59.5t108 27t113.5 8h39q7 38 7 64q0 102 -112 102q-82 0 -152 -48l-18 38q71 51 170 51q156 0 156 -137q0 -25 -6 -57l-62 -318h-42l13 65l12 46h-2q-23 -45 -74.5 -84t-118.5 -39q-64 0 -107 34t-43 91zM51 117q0 -38 28 -64t82 -26 q75 0 135 67t78 149l5 23h-32q-296 0 -296 -149zM192 625l7 40h239l-7 -40h-239z" />
<glyph unicode="&#x102;" horiz-adv-x="625" d="M-25 0l397 700h45l127 -700h-44l-43 242h-297l-137 -242h-48zM182 282h267l-50 284l-12 84h-2q-25 -54 -42 -84zM407 747q-35 0 -60.5 20.5t-25.5 59.5q0 18 5 34h40q-5 -18 -5 -30q0 -46 51 -46q28 0 49 18t27 58h40q-7 -60 -41 -87t-80 -27z" />
<glyph unicode="&#x103;" horiz-adv-x="508" d="M7 113q0 57 32 97.5t86.5 59.5t108 27t113.5 8h39q7 38 7 64q0 102 -112 102q-82 0 -152 -48l-18 38q71 51 170 51q156 0 156 -137q0 -25 -6 -57l-62 -318h-42l13 65l12 46h-2q-23 -45 -74.5 -84t-118.5 -39q-64 0 -107 34t-43 91zM51 117q0 -38 28 -64t82 -26 q75 0 135 67t78 149l5 23h-32q-296 0 -296 -149zM306 586q-35 0 -60.5 20.5t-25.5 59.5q0 18 5 34h40q-5 -18 -5 -30q0 -46 51 -46q28 0 49 18t27 58h40q-7 -60 -41 -87t-80 -27z" />
<glyph unicode="&#x104;" horiz-adv-x="625" d="M-25 0l397 700h45l127 -700h-2q-105 -66 -105 -119q0 -18 14.5 -29.5t28.5 -13.5l15 -3l-16 -39q-4 0 -9.5 1t-20.5 5.5t-26.5 12.5t-21 23.5t-9.5 36.5q0 69 105 138l-40 229h-297l-137 -242h-48zM182 282h267l-50 284l-12 84h-2q-25 -54 -42 -84z" />
<glyph unicode="&#x105;" horiz-adv-x="508" d="M7 113q0 57 32 97.5t86.5 59.5t108 27t113.5 8h39q7 38 7 64q0 102 -112 102q-82 0 -152 -48l-18 38q71 51 170 51q156 0 156 -137q0 -25 -6 -57l-62 -318q-105 -66 -105 -119q0 -18 14.5 -29.5t29.5 -13.5l14 -3l-16 -39q-4 0 -9.5 1t-20.5 5.5t-26.5 12.5t-21 23.5 t-9.5 36.5q0 72 111 142l10 48l12 46h-2q-23 -45 -74.5 -84t-118.5 -39q-64 0 -107 34t-43 91zM51 117q0 -38 28 -64t82 -26q75 0 135 67t78 149l5 23h-32q-296 0 -296 -149z" />
<glyph unicode="&#x106;" horiz-adv-x="719" d="M65 286q0 114 59.5 213t155.5 156t202 57q68 0 133.5 -21.5t106.5 -66.5l-30 -31q-78 78 -210 78q-95 0 -180.5 -51t-138.5 -140.5t-53 -193.5q0 -112 68.5 -184.5t181.5 -72.5q67 0 135 25.5t120 69.5l25 -33q-50 -45 -128.5 -74t-151.5 -29q-136 0 -215.5 83t-79.5 215 zM467 750l89 111h60l-101 -111h-48z" />
<glyph unicode="&#x107;" horiz-adv-x="540" d="M38 197q0 136 94 225.5t211 89.5q51 0 99 -18t77 -53l-30 -31q-24 28 -63 44.5t-81 16.5q-100 0 -181.5 -77t-81.5 -193q0 -78 50.5 -125t127.5 -47q104 0 181 72l16 -38q-37 -34 -89 -54.5t-106 -20.5q-98 0 -161 57t-63 152zM327 589l89 111h60l-101 -111h-48z" />
<glyph unicode="&#x108;" horiz-adv-x="719" d="M65 286q0 114 59.5 213t155.5 156t202 57q68 0 133.5 -21.5t106.5 -66.5l-30 -31q-78 78 -210 78q-95 0 -180.5 -51t-138.5 -140.5t-53 -193.5q0 -112 68.5 -184.5t181.5 -72.5q67 0 135 25.5t120 69.5l25 -33q-50 -45 -128.5 -74t-151.5 -29q-136 0 -215.5 83t-79.5 215 zM383 750l102 111h52l58 -111h-46l-40 80h-2l-72 -80h-52z" />
<glyph unicode="&#x109;" horiz-adv-x="540" d="M38 197q0 136 94 225.5t211 89.5q51 0 99 -18t77 -53l-30 -31q-24 28 -63 44.5t-81 16.5q-100 0 -181.5 -77t-81.5 -193q0 -78 50.5 -125t127.5 -47q104 0 181 72l16 -38q-37 -34 -89 -54.5t-106 -20.5q-98 0 -161 57t-63 152zM243 589l102 111h52l58 -111h-46l-40 80h-2 l-72 -80h-52z" />
<glyph unicode="&#x10a;" horiz-adv-x="719" d="M65 286q0 114 59.5 213t155.5 156t202 57q68 0 133.5 -21.5t106.5 -66.5l-30 -31q-78 78 -210 78q-95 0 -180.5 -51t-138.5 -140.5t-53 -193.5q0 -112 68.5 -184.5t181.5 -72.5q67 0 135 25.5t120 69.5l25 -33q-50 -45 -128.5 -74t-151.5 -29q-136 0 -215.5 83t-79.5 215 zM477 788l14 73h46l-14 -73h-46z" />
<glyph unicode="&#x10b;" horiz-adv-x="540" d="M38 197q0 136 94 225.5t211 89.5q51 0 99 -18t77 -53l-30 -31q-24 28 -63 44.5t-81 16.5q-100 0 -181.5 -77t-81.5 -193q0 -78 50.5 -125t127.5 -47q104 0 181 72l16 -38q-37 -34 -89 -54.5t-106 -20.5q-98 0 -161 57t-63 152zM337 627l14 73h46l-14 -73h-46z" />
<glyph unicode="&#x10c;" horiz-adv-x="719" d="M65 286q0 114 59.5 213t155.5 156t202 57q68 0 133.5 -21.5t106.5 -66.5l-30 -31q-78 78 -210 78q-95 0 -180.5 -51t-138.5 -140.5t-53 -193.5q0 -112 68.5 -184.5t181.5 -72.5q67 0 135 25.5t120 69.5l25 -33q-50 -45 -128.5 -74t-151.5 -29q-136 0 -215.5 83t-79.5 215 zM469 750l-58 111h46l40 -80h2l72 80h52l-102 -111h-52z" />
<glyph unicode="&#x10d;" horiz-adv-x="540" d="M38 197q0 136 94 225.5t211 89.5q51 0 99 -18t77 -53l-30 -31q-24 28 -63 44.5t-81 16.5q-100 0 -181.5 -77t-81.5 -193q0 -78 50.5 -125t127.5 -47q104 0 181 72l16 -38q-37 -34 -89 -54.5t-106 -20.5q-98 0 -161 57t-63 152zM329 589l-58 111h46l40 -80h2l72 80h52 l-102 -111h-52z" />
<glyph unicode="&#x10e;" horiz-adv-x="738" d="M49 0l137 700h209q140 0 219.5 -70.5t79.5 -199.5q0 -180 -117.5 -305t-298.5 -125h-229zM99 40h170q163 0 271.5 111t108.5 277q0 111 -69 171.5t-190 60.5h-169zM410 750l-58 111h46l40 -80h2l72 80h52l-102 -111h-52z" />
<glyph unicode="&#x10f;" horiz-adv-x="579" d="M39 185q0 141 81.5 234t190.5 93q59 0 102.5 -29.5t58.5 -83.5h2q0 23 5 46l50 255h42l-136 -700h-42l11 58l12 43h-2q-28 -47 -78.5 -80t-113.5 -33q-88 0 -135.5 52.5t-47.5 144.5zM83 187q0 -74 37 -116t102 -42q67 0 120.5 45t79.5 110t26 132q0 68 -34.5 111.5 t-102.5 43.5q-87 0 -157.5 -79t-70.5 -205zM639 700h48v-13q0 -53 -42 -121h-39q36 61 36 106q0 13 -3 28z" />
<glyph unicode="&#x110;" horiz-adv-x="746" d="M57 0l65 333h-60l8 40h60l64 327h209q140 0 219.5 -70.5t79.5 -199.5q0 -180 -117.5 -305t-298.5 -125h-229zM107 40h170q163 0 271.5 111t108.5 277q0 111 -69 171.5t-190 60.5h-169l-57 -287h184l-8 -40h-184z" />
<glyph unicode="&#x111;" horiz-adv-x="579" d="M39 185q0 141 81.5 234t190.5 93q59 0 102.5 -29.5t58.5 -83.5h2q0 23 5 46l24 124h-133l8 40h133l18 91h42l-18 -91h83l-8 -40h-83l-110 -569h-42l11 58l12 43h-2q-28 -47 -78.5 -80t-113.5 -33q-88 0 -135.5 52.5t-47.5 144.5zM83 187q0 -74 37 -116t102 -42 q67 0 120.5 45t79.5 110t26 132q0 68 -34.5 111.5t-102.5 43.5q-87 0 -157.5 -79t-70.5 -205z" />
<glyph unicode="&#x112;" horiz-adv-x="553" d="M49 0l137 700h383l-9 -40h-339l-56 -287h279l-8 -40h-278l-58 -293h358l-7 -40h-402zM287 786l7 40h239l-7 -40h-239z" />
<glyph unicode="&#x113;" horiz-adv-x="548" d="M39 197q0 124 84 219.5t207 95.5q87 0 130.5 -48.5t43.5 -128.5q0 -33 -13 -78h-401q-6 -29 -6 -55q0 -76 46 -124.5t130 -48.5q89 0 167 63l16 -38q-33 -27 -83 -46.5t-100 -19.5q-98 0 -159.5 57t-61.5 152zM100 296h355q4 15 4 42q0 67 -35.5 101t-93.5 34 q-73 0 -136.5 -46.5t-93.5 -130.5zM242 625l7 40h239l-7 -40h-239z" />
<glyph unicode="&#x114;" horiz-adv-x="553" d="M49 0l137 700h383l-9 -40h-339l-56 -287h279l-8 -40h-278l-58 -293h358l-7 -40h-402zM401 747q-35 0 -60.5 20.5t-25.5 59.5q0 18 5 34h40q-5 -18 -5 -30q0 -46 51 -46q28 0 49 18t27 58h40q-7 -60 -41 -87t-80 -27z" />
<glyph unicode="&#x115;" horiz-adv-x="548" d="M39 197q0 124 84 219.5t207 95.5q87 0 130.5 -48.5t43.5 -128.5q0 -33 -13 -78h-401q-6 -29 -6 -55q0 -76 46 -124.5t130 -48.5q89 0 167 63l16 -38q-33 -27 -83 -46.5t-100 -19.5q-98 0 -159.5 57t-61.5 152zM100 296h355q4 15 4 42q0 67 -35.5 101t-93.5 34 q-73 0 -136.5 -46.5t-93.5 -130.5zM356 586q-35 0 -60.5 20.5t-25.5 59.5q0 18 5 34h40q-5 -18 -5 -30q0 -46 51 -46q28 0 49 18t27 58h40q-7 -60 -41 -87t-80 -27z" />
<glyph unicode="&#x116;" horiz-adv-x="553" d="M49 0l137 700h383l-9 -40h-339l-56 -287h279l-8 -40h-278l-58 -293h358l-7 -40h-402zM384 788l14 73h46l-14 -73h-46z" />
<glyph unicode="&#x117;" horiz-adv-x="548" d="M39 197q0 124 84 219.5t207 95.5q87 0 130.5 -48.5t43.5 -128.5q0 -33 -13 -78h-401q-6 -29 -6 -55q0 -76 46 -124.5t130 -48.5q89 0 167 63l16 -38q-33 -27 -83 -46.5t-100 -19.5q-98 0 -159.5 57t-61.5 152zM100 296h355q4 15 4 42q0 67 -35.5 101t-93.5 34 q-73 0 -136.5 -46.5t-93.5 -130.5zM339 627l14 73h46l-14 -73h-46z" />
<glyph unicode="&#x118;" horiz-adv-x="553" d="M49 0l137 700h383l-9 -40h-339l-56 -287h279l-8 -40h-278l-58 -293h358l-7 -40q-34 -21 -66.5 -54t-32.5 -65q0 -18 14.5 -29.5t29.5 -13.5l14 -3l-16 -39q-4 0 -9.5 1t-20.5 5.5t-26.5 12.5t-21 23.5t-9.5 36.5q0 59 84 123v2h-342z" />
<glyph unicode="&#x119;" horiz-adv-x="549" d="M39 197q0 124 84 219.5t207 95.5q87 0 130.5 -48.5t43.5 -128.5q0 -16 -3 -35.5t-7 -31.5l-3 -11h-401q-6 -33 -6 -55q0 -81 49 -127t127 -46q42 0 84 15.5t62 31.5l21 16l16 -38q-9 -7 -63 -40.5t-90.5 -67t-36.5 -65.5q0 -18 14.5 -29.5t28.5 -13.5l15 -3l-16 -39 q-4 0 -9.5 1t-20.5 5.5t-26.5 12.5t-21 23.5t-9.5 36.5q0 55 75 113v2q-103 -11 -173.5 47.5t-70.5 159.5zM100 296h355q4 19 4 42q0 67 -35.5 101t-93.5 34q-73 0 -136.5 -46.5t-93.5 -130.5z" />
<glyph unicode="&#x11a;" horiz-adv-x="553" d="M49 0l137 700h383l-9 -40h-339l-56 -287h279l-8 -40h-278l-58 -293h358l-7 -40h-402zM376 750l-58 111h46l40 -80h2l72 80h52l-102 -111h-52z" />
<glyph unicode="&#x11b;" horiz-adv-x="548" d="M39 197q0 124 84 219.5t207 95.5q87 0 130.5 -48.5t43.5 -128.5q0 -33 -13 -78h-401q-6 -29 -6 -55q0 -76 46 -124.5t130 -48.5q89 0 167 63l16 -38q-33 -27 -83 -46.5t-100 -19.5q-98 0 -159.5 57t-61.5 152zM100 296h355q4 15 4 42q0 67 -35.5 101t-93.5 34 q-73 0 -136.5 -46.5t-93.5 -130.5zM331 589l-58 111h46l40 -80h2l72 80h52l-102 -111h-52z" />
<glyph unicode="&#x11c;" horiz-adv-x="754" d="M63 277q0 174 127 304.5t292 130.5q149 0 237 -78l-30 -32q-35 32 -92 50.5t-115 18.5q-148 0 -261 -117.5t-113 -276.5q0 -110 66.5 -179t176.5 -69q142 0 265 123l25 127h-124l7 40h168l-62 -319h-43l12 62l7 30h-2q-4 -4 -12 -11t-34 -25t-53.5 -32t-69.5 -25t-84 -11 q-130 0 -209 81t-79 208zM379 750l102 111h52l58 -111h-46l-40 80h-2l-72 -80h-52z" />
<glyph unicode="&#x11d;" horiz-adv-x="571" d="M32 -136q56 -33 130 -33q84 0 144.5 43t78.5 129l11 53l13 46h-2q-64 -102 -178 -102q-87 0 -138 53t-51 143q0 73 29 144t91 121.5t142 50.5q61 0 106.5 -23t58.5 -75h2q-1 12 1 24l12 62h42l-97 -502q-21 -107 -93 -157.5t-167 -50.5q-87 0 -159 39zM84 197 q0 -73 39 -114.5t107 -41.5q53 0 95 28t67.5 72.5t38.5 95t13 100.5q0 134 -140 134q-100 0 -160 -84t-60 -190zM232 589l102 111h52l58 -111h-46l-40 80h-2l-72 -80h-52z" />
<glyph unicode="&#x11e;" horiz-adv-x="754" d="M63 277q0 174 127 304.5t292 130.5q149 0 237 -78l-30 -32q-35 32 -92 50.5t-115 18.5q-148 0 -261 -117.5t-113 -276.5q0 -110 66.5 -179t176.5 -69q142 0 265 123l25 127h-124l7 40h168l-62 -319h-43l12 62l7 30h-2q-4 -4 -12 -11t-34 -25t-53.5 -32t-69.5 -25t-84 -11 q-130 0 -209 81t-79 208zM488 747q-35 0 -60.5 20.5t-25.5 59.5q0 18 5 34h40q-5 -18 -5 -30q0 -46 51 -46q28 0 49 18t27 58h40q-7 -60 -41 -87t-80 -27z" />
<glyph unicode="&#x11f;" horiz-adv-x="571" d="M32 -136q56 -33 130 -33q84 0 144.5 43t78.5 129l11 53l13 46h-2q-64 -102 -178 -102q-87 0 -138 53t-51 143q0 73 29 144t91 121.5t142 50.5q61 0 106.5 -23t58.5 -75h2q-1 12 1 24l12 62h42l-97 -502q-21 -107 -93 -157.5t-167 -50.5q-87 0 -159 39zM84 197 q0 -73 39 -114.5t107 -41.5q53 0 95 28t67.5 72.5t38.5 95t13 100.5q0 134 -140 134q-100 0 -160 -84t-60 -190zM341 586q-35 0 -60.5 20.5t-25.5 59.5q0 18 5 34h40q-5 -18 -5 -30q0 -46 51 -46q28 0 49 18t27 58h40q-7 -60 -41 -87t-80 -27z" />
<glyph unicode="&#x120;" horiz-adv-x="754" d="M63 277q0 174 127 304.5t292 130.5q149 0 237 -78l-30 -32q-35 32 -92 50.5t-115 18.5q-148 0 -261 -117.5t-113 -276.5q0 -110 66.5 -179t176.5 -69q142 0 265 123l25 127h-124l7 40h168l-62 -319h-43l12 62l7 30h-2q-4 -4 -12 -11t-34 -25t-53.5 -32t-69.5 -25t-84 -11 q-130 0 -209 81t-79 208zM473 788l14 73h46l-14 -73h-46z" />
<glyph unicode="&#x121;" horiz-adv-x="571" d="M32 -136q56 -33 130 -33q84 0 144.5 43t78.5 129l11 53l13 46h-2q-64 -102 -178 -102q-87 0 -138 53t-51 143q0 73 29 144t91 121.5t142 50.5q61 0 106.5 -23t58.5 -75h2q-1 12 1 24l12 62h42l-97 -502q-21 -107 -93 -157.5t-167 -50.5q-87 0 -159 39zM84 197 q0 -73 39 -114.5t107 -41.5q53 0 95 28t67.5 72.5t38.5 95t13 100.5q0 134 -140 134q-100 0 -160 -84t-60 -190zM326 627l14 73h46l-14 -73h-46z" />
<glyph unicode="&#x122;" horiz-adv-x="754" d="M63 277q0 174 127 304.5t292 130.5q149 0 237 -78l-30 -32q-35 32 -92 50.5t-115 18.5q-148 0 -261 -117.5t-113 -276.5q0 -110 66.5 -179t176.5 -69q142 0 265 123l25 127h-124l7 40h168l-62 -319h-43l12 62l7 30h-2q-4 -4 -12 -11t-34 -25t-53.5 -32t-69.5 -25t-84 -11 q-130 0 -209 81t-79 208zM311 -66h48v-13q0 -53 -42 -121h-39q36 61 36 106q0 13 -3 28z" />
<glyph unicode="&#x123;" horiz-adv-x="571" d="M32 -136q56 -33 130 -33q84 0 144.5 43t78.5 129l11 53l13 46h-2q-64 -102 -178 -102q-87 0 -138 53t-51 143q0 73 29 144t91 121.5t142 50.5q61 0 106.5 -23t58.5 -75h2q-1 12 1 24l12 62h42l-97 -502q-21 -107 -93 -157.5t-167 -50.5q-87 0 -159 39zM84 197 q0 -73 39 -114.5t107 -41.5q53 0 95 28t67.5 72.5t38.5 95t13 100.5q0 134 -140 134q-100 0 -160 -84t-60 -190zM360 566h-48v13q0 53 42 121h39q-36 -61 -36 -106q0 -13 3 -28z" />
<glyph unicode="&#x124;" horiz-adv-x="743" d="M49 0l137 700h43l-64 -329h444l64 329h43l-137 -700h-43l65 331h-444l-65 -331h-43zM354 750l102 111h52l58 -111h-46l-40 80h-2l-72 -80h-52z" />
<glyph unicode="&#x125;" horiz-adv-x="585" d="M30 0l136 700h42l-54 -283l-13 -46h2q25 50 88.5 95.5t145.5 45.5q69 0 104 -32.5t35 -93.5q0 -29 -8 -69l-61 -317h-42l58 302q9 47 9 76q0 46 -26 69.5t-70 23.5q-91 0 -165.5 -70t-93.5 -167l-45 -234h-42zM92 750l102 111h52l58 -111h-46l-40 80h-2l-72 -80h-52z" />
<glyph unicode="&#x126;" horiz-adv-x="757" d="M57 0l100 511h-64l7 40h65l29 149h43l-29 -149h444l29 149h43l-29 -149h65l-7 -40h-66l-100 -511h-43l65 331h-444l-65 -331h-43zM173 371h444l27 140h-444z" />
<glyph unicode="&#x127;" horiz-adv-x="585" d="M30 0l110 569h-80l8 40h80l18 91h42l-18 -91h134l-8 -40h-133l-29 -152l-13 -46h2q25 50 88.5 95.5t145.5 45.5q69 0 104 -32.5t35 -93.5q0 -29 -8 -69l-61 -317h-42l58 302q9 47 9 76q0 46 -26 69.5t-70 23.5q-91 0 -165.5 -70t-93.5 -167l-45 -234h-42z" />
<glyph unicode="&#x128;" horiz-adv-x="256" d="M49 0l137 700h43l-137 -700h-43zM79 753q20 108 96 108q22 0 38.5 -11.5t25 -25.5t21 -25.5t26.5 -11.5q40 0 52 71h40q-11 -55 -34 -81.5t-63 -26.5q-22 0 -38 11.5t-24.5 25.5t-21 25.5t-27.5 11.5q-21 0 -34 -23t-17 -48h-40z" />
<glyph unicode="&#x129;" horiz-adv-x="216" d="M30 0l97 500h42l-97 -500h-42zM27 592q20 108 96 108q22 0 38.5 -11.5t25 -25.5t21 -25.5t26.5 -11.5q40 0 52 71h40q-11 -55 -34 -81.5t-63 -26.5q-22 0 -38 11.5t-24.5 25.5t-21 25.5t-27.5 11.5q-21 0 -34 -23t-17 -48h-40z" />
<glyph unicode="&#x12a;" horiz-adv-x="256" d="M49 0l137 700h43l-137 -700h-43zM105 786l7 40h239l-7 -40h-239z" />
<glyph unicode="&#x12b;" horiz-adv-x="216" d="M30 0l97 500h42l-97 -500h-42zM53 625l7 40h239l-7 -40h-239z" />
<glyph unicode="&#x12c;" horiz-adv-x="256" d="M49 0l137 700h43l-137 -700h-43zM219 747q-35 0 -60.5 20.5t-25.5 59.5q0 18 5 34h40q-5 -18 -5 -30q0 -46 51 -46q28 0 49 18t27 58h40q-7 -60 -41 -87t-80 -27z" />
<glyph unicode="&#x12d;" horiz-adv-x="216" d="M30 0l97 500h42l-97 -500h-42zM167 586q-35 0 -60.5 20.5t-25.5 59.5q0 18 5 34h40q-5 -18 -5 -30q0 -46 51 -46q28 0 49 18t27 58h40q-7 -60 -41 -87t-80 -27z" />
<glyph unicode="&#x12e;" horiz-adv-x="258" d="M-57 -125q0 71 110 141l134 684h43l-137 -700q-105 -66 -105 -119q0 -18 14.5 -29.5t29.5 -13.5l14 -3l-16 -39q-4 0 -9.5 1t-20.5 5.5t-26.5 12.5t-21 23.5t-9.5 36.5z" />
<glyph unicode="&#x12f;" horiz-adv-x="216" d="M-78 -125q0 70 111 142l95 483h42l-98 -500q-105 -66 -105 -119q0 -18 14.5 -29.5t28.5 -13.5l15 -3l-16 -39q-4 0 -9.5 1t-20.5 5.5t-26.5 12.5t-21 23.5t-9.5 36.5zM148 627l15 73h50l-15 -73h-50z" />
<glyph unicode="&#x130;" horiz-adv-x="256" d="M49 0l137 700h43l-137 -700h-43zM202 788l14 73h46l-14 -73h-46z" />
<glyph unicode="&#x131;" horiz-adv-x="216" d="M30 0l97 500h42l-97 -500h-42z" />
<glyph unicode="&#x132;" horiz-adv-x="556" d="M201 -5l8 41q153 0 189 182l94 482h43l-94 -482q-13 -68 -38 -114t-59 -68.5t-67.5 -31.5t-75.5 -9zM49 0l137 700h43l-137 -700h-43z" />
<glyph unicode="&#x133;" horiz-adv-x="432" d="M148 627l15 73h50l-15 -73h-50zM30 0l98 500h42l-98 -500h-42zM363 627l14 73h50l-14 -73h-50zM242 -21l101 521h42l-101 -520q-11 -58 -34.5 -98t-52.5 -57.5t-51.5 -23.5t-45.5 -6q-25 0 -35 2l8 39q6 -2 22 -2q18 0 36.5 5t41.5 18.5t41.5 45t27.5 76.5z" />
<glyph unicode="&#x134;" horiz-adv-x="505" d="M7 139q0 19 6 52l4 22h43l-4 -22q-5 -25 -5 -45q0 -117 116 -117q59 0 109.5 39t66.5 123l90 469h-166l8 40h209l-100 -515q-20 -103 -81 -150t-136 -47q-69 0 -114.5 37t-45.5 114zM280 750l102 111h52l58 -111h-46l-40 80h-2l-72 -80h-52z" />
<glyph unicode="&#x135;" horiz-adv-x="217" d="M55 589l102 111h52l58 -111h-46l-40 80h-2l-72 -80h-52zM26 -21l102 521h42l-101 -520q-11 -58 -34.5 -98t-52.5 -57.5t-51.5 -23.5t-45.5 -6l-35 2l8 39q8 -2 22 -2q18 0 36.5 5t41 18.5t41 45t27.5 76.5z" />
<glyph unicode="&#x136;" horiz-adv-x="567" d="M49 0l137 700h43l-61 -312h126l265 312h52l-281 -331v-2l158 -367h-47l-148 348h-133l-68 -348h-43zM210 -66h48v-13q0 -53 -42 -121h-39q36 61 36 106q0 13 -3 28z" />
<glyph unicode="&#x137;" horiz-adv-x="470" d="M30 0l137 700h42l-78 -397h85l202 197h57l-222 -216v-2l142 -282h-48l-131 264h-92l-52 -264h-42zM162 -66h48v-13q0 -53 -42 -121h-39q36 61 36 106q0 13 -3 28z" />
<glyph unicode="&#x138;" horiz-adv-x="471" d="M30 0l97 500h42l-41 -213h86l214 213h59l-237 -232v-2l135 -266h-49l-123 250h-92l-49 -250h-42z" />
<glyph unicode="&#x139;" horiz-adv-x="498" d="M49 0l137 700h43l-129 -660h334l-9 -40h-376zM196 750l89 111h60l-101 -111h-48z" />
<glyph unicode="&#x13a;" horiz-adv-x="233" d="M47 77q0 13 3 29l116 594h42l-114 -587q-3 -17 -3 -29q0 -21 8.5 -32.5t17.5 -13.5t23 -2q7 0 13 1l-9 -39q-6 -2 -17 -2q-17 0 -33 4.5t-31.5 24t-15.5 52.5zM171 750l89 111h60l-101 -111h-48z" />
<glyph unicode="&#x13b;" horiz-adv-x="498" d="M49 0l137 700h43l-129 -660h334l-9 -40h-376zM212 -66h48v-13q0 -53 -42 -121h-39q36 61 36 106q0 13 -3 28z" />
<glyph unicode="&#x13c;" horiz-adv-x="233" d="M47 77q0 13 3 29l116 594h42l-114 -587q-3 -17 -3 -29q0 -21 8.5 -32.5t17.5 -13.5t23 -2q7 0 13 1l-9 -39q-6 -2 -17 -2q-17 0 -33 4.5t-31.5 24t-15.5 52.5zM49 -66h48v-13q0 -53 -42 -121h-39q36 61 36 106q0 13 -3 28z" />
<glyph unicode="&#x13d;" horiz-adv-x="498" d="M49 0l137 700h43l-129 -660h334l-9 -40h-376zM329 700h48v-13q0 -53 -42 -121h-39q36 61 36 106q0 13 -3 28z" />
<glyph unicode="&#x13e;" horiz-adv-x="233" d="M47 77q0 13 3 29l116 594h42l-114 -587q-3 -17 -3 -29q0 -21 8.5 -32.5t17.5 -13.5t23 -2q7 0 13 1l-9 -39q-6 -2 -17 -2q-17 0 -33 4.5t-31.5 24t-15.5 52.5zM274 700h48v-13q0 -53 -42 -121h-39q36 61 36 106q0 13 -3 28z" />
<glyph unicode="&#x13f;" horiz-adv-x="498" d="M49 0l137 700h43l-129 -660h334l-9 -40h-376zM264 333l12 63h61l-12 -63h-61z" />
<glyph unicode="&#x140;" horiz-adv-x="235" d="M47 77q0 13 3 29l116 594h42l-114 -587q-3 -17 -3 -29q0 -21 8.5 -32.5t17.5 -13.5t23 -2q7 0 13 1l-9 -39q-6 -2 -17 -2q-17 0 -33 4.5t-31.5 24t-15.5 52.5zM202 333l12 63h61l-12 -63h-61z" />
<glyph unicode="&#x141;" horiz-adv-x="505" d="M57 0l72 370l-72 -37l9 47l73 38l55 282h43l-51 -257l128 66l-9 -48l-128 -66l-69 -355h334l-8 -40h-377z" />
<glyph unicode="&#x142;" horiz-adv-x="246" d="M59 77q0 13 3 29l54 277l-97 -50l8 47l98 51l53 269h42l-48 -245l103 54l-10 -48l-102 -53l-57 -295q-3 -17 -3 -29q0 -21 8.5 -32.5t17.5 -13.5t23 -2q7 0 13 1l-9 -39q-6 -2 -17 -2q-17 0 -33 4.5t-31.5 24t-15.5 52.5z" />
<glyph unicode="&#x143;" horiz-adv-x="743" d="M49 0l137 700h35l292 -549l40 -88h2q4 53 11 88l107 549h43l-137 -700h-35l-292 549l-40 88h-2q-4 -53 -11 -88l-107 -549h-43zM439 750l89 111h60l-101 -111h-48z" />
<glyph unicode="&#x144;" horiz-adv-x="585" d="M30 0l97 500h42l-15 -83l-14 -46h2q25 49 89 95t146 46q69 0 104 -32.5t35 -93.5q0 -29 -8 -69l-61 -317h-42l58 302q9 47 9 76q0 46 -26 69.5t-70 23.5q-92 0 -166 -70t-93 -167l-45 -234h-42zM342 589l89 111h60l-101 -111h-48z" />
<glyph unicode="&#x145;" horiz-adv-x="743" d="M49 0l137 700h35l292 -549l40 -88h2q4 53 11 88l107 549h43l-137 -700h-35l-292 549l-40 88h-2q-4 -53 -11 -88l-107 -549h-43zM281 -66h48v-13q0 -53 -42 -121h-39q36 61 36 106q0 13 -3 28z" />
<glyph unicode="&#x146;" horiz-adv-x="585" d="M30 0l97 500h42l-15 -83l-14 -46h2q25 49 89 95t146 46q69 0 104 -32.5t35 -93.5q0 -29 -8 -69l-61 -317h-42l58 302q9 47 9 76q0 46 -26 69.5t-70 23.5q-92 0 -166 -70t-93 -167l-45 -234h-42zM212 -66h48v-13q0 -53 -42 -121h-39q36 61 36 106q0 13 -3 28z" />
<glyph unicode="&#x147;" horiz-adv-x="743" d="M49 0l137 700h35l292 -549l40 -88h2q4 53 11 88l107 549h43l-137 -700h-35l-292 549l-40 88h-2q-4 -53 -11 -88l-107 -549h-43zM441 750l-58 111h46l40 -80h2l72 80h52l-102 -111h-52z" />
<glyph unicode="&#x148;" horiz-adv-x="585" d="M30 0l97 500h42l-15 -83l-14 -46h2q25 49 89 95t146 46q69 0 104 -32.5t35 -93.5q0 -29 -8 -69l-61 -317h-42l58 302q9 47 9 76q0 46 -26 69.5t-70 23.5q-92 0 -166 -70t-93 -167l-45 -234h-42zM344 589l-58 111h46l40 -80h2l72 80h52l-102 -111h-52z" />
<glyph unicode="&#x149;" horiz-adv-x="585" d="M30 0l97 500h42l-15 -83l-14 -46h2q25 49 89 95t146 46q69 0 104 -32.5t35 -93.5q0 -29 -8 -69l-61 -317h-42l58 302q9 47 9 76q0 46 -26 69.5t-70 23.5q-92 0 -166 -70t-93 -167l-45 -234h-42zM113 700h48v-13q0 -53 -42 -121h-39q36 61 36 106q0 13 -3 28z" />
<glyph unicode="&#x14a;" horiz-adv-x="743" d="M49 0l137 700h35l292 -549l40 -88h2q4 53 11 88l107 549h43l-134 -682q-13 -68 -38 -114t-58.5 -69t-67 -31.5t-75.5 -8.5l8 41q150 0 187 174l-286 539l-40 88h-2q-4 -53 -11 -88l-107 -549h-43z" />
<glyph unicode="&#x14b;" horiz-adv-x="585" d="M30 0l97 500h42l-15 -83l-14 -46h2q25 49 89 95t146 46q69 0 104 -32.5t35 -93.5q0 -29 -8 -69l-66 -342q-11 -58 -34.5 -98t-52.5 -57.5t-51.5 -23.5t-45.5 -6l-35 2l8 39q8 -2 22 -2q18 0 36.5 5t41.5 18.5t41.5 45t27.5 76.5l63 328q9 47 9 76q0 46 -26 69.5t-70 23.5 q-92 0 -166 -70t-93 -167l-45 -234h-42z" />
<glyph unicode="&#x14c;" horiz-adv-x="826" d="M64 288q0 112 61 210.5t159 156t203 57.5q132 0 215 -82t83 -210q0 -114 -61.5 -214.5t-159 -159t-202.5 -58.5q-132 0 -215 84t-83 216zM109 288q0 -114 70.5 -186.5t182.5 -72.5q93 0 180.5 52.5t142.5 143.5t55 194q0 111 -70.5 181.5t-182.5 70.5q-95 0 -182 -51 t-141.5 -140.5t-54.5 -191.5zM389 786l7 40h239l-7 -40h-239z" />
<glyph unicode="&#x14d;" horiz-adv-x="620" d="M38 205q0 125 93.5 216t212.5 91q98 0 159.5 -60t61.5 -154q0 -126 -94 -218t-212 -92q-98 0 -159.5 61t-61.5 156zM82 206q0 -78 49.5 -127.5t127.5 -49.5q100 0 181 79.5t81 188.5q0 76 -49.5 125t-127.5 49q-102 0 -182 -78.5t-80 -186.5zM255 625l7 40h239l-7 -40 h-239z" />
<glyph unicode="&#x14e;" horiz-adv-x="826" d="M64 288q0 112 61 210.5t159 156t203 57.5q132 0 215 -82t83 -210q0 -114 -61.5 -214.5t-159 -159t-202.5 -58.5q-132 0 -215 84t-83 216zM109 288q0 -114 70.5 -186.5t182.5 -72.5q93 0 180.5 52.5t142.5 143.5t55 194q0 111 -70.5 181.5t-182.5 70.5q-95 0 -182 -51 t-141.5 -140.5t-54.5 -191.5zM503 747q-35 0 -60.5 20.5t-25.5 59.5q0 18 5 34h40q-5 -18 -5 -30q0 -46 51 -46q28 0 49 18t27 58h40q-7 -60 -41 -87t-80 -27z" />
<glyph unicode="&#x14f;" horiz-adv-x="620" d="M38 205q0 125 93.5 216t212.5 91q98 0 159.5 -60t61.5 -154q0 -126 -94 -218t-212 -92q-98 0 -159.5 61t-61.5 156zM82 206q0 -78 49.5 -127.5t127.5 -49.5q100 0 181 79.5t81 188.5q0 76 -49.5 125t-127.5 49q-102 0 -182 -78.5t-80 -186.5zM369 586q-35 0 -60.5 20.5 t-25.5 59.5q0 18 5 34h40q-5 -18 -5 -30q0 -46 51 -46q28 0 49 18t27 58h40q-7 -60 -41 -87t-80 -27z" />
<glyph unicode="&#x150;" horiz-adv-x="826" d="M64 288q0 112 61 210.5t159 156t203 57.5q132 0 215 -82t83 -210q0 -114 -61.5 -214.5t-159 -159t-202.5 -58.5q-132 0 -215 84t-83 216zM109 288q0 -114 70.5 -186.5t182.5 -72.5q93 0 180.5 52.5t142.5 143.5t55 194q0 111 -70.5 181.5t-182.5 70.5q-95 0 -182 -51 t-141.5 -140.5t-54.5 -191.5zM519 750l89 111h60l-101 -111h-48zM404 750l84 111h54l-87 -111h-51z" />
<glyph unicode="&#x151;" horiz-adv-x="620" d="M38 205q0 125 93.5 216t212.5 91q98 0 159.5 -60t61.5 -154q0 -126 -94 -218t-212 -92q-98 0 -159.5 61t-61.5 156zM82 206q0 -78 49.5 -127.5t127.5 -49.5q100 0 181 79.5t81 188.5q0 76 -49.5 125t-127.5 49q-102 0 -182 -78.5t-80 -186.5zM385 589l89 111h60 l-101 -111h-48zM270 589l84 111h54l-87 -111h-51z" />
<glyph unicode="&#x152;" horiz-adv-x="929" d="M64 282q0 173 125 300.5t294 127.5q19 0 64.5 -5t60.5 -5h337l-8 -40h-340l-56 -287h279l-8 -40h-279l-57 -293h359l-8 -40h-345q-13 0 -56.5 -5t-61.5 -5q-138 0 -219 81t-81 211zM109 277q0 -110 68 -178t185 -68q16 0 34 2t28 4l9 2l121 622q-32 8 -69 8 q-155 0 -265.5 -115.5t-110.5 -276.5z" />
<glyph unicode="&#x153;" horiz-adv-x="1021" d="M38 205q0 125 93.5 216t212.5 91q79 0 135 -41t76 -109h2q39 68 103.5 109t142.5 41q87 0 130.5 -48.5t43.5 -128.5q0 -43 -13 -78h-401q-6 -24 -6 -55q0 -81 49 -127t127 -46q85 0 167 63l16 -38q-33 -28 -84.5 -47t-98.5 -19q-81 0 -138.5 40t-75.5 111h-2 q-42 -69 -112 -110t-146 -41q-98 0 -159.5 61t-61.5 156zM573 296h355q4 11 4 42q0 67 -35.5 101t-93.5 34q-73 0 -136.5 -46.5t-93.5 -130.5zM82 206q0 -78 49.5 -127.5t127.5 -49.5q100 0 181 79.5t81 188.5q0 76 -49.5 125t-127.5 49q-102 0 -182 -78.5t-80 -186.5z" />
<glyph unicode="&#x154;" horiz-adv-x="604" d="M50 0l136 700h222q60 0 97 -19q77 -40 77 -137q0 -86 -53 -148.5t-132 -77.5v-2q4 -8 10 -25l102 -291h-46l-108 310h-202l-60 -310h-43zM161 350h185q80 0 135.5 54.5t55.5 139.5q0 54 -34 85t-95 31h-187zM364 750l89 111h60l-101 -111h-48z" />
<glyph unicode="&#x155;" horiz-adv-x="340" d="M30 0l97 500h42l-18 -90l-13 -46h2q29 60 77.5 100t108.5 40q14 0 30 -3l-9 -42q-16 2 -22 2q-43 0 -82 -27.5t-65 -70t-43.5 -86.5t-25.5 -86l-37 -191h-42zM239 589l89 111h60l-101 -111h-48z" />
<glyph unicode="&#x156;" horiz-adv-x="604" d="M50 0l136 700h222q60 0 97 -19q77 -40 77 -137q0 -86 -53 -148.5t-132 -77.5v-2q4 -8 10 -25l102 -291h-46l-108 310h-202l-60 -310h-43zM161 350h185q80 0 135.5 54.5t55.5 139.5q0 54 -34 85t-95 31h-187zM233 -66h48v-13q0 -53 -42 -121h-39q36 61 36 106q0 13 -3 28z " />
<glyph unicode="&#x157;" horiz-adv-x="340" d="M30 0l97 500h42l-18 -90l-13 -46h2q29 60 77.5 100t108.5 40q14 0 30 -3l-9 -42q-16 2 -22 2q-43 0 -82 -27.5t-65 -70t-43.5 -86.5t-25.5 -86l-37 -191h-42zM21 -66h48v-13q0 -53 -42 -121h-39q36 61 36 106q0 13 -3 28z" />
<glyph unicode="&#x158;" horiz-adv-x="604" d="M50 0l136 700h222q60 0 97 -19q77 -40 77 -137q0 -86 -53 -148.5t-132 -77.5v-2q4 -8 10 -25l102 -291h-46l-108 310h-202l-60 -310h-43zM161 350h185q80 0 135.5 54.5t55.5 139.5q0 54 -34 85t-95 31h-187zM366 750l-58 111h46l40 -80h2l72 80h52l-102 -111h-52z" />
<glyph unicode="&#x159;" horiz-adv-x="340" d="M30 0l97 500h42l-18 -90l-13 -46h2q29 60 77.5 100t108.5 40q14 0 30 -3l-9 -42q-16 2 -22 2q-43 0 -82 -27.5t-65 -70t-43.5 -86.5t-25.5 -86l-37 -191h-42zM241 589l-58 111h46l40 -80h2l72 80h52l-102 -111h-52z" />
<glyph unicode="&#x15a;" horiz-adv-x="527" d="M12 75l31 31q2 -3 6.5 -8t20.5 -18.5t34 -23.5t48 -18t62 -8q79 0 135 42.5t56 113.5q0 42 -22 73t-54.5 48.5t-71 38t-71 39t-54.5 53.5t-22 81q0 88 70.5 140.5t166.5 52.5q53 0 96.5 -17t60.5 -33l17 -17l-28 -33q-6 6 -16.5 16t-48 26t-80.5 16q-75 0 -134 -40.5 t-59 -108.5q0 -45 30.5 -77t73.5 -52.5t86.5 -43t74 -62t30.5 -96.5q0 -89 -66.5 -145.5t-168.5 -56.5q-38 0 -73 9t-58 22t-40 25.5t-24 21.5zM326 750l89 111h60l-101 -111h-48z" />
<glyph unicode="&#x15b;" horiz-adv-x="430" d="M-1 61l27 30q24 -28 62.5 -45t80.5 -17q56 0 97 26.5t41 73.5q0 33 -24 56.5t-57.5 38t-67.5 30.5t-58 45.5t-24 72.5q0 66 54 103t128 37q96 0 143 -56l-28 -30q-42 45 -116 45q-54 0 -95.5 -25t-41.5 -73q0 -34 24 -57t58 -37.5t67.5 -30.5t57.5 -44.5t24 -70.5 q0 -64 -52.5 -104.5t-130.5 -40.5q-110 0 -169 73zM249 589l89 111h60l-101 -111h-48z" />
<glyph unicode="&#x15c;" horiz-adv-x="527" d="M12 75l31 31q2 -3 6.5 -8t20.5 -18.5t34 -23.5t48 -18t62 -8q79 0 135 42.5t56 113.5q0 42 -22 73t-54.5 48.5t-71 38t-71 39t-54.5 53.5t-22 81q0 88 70.5 140.5t166.5 52.5q53 0 96.5 -17t60.5 -33l17 -17l-28 -33q-6 6 -16.5 16t-48 26t-80.5 16q-75 0 -134 -40.5 t-59 -108.5q0 -45 30.5 -77t73.5 -52.5t86.5 -43t74 -62t30.5 -96.5q0 -89 -66.5 -145.5t-168.5 -56.5q-38 0 -73 9t-58 22t-40 25.5t-24 21.5zM242 750l102 111h52l58 -111h-46l-40 80h-2l-72 -80h-52z" />
<glyph unicode="&#x15d;" horiz-adv-x="430" d="M-1 61l27 30q24 -28 62.5 -45t80.5 -17q56 0 97 26.5t41 73.5q0 33 -24 56.5t-57.5 38t-67.5 30.5t-58 45.5t-24 72.5q0 66 54 103t128 37q96 0 143 -56l-28 -30q-42 45 -116 45q-54 0 -95.5 -25t-41.5 -73q0 -34 24 -57t58 -37.5t67.5 -30.5t57.5 -44.5t24 -70.5 q0 -64 -52.5 -104.5t-130.5 -40.5q-110 0 -169 73zM165 589l102 111h52l58 -111h-46l-40 80h-2l-72 -80h-52z" />
<glyph unicode="&#x15e;" horiz-adv-x="527" d="M156 -93l33 82q-33 3 -63.5 13t-50 22t-34.5 23.5t-21 19.5l-7 8l31 31q2 -3 6.5 -8t20.5 -18.5t34 -23.5t48 -18t62 -8q79 0 135 42.5t56 113.5q0 42 -22 73t-54.5 48.5t-71 38t-71 39t-54.5 53.5t-22 81q0 88 70.5 140.5t166.5 52.5q53 0 96.5 -17t60.5 -33l17 -17 l-28 -33q-6 6 -16.5 16t-48 26t-80.5 16q-75 0 -134 -40.5t-59 -108.5q0 -45 30.5 -77t73.5 -52.5t86.5 -43t74 -62t30.5 -96.5q0 -88 -64 -143.5t-163 -58.5l-18 -48q24 -4 40.5 -20.5t16.5 -43.5q0 -39 -31.5 -59.5t-70.5 -20.5q-28 0 -48 5l8 37q13 -5 39 -5q24 0 43 10 t19 33q0 32 -54 32q-8 0 -12 -1z" />
<glyph unicode="&#x15f;" horiz-adv-x="431" d="M110 -93l33 82q-95 9 -144 72l27 30q24 -28 62.5 -45t80.5 -17q56 0 97 26.5t41 73.5q0 33 -24 56.5t-57.5 38t-67.5 30.5t-58 45.5t-24 72.5q0 66 54 103t128 37q96 0 143 -56l-28 -30q-42 45 -116 45q-54 0 -95.5 -25t-41.5 -73q0 -34 24 -57t58 -37.5t67.5 -30.5 t57.5 -44.5t24 -70.5q0 -62 -49 -102t-124 -43l-18 -48q24 -4 40.5 -20.5t16.5 -43.5q0 -39 -31.5 -59.5t-70.5 -20.5q-28 0 -48 5l8 37q13 -5 39 -5q24 0 43 10t19 33q0 32 -54 32q-8 0 -12 -1z" />
<glyph unicode="&#x160;" horiz-adv-x="527" d="M12 75l31 31q2 -3 6.5 -8t20.5 -18.5t34 -23.5t48 -18t62 -8q79 0 135 42.5t56 113.5q0 42 -22 73t-54.5 48.5t-71 38t-71 39t-54.5 53.5t-22 81q0 88 70.5 140.5t166.5 52.5q53 0 96.5 -17t60.5 -33l17 -17l-28 -33q-6 6 -16.5 16t-48 26t-80.5 16q-75 0 -134 -40.5 t-59 -108.5q0 -45 30.5 -77t73.5 -52.5t86.5 -43t74 -62t30.5 -96.5q0 -89 -66.5 -145.5t-168.5 -56.5q-38 0 -73 9t-58 22t-40 25.5t-24 21.5zM328 750l-58 111h46l40 -80h2l72 80h52l-102 -111h-52z" />
<glyph unicode="&#x161;" horiz-adv-x="430" d="M-1 61l27 30q24 -28 62.5 -45t80.5 -17q56 0 97 26.5t41 73.5q0 33 -24 56.5t-57.5 38t-67.5 30.5t-58 45.5t-24 72.5q0 66 54 103t128 37q96 0 143 -56l-28 -30q-42 45 -116 45q-54 0 -95.5 -25t-41.5 -73q0 -34 24 -57t58 -37.5t67.5 -30.5t57.5 -44.5t24 -70.5 q0 -64 -52.5 -104.5t-130.5 -40.5q-110 0 -169 73zM251 589l-58 111h46l40 -80h2l72 80h52l-102 -111h-52z" />
<glyph unicode="&#x162;" horiz-adv-x="597" d="M219 0l128 660h-260l7 40h565l-7 -40h-262l-128 -660h-5l-23 -60q24 -4 40.5 -20.5t16.5 -43.5q0 -39 -31.5 -59.5t-70.5 -20.5q-28 0 -48 5l8 37q13 -5 39 -5q24 0 43 10t19 33q0 32 -54 32q-8 0 -12 -1l37 93h-2z" />
<glyph unicode="&#x163;" horiz-adv-x="297" d="M88 -93l42 104q-58 31 -58 122q0 25 6 58l52 268h-66l7 38h66l28 142h42l-28 -142h131l-7 -38h-131l-53 -275q-5 -24 -5 -49q0 -100 89 -100q13 0 29 2l-8 -39q-6 -2 -21 -2q-22 0 -42 4l-23 -60q24 -4 40.5 -20.5t16.5 -43.5q0 -39 -31.5 -59.5t-70.5 -20.5q-28 0 -48 5 l8 37q13 -5 39 -5q24 0 43 10t19 33q0 32 -54 32q-8 0 -12 -1z" />
<glyph unicode="&#x164;" horiz-adv-x="596" d="M218 0l128 660h-260l7 40h565l-7 -40h-262l-128 -660h-43zM361 750l-58 111h46l40 -80h2l72 80h52l-102 -111h-52z" />
<glyph unicode="&#x165;" horiz-adv-x="297" d="M72 133q0 25 6 58l52 268h-66l7 38h66l28 142h42l-28 -142h131l-7 -38h-131l-53 -275q-5 -24 -5 -49q0 -100 89 -100q13 0 29 2l-8 -39q-6 -2 -21 -2q-131 0 -131 137zM304 700h48v-13q0 -53 -42 -121h-39q36 61 36 106q0 13 -3 28z" />
<glyph unicode="&#x166;" horiz-adv-x="607" d="M224 0l65 337h-166l8 40h166l55 283h-260l7 40h565l-7 -40h-262l-55 -283h170l-8 -40h-170l-65 -337h-43z" />
<glyph unicode="&#x167;" horiz-adv-x="302" d="M74 133q0 25 6 58l20 104h-65l7 40h66l24 124h-66l7 38h66l28 142h42l-28 -142h131l-7 -38h-131l-24 -124h131l-7 -40h-132q-26 -130 -26 -160q0 -100 89 -100l29 2l-8 -39q-8 -2 -21 -2q-131 0 -131 137z" />
<glyph unicode="&#x168;" horiz-adv-x="721" d="M84 187q0 27 6 57l89 456h43l-89 -457q-5 -23 -5 -52q0 -77 48 -119.5t134 -42.5q99 0 169.5 58t90.5 158l89 455h43l-92 -465q-22 -115 -103.5 -181t-196.5 -66q-105 0 -165.5 53t-60.5 146zM311 753q20 108 96 108q22 0 38.5 -11.5t25 -25.5t21 -25.5t26.5 -11.5 q40 0 52 71h40q-11 -55 -34 -81.5t-63 -26.5q-22 0 -38 11.5t-24.5 25.5t-21 25.5t-27.5 11.5q-21 0 -34 -23t-17 -48h-40z" />
<glyph unicode="&#x169;" horiz-adv-x="580" d="M52 114q0 29 8 69l61 317h42l-58 -300q-9 -44 -9 -78q0 -44 22 -68.5t77 -24.5q90 0 162 73t89 166l45 232h42l-97 -500h-42l16 83l13 46h-2q-27 -51 -88.5 -96t-144.5 -45q-60 0 -98 30.5t-38 95.5zM206 592q20 108 96 108q22 0 38.5 -11.5t25 -25.5t21 -25.5 t26.5 -11.5q40 0 52 71h40q-11 -55 -34 -81.5t-63 -26.5q-22 0 -38 11.5t-24.5 25.5t-21 25.5t-27.5 11.5q-21 0 -34 -23t-17 -48h-40z" />
<glyph unicode="&#x16a;" horiz-adv-x="721" d="M84 187q0 27 6 57l89 456h43l-89 -457q-5 -23 -5 -52q0 -77 48 -119.5t134 -42.5q99 0 169.5 58t90.5 158l89 455h43l-92 -465q-22 -115 -103.5 -181t-196.5 -66q-105 0 -165.5 53t-60.5 146zM337 786l7 40h239l-7 -40h-239z" />
<glyph unicode="&#x16b;" horiz-adv-x="580" d="M52 114q0 29 8 69l61 317h42l-58 -300q-9 -44 -9 -78q0 -44 22 -68.5t77 -24.5q90 0 162 73t89 166l45 232h42l-97 -500h-42l16 83l13 46h-2q-27 -51 -88.5 -96t-144.5 -45q-60 0 -98 30.5t-38 95.5zM232 625l7 40h239l-7 -40h-239z" />
<glyph unicode="&#x16c;" horiz-adv-x="721" d="M84 187q0 27 6 57l89 456h43l-89 -457q-5 -23 -5 -52q0 -77 48 -119.5t134 -42.5q99 0 169.5 58t90.5 158l89 455h43l-92 -465q-22 -115 -103.5 -181t-196.5 -66q-105 0 -165.5 53t-60.5 146zM451 747q-35 0 -60.5 20.5t-25.5 59.5q0 18 5 34h40q-5 -18 -5 -30 q0 -46 51 -46q28 0 49 18t27 58h40q-7 -60 -41 -87t-80 -27z" />
<glyph unicode="&#x16d;" horiz-adv-x="580" d="M52 114q0 29 8 69l61 317h42l-58 -300q-9 -44 -9 -78q0 -44 22 -68.5t77 -24.5q90 0 162 73t89 166l45 232h42l-97 -500h-42l16 83l13 46h-2q-27 -51 -88.5 -96t-144.5 -45q-60 0 -98 30.5t-38 95.5zM346 586q-35 0 -60.5 20.5t-25.5 59.5q0 18 5 34h40q-5 -18 -5 -30 q0 -46 51 -46q28 0 49 18t27 58h40q-7 -60 -41 -87t-80 -27z" />
<glyph unicode="&#x16e;" horiz-adv-x="721" d="M84 187q0 27 6 57l89 456h43l-89 -457q-5 -23 -5 -52q0 -77 48 -119.5t134 -42.5q99 0 169.5 58t90.5 158l89 455h43l-92 -465q-22 -115 -103.5 -181t-196.5 -66q-105 0 -165.5 53t-60.5 146zM454 740q-30 0 -46 15.5t-16 43.5q0 29 22.5 52t51.5 23q30 0 46 -16t16 -43 q0 -29 -22.5 -52t-51.5 -23zM454 775q16 0 27.5 11.5t11.5 28.5q0 11 -7.5 18t-19.5 7q-16 0 -27.5 -11.5t-11.5 -29.5q0 -24 27 -24z" />
<glyph unicode="&#x16f;" horiz-adv-x="580" d="M52 114q0 29 8 69l61 317h42l-58 -300q-9 -44 -9 -78q0 -44 22 -68.5t77 -24.5q90 0 162 73t89 166l45 232h42l-97 -500h-42l16 83l13 46h-2q-27 -51 -88.5 -96t-144.5 -45q-60 0 -98 30.5t-38 95.5zM349 579q-30 0 -46 15.5t-16 43.5q0 29 22.5 52t51.5 23q30 0 46 -16 t16 -43q0 -29 -22.5 -52t-51.5 -23zM349 614q16 0 27.5 11.5t11.5 28.5q0 11 -7.5 18t-19.5 7q-16 0 -27.5 -11.5t-11.5 -29.5q0 -24 27 -24z" />
<glyph unicode="&#x170;" horiz-adv-x="721" d="M84 187q0 27 6 57l89 456h43l-89 -457q-5 -23 -5 -52q0 -77 48 -119.5t134 -42.5q99 0 169.5 58t90.5 158l89 455h43l-92 -465q-22 -115 -103.5 -181t-196.5 -66q-105 0 -165.5 53t-60.5 146zM467 750l89 111h60l-101 -111h-48zM352 750l84 111h54l-87 -111h-51z" />
<glyph unicode="&#x171;" horiz-adv-x="580" d="M52 114q0 29 8 69l61 317h42l-58 -300q-9 -44 -9 -78q0 -44 22 -68.5t77 -24.5q90 0 162 73t89 166l45 232h42l-97 -500h-42l16 83l13 46h-2q-27 -51 -88.5 -96t-144.5 -45q-60 0 -98 30.5t-38 95.5zM362 589l89 111h60l-101 -111h-48zM247 589l84 111h54l-87 -111h-51z " />
<glyph unicode="&#x172;" horiz-adv-x="721" d="M84 187q0 27 6 57l89 456h43l-89 -457q-5 -23 -5 -52q0 -77 48 -119.5t134 -42.5q99 0 169.5 58t90.5 158l89 455h43l-92 -465q-29 -149 -165 -219q-133 -69 -133 -135q0 -18 14.5 -29.5t29.5 -13.5l14 -3l-16 -39q-4 0 -9.5 1t-20.5 5.5t-26.5 12.5t-21 23.5t-9.5 36.5 q0 56 69 112v2q-64 -6 -119.5 11.5t-94 65.5t-38.5 121z" />
<glyph unicode="&#x173;" horiz-adv-x="580" d="M52 114q0 29 8 69l61 317h42l-58 -300q-9 -44 -9 -78q0 -44 22 -68.5t77 -24.5q90 0 162 73t89 166l45 232h42l-97 -500q-105 -66 -105 -119q0 -18 14.5 -29.5t28.5 -13.5l15 -3l-16 -39q-4 0 -9.5 1t-20.5 5.5t-26.5 12.5t-21 23.5t-9.5 36.5q0 72 111 142l13 66l13 46 h-2q-27 -51 -88.5 -96t-144.5 -45q-60 0 -98 30.5t-38 95.5z" />
<glyph unicode="&#x174;" horiz-adv-x="907" d="M164 0l-48 700h43l36 -570l2 -75h2q18 40 35 75l278 570h50l39 -570l2 -75h2q17 41 32 75l259 570h48l-321 -700h-54l-38 528l-3 111h-2q-28 -65 -50 -110l-260 -529h-52zM438 750l102 111h52l58 -111h-46l-40 80h-2l-72 -80h-52z" />
<glyph unicode="&#x175;" horiz-adv-x="823" d="M150 0l-79 500h43l60 -395l6 -54h2q15 30 28 54l212 393h49l60 -393l7 -54h2q14 29 27 54l214 395h46l-273 -500h-45l-64 391l-6 54h-2q-15 -30 -28 -54l-212 -391h-47zM355 589l102 111h52l58 -111h-46l-40 80h-2l-72 -80h-52z" />
<glyph unicode="&#x176;" horiz-adv-x="567" d="M199 0l60 304l-160 396h46l111 -276l29 -79h2q31 43 58 78l219 277h53l-315 -397l-60 -303h-43zM258 750l102 111h52l58 -111h-46l-40 80h-2l-72 -80h-52z" />
<glyph unicode="&#x177;" horiz-adv-x="520" d="M-48 -149q21 -21 58 -21q61 0 116 89l53 85l-112 496h44l87 -406l9 -47h1q13 23 27 47l244 406h48l-379 -620q-56 -90 -138 -90q-46 0 -82 28zM206 589l102 111h52l58 -111h-46l-40 80h-2l-72 -80h-52z" />
<glyph unicode="&#x178;" horiz-adv-x="567" d="M199 0l60 304l-160 396h46l111 -276l29 -79h2q31 43 58 78l219 277h53l-315 -397l-60 -303h-43zM421 788l14 73h46l-14 -73h-46zM284 788l14 73h46l-14 -73h-46z" />
<glyph unicode="&#x179;" d="M-24 0l7 34l489 562l61 64v2q-15 -2 -50 -2h-358l9 40h463l-7 -34l-490 -562l-61 -64v-2q15 2 50 2h381l-7 -40h-487zM356 750l89 111h60l-101 -111h-48z" />
<glyph unicode="&#x17a;" horiz-adv-x="482" d="M-20 0l6 34l374 381q44 46 47 46v2q-17 -2 -50 -2h-275l7 39h386l-7 -34l-375 -381q-11 -11 -22.5 -22t-18.5 -17l-7 -7v-2q18 2 51 2h300l-7 -39h-409zM273 589l89 111h60l-101 -111h-48z" />
<glyph unicode="&#x17b;" d="M-24 0l7 34l489 562l61 64v2q-15 -2 -50 -2h-358l9 40h463l-7 -34l-490 -562l-61 -64v-2q15 2 50 2h381l-7 -40h-487zM366 788l14 73h46l-14 -73h-46z" />
<glyph unicode="&#x17c;" horiz-adv-x="482" d="M-20 0l6 34l374 381q44 46 47 46v2q-17 -2 -50 -2h-275l7 39h386l-7 -34l-375 -381q-11 -11 -22.5 -22t-18.5 -17l-7 -7v-2q18 2 51 2h300l-7 -39h-409zM283 627l14 73h46l-14 -73h-46z" />
<glyph unicode="&#x17d;" d="M-24 0l7 34l489 562l61 64v2q-15 -2 -50 -2h-358l9 40h463l-7 -34l-490 -562l-61 -64v-2q15 2 50 2h381l-7 -40h-487zM358 750l-58 111h46l40 -80h2l72 80h52l-102 -111h-52z" />
<glyph unicode="&#x17e;" horiz-adv-x="482" d="M-20 0l6 34l374 381q44 46 47 46v2q-17 -2 -50 -2h-275l7 39h386l-7 -34l-375 -381q-11 -11 -22.5 -22t-18.5 -17l-7 -7v-2q18 2 51 2h300l-7 -39h-409zM275 589l-58 111h46l40 -80h2l72 80h52l-102 -111h-52z" />
<glyph unicode="&#x17f;" horiz-adv-x="251" d="M45 0l89 459h-63l7 38h63l5 25q9 47 28 82t39.5 53.5t45.5 30t42 14.5t34 3l31 -2l-9 -39q-8 2 -22 2q-19 0 -37 -5t-41 -18.5t-41.5 -45t-27.5 -76.5l-101 -521h-42z" />
<glyph unicode="&#x192;" d="M-32 -57q24 -5 60 -5q19 0 37.5 5t42.5 18.5t45 45t34 76.5l84 295h-96l7 38h99l34 118q16 56 42.5 94.5t56.5 55t53.5 22.5t46.5 6q50 0 89 -8l-7 -38q-42 7 -81 7q-116 0 -159 -145l-33 -112h133l-7 -38h-136l-87 -304q-16 -56 -42.5 -93.5t-56.5 -54t-52.5 -22 t-45.5 -5.5q-37 0 -69 6z" />
<glyph unicode="&#x218;" horiz-adv-x="527" d="M12 75l31 31q2 -3 6.5 -8t20.5 -18.5t34 -23.5t48 -18t62 -8q79 0 135 42.5t56 113.5q0 42 -22 73t-54.5 48.5t-71 38t-71 39t-54.5 53.5t-22 81q0 88 70.5 140.5t166.5 52.5q53 0 96.5 -17t60.5 -33l17 -17l-28 -33q-6 6 -16.5 16t-48 26t-80.5 16q-75 0 -134 -40.5 t-59 -108.5q0 -45 30.5 -77t73.5 -52.5t86.5 -43t74 -62t30.5 -96.5q0 -89 -66.5 -145.5t-168.5 -56.5q-38 0 -73 9t-58 22t-40 25.5t-24 21.5zM168 -66h48v-13q0 -53 -42 -121h-39q36 61 36 106q0 13 -3 28z" />
<glyph unicode="&#x219;" horiz-adv-x="430" d="M-1 61l27 30q24 -28 62.5 -45t80.5 -17q56 0 97 26.5t41 73.5q0 33 -24 56.5t-57.5 38t-67.5 30.5t-58 45.5t-24 72.5q0 66 54 103t128 37q96 0 143 -56l-28 -30q-42 45 -116 45q-54 0 -95.5 -25t-41.5 -73q0 -34 24 -57t58 -37.5t67.5 -30.5t57.5 -44.5t24 -70.5 q0 -64 -52.5 -104.5t-130.5 -40.5q-110 0 -169 73zM132 -66h48v-13q0 -53 -42 -121h-39q36 61 36 106q0 13 -3 28z" />
<glyph unicode="&#x21a;" horiz-adv-x="596" d="M218 0l128 660h-260l7 40h565l-7 -40h-262l-128 -660h-43zM203 -66h48v-13q0 -53 -42 -121h-39q36 61 36 106q0 13 -3 28z" />
<glyph unicode="&#x21b;" horiz-adv-x="297" d="M72 133q0 25 6 58l52 268h-66l7 38h66l28 142h42l-28 -142h131l-7 -38h-131l-53 -275q-5 -24 -5 -49q0 -100 89 -100q13 0 29 2l-8 -39q-6 -2 -21 -2q-131 0 -131 137zM124 -66h48v-13q0 -53 -42 -121h-39q36 61 36 106q0 13 -3 28z" />
<glyph unicode="&#x2c6;" horiz-adv-x="508" d="M79 750l102 111h52l58 -111h-46l-40 80h-2l-72 -80h-52z" />
<glyph unicode="&#x2c7;" horiz-adv-x="508" d="M165 750l-58 111h46l40 -80h2l72 80h52l-102 -111h-52z" />
<glyph unicode="&#x2d8;" horiz-adv-x="510" d="M189 747q-35 0 -60.5 20.5t-25.5 59.5q0 18 5 34h40q-5 -18 -5 -30q0 -46 51 -46q28 0 49 18t27 58h40q-7 -60 -41 -87t-80 -27z" />
<glyph unicode="&#x2d9;" horiz-adv-x="510" d="M174 788l14 73h46l-14 -73h-46z" />
<glyph unicode="&#x2da;" horiz-adv-x="510" d="M193 740q-30 0 -46 15.5t-16 43.5q0 29 22.5 52t51.5 23q30 0 46 -16t16 -43q0 -29 -22.5 -52t-51.5 -23zM193 775q16 0 27.5 11.5t11.5 28.5q0 11 -7.5 18t-19.5 7q-16 0 -27.5 -11.5t-11.5 -29.5q0 -24 27 -24z" />
<glyph unicode="&#x2db;" horiz-adv-x="509" d="M124 -125q0 43 32 77.5t84 67.5l43 -13q-13 -7 -32 -19.5t-50.5 -46t-31.5 -60.5q0 -18 14.5 -29.5t28.5 -13.5l15 -3l-16 -39q-4 0 -9.5 1t-20.5 5.5t-26.5 12.5t-21 23.5t-9.5 36.5z" />
<glyph unicode="&#x2dc;" horiz-adv-x="509" d="M50 753q20 108 96 108q22 0 38.5 -11.5t25 -25.5t21 -25.5t26.5 -11.5q40 0 52 71h40q-11 -55 -34 -81.5t-63 -26.5q-22 0 -38 11.5t-24.5 25.5t-21 25.5t-27.5 11.5q-21 0 -34 -23t-17 -48h-40z" />
<glyph unicode="&#x2dd;" horiz-adv-x="509" d="M183 750l89 111h60l-101 -111h-48zM68 750l84 111h54l-87 -111h-51z" />
<glyph unicode="&#x3bc;" horiz-adv-x="579" d="M74 -33l-33 -167h-42l136 700h42l-58 -300q-9 -44 -9 -78q0 -44 22 -68.5t77 -24.5q90 0 162 73t89 166l45 232h42l-97 -500h-42l16 83l13 46h-2q-27 -51 -88.5 -96t-144.5 -45q-84 0 -117 53h-2q-5 -53 -9 -74z" />
<glyph unicode="&#x400;" horiz-adv-x="553" d="M49 0l137 700h383l-9 -40h-339l-56 -287h279l-8 -40h-278l-58 -293h358l-7 -40h-402zM391 750l-57 111h52l45 -111h-40z" />
<glyph unicode="&#x401;" horiz-adv-x="553" d="M49 0l137 700h383l-9 -40h-339l-56 -287h279l-8 -40h-278l-58 -293h358l-7 -40h-402zM452 788l14 73h46l-14 -73h-46zM315 788l14 73h46l-14 -73h-46z" />
<glyph unicode="&#x402;" horiz-adv-x="711" d="M162 0l128 660h-206l8 40h493l-8 -40h-244l-50 -259l-7 -30h2q99 46 196 46q90 0 138 -45.5t48 -126.5q0 -103 -71.5 -180t-189.5 -77q-3 0 -51 3l7 39q18 -3 45 -3q94 0 154.5 64t60.5 154q0 131 -147 131q-103 0 -201 -54l-62 -322h-43z" />
<glyph unicode="&#x403;" horiz-adv-x="479" d="M49 0l137 700h353l-8 -40h-310l-129 -660h-43zM339 750l89 111h60l-101 -111h-48z" />
<glyph unicode="&#x404;" horiz-adv-x="715" d="M64 285q0 107 55.5 205.5t154 160t212.5 61.5q153 0 234 -88l-28 -31q-78 78 -211 78q-127 0 -229 -87t-133 -213h424l-8 -40h-423q-3 -24 -3 -47q0 -115 69.5 -185t181.5 -70q142 0 255 98l21 -34q-54 -47 -130 -76t-152 -29q-131 0 -210.5 84.5t-79.5 212.5z" />
<glyph unicode="&#x405;" horiz-adv-x="527" d="M12 75l31 31q2 -3 6.5 -8t20.5 -18.5t34 -23.5t48 -18t62 -8q79 0 135 42.5t56 113.5q0 42 -22 73t-54.5 48.5t-71 38t-71 39t-54.5 53.5t-22 81q0 88 70.5 140.5t166.5 52.5q53 0 96.5 -17t60.5 -33l17 -17l-28 -33q-6 6 -16.5 16t-48 26t-80.5 16q-75 0 -134 -40.5 t-59 -108.5q0 -45 30.5 -77t73.5 -52.5t86.5 -43t74 -62t30.5 -96.5q0 -89 -66.5 -145.5t-168.5 -56.5q-38 0 -73 9t-58 22t-40 25.5t-24 21.5z" />
<glyph unicode="&#x406;" horiz-adv-x="256" d="M49 0l137 700h43l-137 -700h-43z" />
<glyph unicode="&#x407;" horiz-adv-x="256" d="M49 0l137 700h43l-137 -700h-43zM271 788l14 73h46l-14 -73h-46zM134 788l14 73h46l-14 -73h-46z" />
<glyph unicode="&#x408;" horiz-adv-x="505" d="M7 139q0 19 6 52l4 22h43l-4 -22q-5 -25 -5 -45q0 -117 116 -117q59 0 109.5 39t66.5 123l90 469h-166l8 40h209l-100 -515q-20 -103 -81 -150t-136 -47q-69 0 -114.5 37t-45.5 114z" />
<glyph unicode="&#x409;" horiz-adv-x="924" d="M-32 -8l8 42q51 7 92.5 46.5t74.5 111.5t59 162t50 214l26 132h330l-61 -310h141q85 0 135.5 -42t50.5 -119q0 -93 -70 -161t-174 -68h-202l129 660h-244l-18 -89q-18 -88 -34 -155t-38 -135.5t-46.5 -117t-55 -88t-69 -60.5t-84.5 -23zM479 40h150q83 0 141.5 54 t58.5 132q0 61 -38 92.5t-101 31.5h-150z" />
<glyph unicode="&#x40a;" horiz-adv-x="982" d="M49 0l137 700h43l-61 -311h394l61 311h43l-61 -310h141q85 0 135.5 -42t50.5 -119q0 -93 -70 -161t-174 -68h-202l68 349h-394l-68 -349h-43zM537 40h150q83 0 141.5 54t58.5 132q0 61 -38 92.5t-101 31.5h-150z" />
<glyph unicode="&#x40b;" horiz-adv-x="704" d="M160 0l130 660h-206l8 40h492l-8 -40h-243l-52 -264l-9 -33h2q103 54 208 54q79 0 120 -36t41 -99q0 -28 -6 -60l-44 -222h-43l43 215q7 33 7 55q0 106 -121 106q-60 0 -120 -19.5t-94 -41.5l-62 -315h-43z" />
<glyph unicode="&#x40c;" horiz-adv-x="568" d="M358 750l89 111h60l-101 -111h-48zM49 0l137 700h43l-61 -312h126l265 312h52l-281 -331v-2l158 -367h-47l-148 348h-133l-68 -348h-43z" />
<glyph unicode="&#x40d;" horiz-adv-x="749" d="M49 0l137 700h43l-106 -545l-21 -86h2q49 59 78 91l500 540h40l-137 -700h-43l106 545l21 86h-2q-46 -56 -75 -88l-503 -543h-40zM451 750l-57 111h52l45 -111h-40z" />
<glyph unicode="&#x40e;" horiz-adv-x="578" d="M35 30l26 33q41 -35 77 -35q35 0 58.5 25t58.5 85l-170 562h45l129 -426l23 -92h2q29 52 52 92l243 426h50l-353 -606q-62 -106 -141 -106q-47 0 -100 42zM370 734q-42 0 -73.5 24.5t-31.5 64.5q0 14 6 38h41q-5 -17 -5 -31q0 -27 18.5 -41.5t46.5 -14.5q34 0 61 21.5 t33 65.5h41q-19 -127 -137 -127z" />
<glyph unicode="&#x40f;" horiz-adv-x="717" d="M50 0l136 700h43l-128 -660h417l128 660h43l-136 -700h-230l-27 -140h-43l27 140h-230z" />
<glyph unicode="&#x410;" horiz-adv-x="625" d="M-25 0l397 700h45l127 -700h-44l-43 242h-297l-137 -242h-48zM182 282h267l-50 284l-12 84h-2q-25 -54 -42 -84z" />
<glyph unicode="&#x411;" horiz-adv-x="584" d="M49 0l137 700h382l-8 -40h-339l-51 -260h165q83 0 133 -40.5t50 -118.5q0 -106 -68.5 -173.5t-160.5 -67.5h-240zM100 40h183q80 0 135 54t55 145q0 57 -35 89t-94 32h-182z" />
<glyph unicode="&#x412;" horiz-adv-x="608" d="M49 0l137 700h225q43 0 74 -12q83 -34 83 -131q0 -67 -34.5 -116t-90.5 -71v-2q39 -13 63 -49.5t24 -89.5q0 -72 -36 -127.5t-94 -81.5q-43 -20 -96 -20h-255zM168 388h190q67 0 116 47.5t49 121.5q0 48 -29.5 75.5t-82.5 27.5h-190zM100 40h198q46 0 79 15 q49 22 78.5 67.5t29.5 105.5q0 56 -34.5 88t-93.5 32h-197z" />
<glyph unicode="&#x413;" horiz-adv-x="479" d="M49 0l137 700h353l-8 -40h-310l-129 -660h-43z" />
<glyph unicode="&#x414;" horiz-adv-x="687" d="M86 40h386l120 620h-277l-17 -88q-22 -135 -77.5 -283t-134.5 -249zM-76 -140l35 180h73q89 104 145 250t78 281l25 129h363l-128 -660h78l-35 -180h-42l27 140h-549l-27 -140h-43z" />
<glyph unicode="&#x415;" horiz-adv-x="553" d="M49 0l137 700h383l-9 -40h-339l-56 -287h279l-8 -40h-278l-58 -293h358l-7 -40h-402z" />
<glyph unicode="&#x416;" horiz-adv-x="829" d="M-33 0l300 368v2l-150 330h49l139 -312h107l61 312h43l-61 -312h100l261 312h56l-280 -330v-2l157 -368h-49l-146 348h-107l-68 -348h-43l68 348h-101l-282 -348h-54z" />
<glyph unicode="&#x417;" horiz-adv-x="524" d="M-5 76l29 30q54 -76 161 -76q91 0 155 53.5t64 133.5q0 62 -40.5 93.5t-103.5 31.5h-89l8 40h71q73 0 132 48t59 120q0 52 -34 86t-102 34q-88 0 -163 -57l-21 34q89 65 179 65t138 -42t48 -116q0 -70 -40 -118t-104 -69v-2q107 -32 107 -144q0 -99 -75.5 -166 t-180.5 -67q-57 0 -111 22t-87 66z" />
<glyph unicode="&#x418;" horiz-adv-x="749" d="M49 0l137 700h43l-106 -545l-21 -86h2q49 59 78 91l500 540h40l-137 -700h-43l106 545l21 86h-2q-46 -56 -75 -88l-503 -543h-40z" />
<glyph unicode="&#x419;" horiz-adv-x="749" d="M464 734q-42 0 -73.5 24.5t-31.5 64.5q0 14 6 38h41q-5 -17 -5 -31q0 -27 18.5 -41.5t46.5 -14.5q34 0 61 21.5t33 65.5h41q-19 -127 -137 -127zM49 0l137 700h43l-106 -545l-21 -86h2q49 59 78 91l500 540h40l-137 -700h-43l106 545l21 86h-2q-46 -56 -75 -88l-503 -543 h-40z" />
<glyph unicode="&#x41a;" horiz-adv-x="568" d="M49 0l137 700h43l-61 -312h126l265 312h52l-281 -331v-2l158 -367h-47l-148 348h-133l-68 -348h-43z" />
<glyph unicode="&#x41b;" horiz-adv-x="650" d="M486 0h-43l129 660h-277l-21 -106q-17 -85 -33 -150.5t-37 -131.5t-45.5 -112.5t-55 -84.5t-69 -59t-84.5 -24l8 42q96 13 160.5 144.5t112.5 374.5l29 147h363z" />
<glyph unicode="&#x41c;" horiz-adv-x="835" d="M22 0l194 700h39l118 -440l19 -79h2q26 44 49 79l290 440h44l-81 -700h-43l62 534l15 93h-2q-31 -59 -54 -93l-265 -399h-44l-110 399l-20 95h-2q-10 -61 -19 -95l-149 -534h-43z" />
<glyph unicode="&#x41d;" horiz-adv-x="743" d="M49 0l137 700h43l-64 -329h444l64 329h43l-137 -700h-43l65 331h-444l-65 -331h-43z" />
<glyph unicode="&#x41e;" horiz-adv-x="826" d="M64 288q0 112 61 210.5t159 156t203 57.5q132 0 215 -82t83 -210q0 -114 -61.5 -214.5t-159 -159t-202.5 -58.5q-132 0 -215 84t-83 216zM109 288q0 -114 70.5 -186.5t182.5 -72.5q93 0 180.5 52.5t142.5 143.5t55 194q0 111 -70.5 181.5t-182.5 70.5q-95 0 -182 -51 t-141.5 -140.5t-54.5 -191.5z" />
<glyph unicode="&#x41f;" horiz-adv-x="733" d="M49 0l137 700h520l-137 -700h-43l129 660h-434l-129 -660h-43z" />
<glyph unicode="&#x420;" horiz-adv-x="591" d="M49 0l137 700h219q70 0 112 -24q77 -43 77 -140q0 -79 -41 -139.5t-106 -87.5q-47 -19 -101 -19h-197l-57 -290h-43zM157 330h185q49 0 88 16q54 23 86.5 72.5t32.5 117.5q0 59 -38 91.5t-106 32.5h-184z" />
<glyph unicode="&#x421;" horiz-adv-x="719" d="M65 286q0 114 59.5 213t155.5 156t202 57q68 0 133.5 -21.5t106.5 -66.5l-30 -31q-78 78 -210 78q-95 0 -180.5 -51t-138.5 -140.5t-53 -193.5q0 -112 68.5 -184.5t181.5 -72.5q67 0 135 25.5t120 69.5l25 -33q-50 -45 -128.5 -74t-151.5 -29q-136 0 -215.5 83t-79.5 215 z" />
<glyph unicode="&#x422;" horiz-adv-x="596" d="M218 0l128 660h-260l7 40h565l-7 -40h-262l-128 -660h-43z" />
<glyph unicode="&#x423;" horiz-adv-x="578" d="M35 30l26 33q41 -35 77 -35q35 0 58.5 25t58.5 85l-170 562h45l129 -426l23 -92h2q29 52 52 92l243 426h50l-353 -606q-62 -106 -141 -106q-47 0 -100 42z" />
<glyph unicode="&#x424;" horiz-adv-x="811" d="M59 312q0 159 114.5 255t283.5 96l17 87h43l-17 -87q130 0 206.5 -62t76.5 -172q0 -158 -114.5 -254t-282.5 -96l-18 -91h-43l18 91q-131 0 -207.5 62t-76.5 171zM394 119q146 2 245 84.5t99 227.5q0 93 -65 142.5t-182 49.5zM104 311q0 -93 65 -142.5t182 -49.5l97 504 q-146 -2 -245 -84.5t-99 -227.5z" />
<glyph unicode="&#x425;" horiz-adv-x="550" d="M-35 0l297 373l-137 327h46l91 -221l32 -78h2q25 36 57 76l180 223h54l-270 -334l157 -366h-46l-112 263l-30 75h-2q-21 -31 -55 -73l-213 -265h-51z" />
<glyph unicode="&#x426;" horiz-adv-x="733" d="M50 0l136 700h43l-128 -660h417l128 660h43l-128 -660h77l-35 -180h-42l27 140h-538z" />
<glyph unicode="&#x427;" horiz-adv-x="596" d="M252 283q-82 0 -123.5 38t-41.5 105q0 28 5 50l44 224h43l-43 -217q-5 -24 -5 -51q0 -108 124 -108q59 0 116.5 20.5t93.5 43.5l61 312h43l-137 -700h-43l60 304l8 33h-2q-105 -54 -203 -54z" />
<glyph unicode="&#x428;" horiz-adv-x="982" d="M49 0l137 700h43l-129 -660h320l129 660h43l-129 -660h320l129 660h43l-137 -700h-769z" />
<glyph unicode="&#x429;" horiz-adv-x="1003" d="M50 0l136 700h43l-128 -660h320l128 660h43l-128 -660h320l128 660h43l-128 -660h86l-35 -180h-43l27 140h-812z" />
<glyph unicode="&#x42a;" horiz-adv-x="643" d="M133 0l129 660h-186l8 40h229l-59 -300h165q78 0 125.5 -40.5t47.5 -118.5q0 -106 -69.5 -173.5t-164.5 -67.5h-225zM184 40h173q80 0 135 54t55 145q0 57 -35 89t-94 32h-172z" />
<glyph unicode="&#x42b;" horiz-adv-x="784" d="M577 0l137 700h43l-137 -700h-43zM49 0l137 700h43l-59 -300h165q78 0 125.5 -40.5t47.5 -118.5q0 -106 -69.5 -173.5t-164.5 -67.5h-225zM100 40h173q80 0 135 54t55 145q0 57 -35 89t-94 32h-172z" />
<glyph unicode="&#x42c;" horiz-adv-x="559" d="M49 0l137 700h43l-59 -300h165q78 0 125.5 -40.5t47.5 -118.5q0 -106 -69.5 -173.5t-164.5 -67.5h-225zM100 40h173q80 0 135 54t55 145q0 57 -35 89t-94 32h-172z" />
<glyph unicode="&#x42d;" horiz-adv-x="715" d="M195 331l8 40h420q4 32 4 49q0 108 -65.5 179.5t-181.5 71.5q-132 0 -235 -79l-25 32q48 40 118 64t146 24q130 0 210 -81.5t80 -209.5q0 -113 -59.5 -213.5t-157.5 -160t-208 -59.5q-72 0 -140 27t-107 79l30 29q33 -42 93 -68t127 -26q123 0 227.5 87t136.5 215h-421z " />
<glyph unicode="&#x42e;" horiz-adv-x="1036" d="M49 0l137 700h43l-64 -329h137q31 143 149 242t255 99q128 0 208 -82t80 -210q0 -114 -59.5 -214.5t-154.5 -159t-197 -58.5q-128 0 -209 84t-81 216q0 15 2 43h-138l-65 -331h-43zM338 288q0 -114 67.5 -186t175.5 -72q91 0 176 52t138.5 143t53.5 194q0 111 -67.5 181 t-175.5 70q-92 0 -176.5 -51t-138 -140t-53.5 -191z" />
<glyph unicode="&#x42f;" horiz-adv-x="602" d="M-22 0l230 288l23 26l1 2q-53 15 -85 55t-32 99q0 66 34.5 124t97.5 85q46 21 133 21h195l-137 -700h-43l61 310h-176l-249 -310h-53zM284 350h180l60 310h-150q-68 0 -102 -14q-50 -21 -81 -69.5t-31 -106.5q0 -55 33 -87.5t91 -32.5z" />
<glyph unicode="&#x430;" horiz-adv-x="508" d="M7 113q0 57 32 97.5t86.5 59.5t108 27t113.5 8h39q7 38 7 64q0 102 -112 102q-82 0 -152 -48l-18 38q71 51 170 51q156 0 156 -137q0 -25 -6 -57l-62 -318h-42l13 65l12 46h-2q-23 -45 -74.5 -84t-118.5 -39q-64 0 -107 34t-43 91zM51 117q0 -38 28 -64t82 -26 q75 0 135 67t78 149l5 23h-32q-296 0 -296 -149z" />
<glyph unicode="&#x431;" horiz-adv-x="564" d="M50 201q0 76 23 158.5t70 143.5q56 73 171 125l210 95l12 -37l-213 -96q-98 -44 -144 -102.5t-71 -151.5h2q82 116 209 116q83 0 132 -48t49 -132q0 -111 -75 -197.5t-195 -86.5q-180 0 -180 213zM94 176q0 -71 39.5 -109.5t103.5 -38.5q91 0 154.5 72t63.5 165 q0 70 -39 108.5t-100 38.5q-86 0 -154 -69.5t-68 -166.5z" />
<glyph unicode="&#x432;" horiz-adv-x="487" d="M30 0l97 500h152q70 0 108.5 -26.5t38.5 -76.5q0 -47 -27.5 -83t-76.5 -52v-2q39 -8 62 -35t23 -67q0 -72 -59 -115t-138 -43h-180zM126 278h117q56 0 97 30.5t41 86.5q0 67 -106 67h-113zM79 39h124q63 0 111.5 29.5t48.5 90.5q0 80 -122 80h-123z" />
<glyph unicode="&#x433;" horiz-adv-x="398" d="M30 0l97 500h284l-7 -38h-242l-90 -462h-42z" />
<glyph unicode="&#x434;" d="M73 39h288l82 423h-198l-6 -33q-53 -266 -166 -390zM-68 -120l31 159h55q125 119 179 390l14 71h282l-90 -461h70l-31 -159h-42l24 120h-427l-23 -120h-42z" />
<glyph unicode="&#x435;" horiz-adv-x="547" d="M38 197q0 124 84 219.5t207 95.5q87 0 130.5 -48.5t43.5 -128.5q0 -33 -13 -78h-401q-6 -29 -6 -55q0 -76 46 -124.5t130 -48.5q89 0 167 63l16 -38q-33 -27 -83 -46.5t-100 -19.5q-98 0 -159.5 57t-61.5 152zM99 296h355q4 15 4 42q0 67 -35.5 101t-93.5 34 q-73 0 -136.5 -46.5t-93.5 -130.5z" />
<glyph unicode="&#x436;" horiz-adv-x="689" d="M-33 0l226 261v2l-113 237h45l107 -224h90l43 224h42l-43 -224h88l186 224h53l-207 -247v-2l127 -251h-49l-118 237h-88l-46 -237h-42l46 237h-89l-203 -237h-55z" />
<glyph unicode="&#x437;" horiz-adv-x="429" d="M-12 59l29 31q18 -22 53.5 -42t80.5 -20q61 0 107.5 35.5t46.5 96.5q0 80 -116 80h-65l7 39h59q59 0 101 29.5t42 86.5q0 38 -28 57t-75 19q-71 0 -127 -47l-23 34q69 54 157 54q63 0 102 -29t39 -83q0 -49 -26.5 -85.5t-74.5 -51.5v-2q73 -20 73 -99q0 -77 -57 -125.5 t-137 -48.5q-56 0 -100 21t-68 50z" />
<glyph unicode="&#x438;" horiz-adv-x="584" d="M30 0l97 500h42l-69 -356l-18 -78h2q43 52 72 82l342 352h39l-97 -500h-42l69 357l17 75h-2q-42 -49 -71 -79l-342 -353h-39z" />
<glyph unicode="&#x439;" horiz-adv-x="584" d="M354 573q-42 0 -73.5 24.5t-31.5 64.5q0 14 6 38h41q-5 -17 -5 -31q0 -27 18.5 -41.5t46.5 -14.5q34 0 61 21.5t33 65.5h41q-19 -127 -137 -127zM30 0l97 500h42l-69 -356l-18 -78h2q43 52 72 82l342 352h39l-97 -500h-42l69 357l17 75h-2q-42 -49 -71 -79l-342 -353h-39 z" />
<glyph unicode="&#x43a;" horiz-adv-x="469" d="M30 0l97 500h42l-43 -221h86l205 221h56l-229 -243v-2l152 -255h-53l-137 240h-87l-47 -240h-42z" />
<glyph unicode="&#x43b;" horiz-adv-x="511" d="M-38 -4l7 39q68 12 113 91.5t74 224.5l28 149h280l-97 -500h-42l90 461h-196l-21 -110q-35 -180 -92.5 -264t-143.5 -91z" />
<glyph unicode="&#x43c;" horiz-adv-x="706" d="M11 0l137 500h38l105 -331l20 -73h2q24 40 48 73l234 331h42l-57 -500h-42l39 347l16 86h-2q-15 -28 -47 -72l-216 -306h-43l-98 304q-6 18 -11 36.5t-6 28.5l-2 9h-2q-11 -62 -18 -86l-95 -347h-42z" />
<glyph unicode="&#x43d;" horiz-adv-x="585" d="M30 0l97 500h42l-43 -223h327l43 223h42l-97 -500h-42l46 238h-327l-46 -238h-42z" />
<glyph unicode="&#x43e;" horiz-adv-x="620" d="M38 205q0 125 93.5 216t212.5 91q98 0 159.5 -60t61.5 -154q0 -126 -94 -218t-212 -92q-98 0 -159.5 61t-61.5 156zM82 206q0 -78 49.5 -127.5t127.5 -49.5q100 0 181 79.5t81 188.5q0 76 -49.5 125t-127.5 49q-102 0 -182 -78.5t-80 -186.5z" />
<glyph unicode="&#x43f;" horiz-adv-x="575" d="M30 0l97 500h401l-97 -500h-42l90 461h-317l-90 -461h-42z" />
<glyph unicode="&#x440;" horiz-adv-x="578" d="M82 52l-49 -252h-42l136 700h42l-10 -55l-12 -45h2q28 48 77.5 80t113.5 32q87 0 135 -52.5t48 -144.5q0 -140 -81.5 -233.5t-188.5 -93.5q-61 0 -104.5 29t-58.5 84h-2q-1 -23 -6 -49zM114 187q0 -69 35 -113.5t102 -44.5q87 0 157.5 79t70.5 205q0 74 -37 116t-102 42 q-67 0 -120 -44.5t-79.5 -108.5t-26.5 -131z" />
<glyph unicode="&#x441;" horiz-adv-x="540" d="M38 197q0 136 94 225.5t211 89.5q51 0 99 -18t77 -53l-30 -31q-24 28 -63 44.5t-81 16.5q-100 0 -181.5 -77t-81.5 -193q0 -78 50.5 -125t127.5 -47q104 0 181 72l16 -38q-37 -34 -89 -54.5t-106 -20.5q-98 0 -161 57t-63 152z" />
<glyph unicode="&#x442;" horiz-adv-x="469" d="M155 0l90 461h-190l7 39h422l-7 -39h-190l-90 -461h-42z" />
<glyph unicode="&#x443;" horiz-adv-x="518" d="M-46 -149q21 -21 58 -21q61 0 116 89l53 85l-112 496h44l87 -406l9 -47h1q13 23 27 47l244 406h48l-379 -620q-56 -90 -138 -90q-46 0 -82 28z" />
<glyph unicode="&#x444;" horiz-adv-x="685" d="M40 207q0 125 91.5 211t232.5 93l37 189h42l-37 -189q102 -5 163 -62.5t61 -152.5q0 -123 -92.5 -212.5t-232.5 -94.5l-37 -189h-42l37 189q-101 5 -162 63.5t-61 154.5zM313 30q109 3 190.5 80t81.5 186q0 79 -48.5 123.5t-138.5 49.5zM85 208q0 -82 48 -127t138 -51 l85 439q-111 -4 -191 -78t-80 -183z" />
<glyph unicode="&#x445;" horiz-adv-x="460" d="M-35 0l233 265l-120 235h48l89 -179l13 -28h1q9 12 20 25l157 182h53l-209 -240l134 -260h-47l-103 203l-13 30h-2q-8 -13 -21 -27l-180 -206h-53z" />
<glyph unicode="&#x446;" horiz-adv-x="589" d="M30 0l97 500h42l-90 -461h311l90 461h42l-90 -461h70l-31 -159h-42l24 120h-423z" />
<glyph unicode="&#x447;" horiz-adv-x="482" d="M194 190q-72 0 -106 30.5t-34 81.5q0 18 5 43l30 155h42l-30 -155q-4 -24 -4 -36q0 -78 95 -78q90 0 158 47l43 222h42l-97 -500h-42l38 196l9 34h-2q-31 -16 -74.5 -28t-72.5 -12z" />
<glyph unicode="&#x448;" horiz-adv-x="780" d="M30 0l97 500h42l-90 -461h240l90 461h42l-90 -461h240l90 461h42l-97 -500h-606z" />
<glyph unicode="&#x449;" horiz-adv-x="800" d="M30 0l97 500h42l-90 -461h240l90 461h42l-90 -461h240l90 461h42l-90 -461h70l-31 -159h-42l24 120h-634z" />
<glyph unicode="&#x44a;" horiz-adv-x="511" d="M92 0l90 462h-141l7 38h183l-39 -200h109q150 0 150 -123q0 -77 -54 -127t-144 -50h-161zM141 39h113q67 0 109.5 36.5t42.5 97.5q0 88 -106 88h-115z" />
<glyph unicode="&#x44b;" horiz-adv-x="634" d="M448 0l97 500h42l-97 -500h-42zM30 0l97 500h42l-39 -200h109q150 0 150 -123q0 -77 -54 -127t-144 -50h-161zM79 39h113q67 0 109.5 36.5t42.5 97.5q0 88 -106 88h-115z" />
<glyph unicode="&#x44c;" horiz-adv-x="449" d="M30 0l97 500h42l-39 -200h109q150 0 150 -123q0 -77 -54 -127t-144 -50h-161zM79 39h113q67 0 109.5 36.5t42.5 97.5q0 88 -106 88h-115z" />
<glyph unicode="&#x44d;" horiz-adv-x="537" d="M153 230l7 39h275q2 20 2 32q0 79 -50 124.5t-126 45.5q-90 0 -162 -63l-25 32q35 33 86 52.5t104 19.5q95 0 156.5 -59t61.5 -157q0 -120 -89.5 -214t-219.5 -94q-52 0 -99.5 20t-76.5 58l24 34q24 -33 65 -52t90 -19q88 0 158 57.5t93 143.5h-274z" />
<glyph unicode="&#x44e;" horiz-adv-x="787" d="M30 0l97 500h42l-45 -231h108q23 104 106.5 173.5t182.5 69.5q94 0 152.5 -60t58.5 -154q0 -126 -91 -218t-205 -92q-94 0 -152.5 61t-58.5 156q0 16 1 25h-109l-45 -230h-42zM269 206q0 -78 46.5 -127.5t120.5 -49.5q97 0 174.5 79.5t77.5 188.5q0 76 -46.5 125 t-120.5 49q-98 0 -175 -78.5t-77 -186.5z" />
<glyph unicode="&#x44f;" horiz-adv-x="481" d="M-19 0l155 177l27 30v2q-37 7 -64 39t-27 82q0 78 51.5 124t138.5 46h172l-97 -500h-42l39 202h-122l-176 -202h-55zM117 331q0 -91 98 -91h127l43 222h-123q-66 0 -105.5 -33.5t-39.5 -97.5z" />
<glyph unicode="&#x450;" horiz-adv-x="547" d="M38 197q0 124 84 219.5t207 95.5q87 0 130.5 -48.5t43.5 -128.5q0 -33 -13 -78h-401q-6 -29 -6 -55q0 -76 46 -124.5t130 -48.5q89 0 167 63l16 -38q-33 -27 -83 -46.5t-100 -19.5q-98 0 -159.5 57t-61.5 152zM99 296h355q4 15 4 42q0 67 -35.5 101t-93.5 34 q-73 0 -136.5 -46.5t-93.5 -130.5zM346 590l-57 111h52l45 -111h-40z" />
<glyph unicode="&#x451;" horiz-adv-x="547" d="M38 197q0 124 84 219.5t207 95.5q87 0 130.5 -48.5t43.5 -128.5q0 -33 -13 -78h-401q-6 -29 -6 -55q0 -76 46 -124.5t130 -48.5q89 0 167 63l16 -38q-33 -27 -83 -46.5t-100 -19.5q-98 0 -159.5 57t-61.5 152zM99 296h355q4 15 4 42q0 67 -35.5 101t-93.5 34 q-73 0 -136.5 -46.5t-93.5 -130.5zM400 627l14 73h46l-14 -73h-46zM263 627l14 73h46l-14 -73h-46z" />
<glyph unicode="&#x452;" horiz-adv-x="586" d="M76 576l8 38h65l17 86h42l-17 -86h239l-8 -38h-238l-40 -209l-13 -46h2q25 50 88.5 95.5t145.5 45.5q69 0 104 -32.5t35 -93.5q0 -29 -8 -69l-56 -293q-9 -47 -28 -82.5t-39.5 -54t-46.5 -30t-44 -14.5t-37 -3l-25 3l8 38q9 -2 22 -2q19 0 37.5 5t41.5 18.5t41.5 44.5 t27.5 77l53 278q9 47 9 76q0 46 -26 69.5t-70 23.5q-91 0 -165.5 -70t-93.5 -167l-35 -184h-42l112 576h-66z" />
<glyph unicode="&#x453;" horiz-adv-x="398" d="M30 0l97 500h284l-7 -38h-242l-90 -462h-42zM245 589l89 111h60l-101 -111h-48z" />
<glyph unicode="&#x454;" horiz-adv-x="538" d="M37 201q0 121 91.5 216t219.5 95q111 0 168 -71l-28 -32q-50 62 -145 62q-86 0 -156.5 -56t-95.5 -140h277l-7 -39h-279q-2 -22 -2 -34q0 -83 51 -128t128 -45q103 0 179 71l20 -35q-38 -34 -92.5 -55.5t-109.5 -21.5q-96 0 -157.5 58.5t-61.5 154.5z" />
<glyph unicode="&#x455;" horiz-adv-x="430" d="M-1 61l27 30q24 -28 62.5 -45t80.5 -17q56 0 97 26.5t41 73.5q0 33 -24 56.5t-57.5 38t-67.5 30.5t-58 45.5t-24 72.5q0 66 54 103t128 37q96 0 143 -56l-28 -30q-42 45 -116 45q-54 0 -95.5 -25t-41.5 -73q0 -34 24 -57t58 -37.5t67.5 -30.5t57.5 -44.5t24 -70.5 q0 -64 -52.5 -104.5t-130.5 -40.5q-110 0 -169 73z" />
<glyph unicode="&#x456;" horiz-adv-x="216" d="M148 627l15 73h50l-15 -73h-50zM30 0l98 500h42l-98 -500h-42z" />
<glyph unicode="&#x457;" horiz-adv-x="216" d="M30 0l97 500h42l-97 -500h-42zM218 627l14 73h46l-14 -73h-46zM81 627l14 73h46l-14 -73h-46z" />
<glyph unicode="&#x458;" horiz-adv-x="216" d="M147 627l14 73h50l-14 -73h-50zM26 -21l101 521h42l-101 -520q-11 -58 -34.5 -98t-52.5 -57.5t-51.5 -23.5t-45.5 -6q-25 0 -35 2l8 39q6 -2 22 -2q18 0 36.5 5t41.5 18.5t41.5 45t27.5 76.5z" />
<glyph unicode="&#x459;" horiz-adv-x="704" d="M-25 -4l7 39q133 24 187 316l28 149h226l-39 -200h110q149 0 149 -124q0 -80 -56.5 -128t-142.5 -48h-160l90 461h-142l-21 -110q-35 -180 -92.5 -264t-143.5 -91zM333 39h113q65 0 108.5 34.5t43.5 98.5q0 89 -106 89h-115z" />
<glyph unicode="&#x45a;" horiz-adv-x="777" d="M30 0l97 500h42l-40 -206h287l40 206h42l-40 -206h104q40 0 72.5 -9.5t57.5 -37t25 -70.5q0 -79 -54 -128t-143 -49h-161l49 255h-287l-49 -255h-42zM408 39h113q67 0 109 35t42 102q0 79 -113 79h-109z" />
<glyph unicode="&#x45b;" horiz-adv-x="586" d="M76 576l8 38h65l17 86h42l-17 -86h239l-8 -38h-238l-40 -209l-13 -46h2q25 50 88.5 95.5t145.5 45.5q69 0 104 -32.5t35 -93.5q0 -29 -8 -69l-51 -267h-42l48 252q9 47 9 76q0 46 -26 69.5t-70 23.5q-91 0 -165.5 -70t-93.5 -167l-35 -184h-42l112 576h-66z" />
<glyph unicode="&#x45c;" horiz-adv-x="469" d="M30 0l97 500h42l-43 -221h86l205 221h56l-229 -243v-2l152 -255h-53l-137 240h-87l-47 -240h-42zM267 589l89 111h60l-101 -111h-48z" />
<glyph unicode="&#x45d;" horiz-adv-x="584" d="M358 590l-57 111h52l45 -111h-40zM30 0l97 500h42l-69 -356l-18 -78h2q43 52 72 82l342 352h39l-97 -500h-42l69 357l17 75h-2q-42 -49 -71 -79l-342 -353h-39z" />
<glyph unicode="&#x45e;" horiz-adv-x="518" d="M-46 -149q21 -21 58 -21q61 0 116 89l53 85l-112 496h44l87 -406l9 -47h1q13 23 27 47l244 406h48l-379 -620q-56 -90 -138 -90q-46 0 -82 28zM320 573q-42 0 -73.5 24.5t-31.5 64.5q0 14 6 38h41q-5 -17 -5 -31q0 -27 18.5 -41.5t46.5 -14.5q34 0 61 21.5t33 65.5h41 q-19 -127 -137 -127z" />
<glyph unicode="&#x45f;" horiz-adv-x="550" d="M30 0l97 500h42l-90 -461h292l90 461h42l-97 -500h-167l-24 -120h-42l24 120h-167z" />
<glyph unicode="&#x462;" horiz-adv-x="663" d="M145 0l105 540h-190l8 40h190l24 120h43l-24 -120h203l-8 -40h-203l-27 -140h168q79 0 129 -43t50 -118q0 -95 -71.5 -167t-174.5 -72h-222zM196 40h170q84 0 143 58t59 142q0 56 -39 88t-101 32h-170z" />
<glyph unicode="&#x463;" horiz-adv-x="480" d="M58 0l90 462h-121l8 38h121l39 200h42l-39 -200h170l-8 -38h-170l-31 -162h110q29 0 53 -5.5t46.5 -18.5t35.5 -38.5t13 -61.5q0 -76 -53.5 -126t-143.5 -50h-162zM108 39h113q67 0 109 37t42 98q0 43 -25 65t-81 22h-115z" />
<glyph unicode="&#x472;" horiz-adv-x="826" d="M64 288q0 112 61 210.5t159 156t203 57.5q132 0 215 -82t83 -210q0 -114 -61.5 -214.5t-159 -159t-202.5 -58.5q-132 0 -215 84t-83 216zM109 288q0 -114 70.5 -186.5t182.5 -72.5q122 0 229.5 88t138.5 218h-618q-3 -24 -3 -47zM487 671q-123 0 -229.5 -85t-137.5 -211 h617q3 21 3 44q0 111 -70.5 181.5t-182.5 70.5z" />
<glyph unicode="&#x473;" horiz-adv-x="620" d="M38 205q0 125 93.5 216t212.5 91q98 0 159.5 -60t61.5 -154q0 -126 -94 -218t-212 -92q-98 0 -159.5 61t-61.5 156zM82 206q0 -78 49.5 -127.5t127.5 -49.5q83 0 156.5 58.5t96.5 145.5h-429q-1 -9 -1 -27zM344 471q-85 0 -158 -57t-96 -142h429q2 16 2 25 q0 76 -49.5 125t-127.5 49z" />
<glyph unicode="&#x474;" horiz-adv-x="679" d="M227 0l-125 700h44l100 -566l10 -84h2q26 51 44 84l254 471q36 66 63.5 80.5t101.5 14.5h24l-8 -41h-21h-17.5h-16t-13 -0.5t-13 -2.5t-11 -5t-11.5 -8t-10.5 -12t-12 -16.5t-12.5 -21.5l-325 -593h-47z" />
<glyph unicode="&#x475;" horiz-adv-x="534" d="M168 0l-100 500h42l78 -392l6 -54h2q15 30 28 54l166 305q28 51 56.5 69t86.5 18h21l-8 -41h-21q-37 0 -56.5 -11.5t-40.5 -49.5l-220 -398h-40z" />
<glyph unicode="&#x48a;" horiz-adv-x="772" d="M49 0l137 700h43l-106 -545l-21 -86h2q49 59 78 91l500 540h40l-129 -660h90l-6 -33l-90 -147h-44l78 140h-79l106 545l21 86h-2q-46 -56 -75 -88l-503 -543h-40zM459 734q-42 0 -73.5 24.5t-31.5 64.5q0 14 6 38h41q-5 -17 -5 -31q0 -27 18.5 -41.5t46.5 -14.5 q34 0 61 21.5t33 65.5h41q-19 -127 -137 -127z" />
<glyph unicode="&#x48b;" horiz-adv-x="600" d="M30 0l97 500h42l-69 -356l-18 -78h2q43 52 72 82l342 352h39l-90 -462h71l-6 -33l-74 -125h-41l65 120h-64l69 357l17 75h-2q-42 -49 -71 -79l-342 -353h-39zM349 573q-42 0 -73.5 24.5t-31.5 64.5q0 14 6 38h41q-5 -17 -5 -31q0 -27 18.5 -41.5t46.5 -14.5q34 0 61 21.5 t33 65.5h41q-19 -127 -137 -127z" />
<glyph unicode="&#x48c;" horiz-adv-x="643" d="M117 0l114 586h-164l7 40h164l24 124h43l-24 -124h170l-7 -40h-170l-35 -176h178q79 0 128 -44.5t49 -121.5q0 -97 -71 -170.5t-174 -73.5h-232zM167 40h180q83 0 142.5 59.5t59.5 141.5q0 63 -37.5 96t-99.5 33h-181z" />
<glyph unicode="&#x48d;" horiz-adv-x="493" d="M71 0l90 462h-121l8 38h121l39 200h42l-39 -200h170l-8 -38h-170l-31 -162h110q29 0 53 -5.5t46.5 -18.5t35.5 -38.5t13 -61.5q0 -76 -53.5 -126t-143.5 -50h-162zM121 39h113q67 0 109 37t42 98q0 43 -25 65t-81 22h-115z" />
<glyph unicode="&#x48e;" horiz-adv-x="614" d="M49 0l137 700h219q70 0 112 -24q77 -43 77 -140q0 -128 -100 -201l58 -82l-32 -23l-59 85q-3 -2 -8 -3.5t-6 -2.5q-47 -19 -101 -19h-197l-57 -290h-43zM368 449l32 23l71 -103q78 58 78 167q0 59 -38 91.5t-106 32.5h-184l-64 -330h185q49 0 88 16l7 3z" />
<glyph unicode="&#x48f;" horiz-adv-x="593" d="M82 52l-49 -252h-42l136 700h42l-10 -55l-12 -45h2q28 48 77.5 80t113.5 32q87 0 135 -52.5t48 -144.5q0 -161 -107 -260l53 -65l-30 -26l-54 66q-62 -42 -132 -42q-61 0 -104.5 29t-58.5 84h-2q-1 -23 -6 -49zM294 145l30 26l66 -82q89 84 89 224q0 74 -37 116t-102 42 q-67 0 -120 -44.5t-79.5 -108.5t-26.5 -131q0 -69 35 -113.5t102 -44.5q56 0 108 35z" />
<glyph unicode="&#x490;" horiz-adv-x="480" d="M50 0l136 700h312l15 80h42l-23 -120h-311l-128 -660h-43z" />
<glyph unicode="&#x491;" horiz-adv-x="388" d="M30 0l97 500h234l14 70h40l-21 -108h-232l-90 -462h-42z" />
<glyph unicode="&#x492;" horiz-adv-x="493" d="M57 0l64 328h-65l8 40h65l65 332h353l-8 -40h-310l-57 -292h163l-8 -40h-163l-64 -328h-43z" />
<glyph unicode="&#x493;" horiz-adv-x="403" d="M31 0l45 231h-64l7 38h64l45 231h284l-7 -38h-242l-38 -193h135l-7 -38h-135l-45 -231h-42z" />
<glyph unicode="&#x494;" horiz-adv-x="582" d="M50 0l136 700h353l-8 -40h-310l-55 -282q78 39 166 39q87 0 132.5 -44.5t45.5 -148.5q0 -64 -17 -129.5t-51 -126.5t-94 -99.5t-137 -38.5l8 41q64 1 113.5 37t77.5 91t42 113t14 113q0 72 -31 112t-112 40q-79 0 -165 -43l-65 -334h-43z" />
<glyph unicode="&#x495;" horiz-adv-x="472" d="M30 0l97 500h283l-8 -39h-241l-41 -213q66 32 130 32q144 0 144 -157q0 -94 -52 -187t-141 -141l-21 34q79 42 125 128.5t46 167.5q0 114 -109 114q-66 0 -131 -37l-39 -202h-42z" />
<glyph unicode="&#x496;" horiz-adv-x="872" d="M-33 0l300 368v2l-150 330h49l139 -312h107l61 312h43l-61 -312h100l261 312h56l-280 -330v-2l140 -328h81l-35 -180h-42l27 140h-63l-146 348h-107l-68 -348h-43l68 348h-101l-282 -348h-54z" />
<glyph unicode="&#x497;" horiz-adv-x="729" d="M-33 0l226 261v2l-113 237h45l107 -224h90l43 224h42l-43 -224h88l186 224h53l-207 -247v-2l107 -212h72l-31 -159h-42l24 120h-52l-118 237h-88l-46 -237h-42l46 237h-89l-203 -237h-55z" />
<glyph unicode="&#x498;" horiz-adv-x="525" d="M-5 76l29 30q54 -76 161 -76q91 0 155 53.5t64 133.5q0 62 -40.5 93.5t-103.5 31.5h-89l8 40h71q73 0 132 48t59 120q0 52 -34 86t-102 34q-88 0 -163 -57l-21 34q89 65 179 65t138 -42t48 -116q0 -70 -40 -118t-104 -69v-2q107 -32 107 -144q0 -93 -66.5 -158 t-162.5 -74l-25 -129h-42l24 129q-54 2 -102.5 24t-79.5 63z" />
<glyph unicode="&#x499;" horiz-adv-x="431" d="M-12 59l29 31q18 -22 53.5 -42t80.5 -20q61 0 107.5 35.5t46.5 96.5q0 80 -116 80h-65l7 39h59q59 0 101 29.5t42 86.5q0 38 -28 57t-75 19q-71 0 -127 -47l-23 34q69 54 157 54q63 0 102 -29t39 -83q0 -49 -26.5 -85.5t-74.5 -51.5v-2q73 -20 73 -99q0 -74 -53 -122 t-130 -52l-20 -108h-42l21 110q-90 11 -138 69z" />
<glyph unicode="&#x49a;" horiz-adv-x="611" d="M49 0l137 700h43l-61 -312h126l265 312h52l-281 -331v-2l141 -327h81l-35 -180h-42l27 140h-61l-148 348h-133l-68 -348h-43z" />
<glyph unicode="&#x49b;" horiz-adv-x="500" d="M30 0l97 500h42l-43 -221h86l205 221h56l-229 -243v-2l129 -216h61l-31 -159h-42l24 120h-42l-137 240h-87l-47 -240h-42z" />
<glyph unicode="&#x49c;" horiz-adv-x="626" d="M49 0l137 700h43l-61 -312h86l25 130h41l-25 -130h61l256 312h57l-281 -338v-2l158 -360h-47l-151 348h-61l-25 -130h-41l25 130h-86l-68 -348h-43z" />
<glyph unicode="&#x49d;" horiz-adv-x="529" d="M30 0l97 500h42l-43 -221h70l21 109h39l-21 -109h38l203 221h57l-229 -244v-2l152 -254h-51l-139 240h-38l-22 -111h-39l22 111h-70l-47 -240h-42z" />
<glyph unicode="&#x49e;" horiz-adv-x="573" d="M53 533l7 40h106l25 127h43l-25 -127h112l-7 -40h-113l-28 -145h126l265 312h52l-281 -331v-2l158 -367h-47l-148 348h-133l-68 -348h-43l104 533h-105z" />
<glyph unicode="&#x49f;" horiz-adv-x="470" d="M70 530l8 38h63l26 132h42l-26 -132h136l-8 -38h-136l-44 -227h85l202 197h57l-222 -216v-2l142 -282h-48l-131 264h-92l-52 -264h-42l103 530h-63z" />
<glyph unicode="&#x4a0;" horiz-adv-x="709" d="M189 0l129 660h-231l8 40h274l-61 -312h130l257 312h56l-281 -336v-2l159 -362h-48l-151 348h-130l-68 -348h-43z" />
<glyph unicode="&#x4a1;" horiz-adv-x="531" d="M92 0l90 462h-141l7 38h183l-43 -221h86l205 221h56l-228 -243v-2l151 -255h-52l-138 240h-87l-47 -240h-42z" />
<glyph unicode="&#x4a2;" horiz-adv-x="764" d="M50 0l136 700h43l-64 -329h444l64 329h43l-128 -660h86l-35 -180h-42l27 140h-87l64 331h-444l-64 -331h-43z" />
<glyph unicode="&#x4a3;" horiz-adv-x="601" d="M30 0l97 500h42l-44 -223h327l44 223h42l-90 -461h75l-31 -159h-42l24 120h-75l46 238h-327l-46 -238h-42z" />
<glyph unicode="&#x4a4;" horiz-adv-x="916" d="M49 0l137 700h43l-64 -329h394l64 329h353l-8 -40h-310l-129 -660h-43l65 331h-394l-65 -331h-43z" />
<glyph unicode="&#x4a5;" horiz-adv-x="707" d="M30 0l97 500h42l-43 -223h287l43 223h264l-7 -38h-222l-90 -462h-42l46 238h-287l-46 -238h-42z" />
<glyph unicode="&#x4a6;" horiz-adv-x="989" d="M50 0l136 700h457l-61 -312q78 39 164 39t132 -46t46 -151q0 -65 -17 -131.5t-51 -128.5t-94 -101t-137 -39l8 41q64 1 113.5 37.5t77.5 92.5t42 115t14 115q0 74 -31 115t-112 41q-76 0 -164 -44l-66 -343h-43l128 660h-371l-128 -660h-43z" />
<glyph unicode="&#x4a7;" horiz-adv-x="779" d="M30 0l97 500h341l-45 -233q66 33 134 33q148 0 148 -164q0 -98 -52 -192t-143 -149l-21 33q76 46 124.5 132t48.5 175q0 124 -115 124q-67 0 -134 -39l-42 -220h-42l89 461h-257l-89 -461h-42z" />
<glyph unicode="&#x4a8;" horiz-adv-x="913" d="M67 285q0 76 22.5 142.5t57 112.5t80 82.5t88.5 56.5t85 30l13 -38q-51 -12 -101 -41.5t-96 -75.5t-75 -116.5t-29 -152.5q0 -110 68.5 -183t187.5 -73q65 0 137 25q-68 41 -104.5 111.5t-36.5 160.5q0 80 28.5 151.5t74 119.5t102 75.5t112.5 27.5q88 0 142.5 -58 t54.5 -161q0 -132 -77.5 -245.5t-197.5 -180.5q48 -15 111 -15h74l-7 -40h-67q-92 0 -162 30q-95 -42 -184 -42q-138 0 -219.5 83.5t-81.5 213.5zM409 326q0 -83 37 -149.5t108 -102.5q120 58 199.5 167.5t79.5 238.5q0 86 -44.5 132.5t-107.5 46.5q-43 0 -89 -21 t-87.5 -60.5t-68.5 -105.5t-27 -146z" />
<glyph unicode="&#x4a9;" horiz-adv-x="772" d="M44 237q0 103 66.5 176.5t156.5 97.5l12 -40q-76 -21 -133.5 -81.5t-57.5 -154.5q0 -90 59 -148t150 -58q69 0 141 25q-129 81 -129 238q0 91 64 155.5t158 64.5q82 0 128.5 -53.5t46.5 -130.5q0 -85 -47.5 -155t-126.5 -118q50 -15 107 -15h45l-8 -40h-44q-81 0 -148 30 q-95 -42 -191 -42q-114 0 -181.5 71.5t-67.5 177.5zM353 292q0 -151 131 -218q80 40 129 106t49 148q0 57 -34 100t-103 43q-66 0 -119 -49t-53 -130z" />
<glyph unicode="&#x4aa;" horiz-adv-x="720" d="M65 286q0 114 59.5 213t155.5 156t202 57q68 0 133.5 -21.5t106.5 -66.5l-30 -31q-78 78 -210 78q-95 0 -180.5 -51t-138.5 -140.5t-53 -193.5q0 -112 68.5 -184.5t181.5 -72.5q67 0 135 25.5t120 69.5l25 -33q-48 -43 -122 -71.5t-146 -31.5l-24 -128h-42l24 129 q-123 10 -194 91.5t-71 205.5z" />
<glyph unicode="&#x4ab;" horiz-adv-x="541" d="M39 197q0 136 94 225.5t211 89.5q51 0 99 -18t77 -53l-30 -31q-24 28 -63 44.5t-81 16.5q-100 0 -181.5 -77t-81.5 -193q0 -78 50.5 -125t127.5 -47q104 0 181 72l16 -38q-37 -34 -89 -54.5t-106 -20.5h-1l-20 -108h-42l21 111q-82 11 -132 66t-50 140z" />
<glyph unicode="&#x4ac;" horiz-adv-x="594" d="M217 0l128 660h-261l8 40h565l-8 -40h-261l-120 -620h86l-35 -180h-42l27 140h-87z" />
<glyph unicode="&#x4ad;" horiz-adv-x="471" d="M156 0l89 461h-190l8 39h422l-8 -39h-190l-82 -422h75l-31 -159h-42l24 120h-75z" />
<glyph unicode="&#x4ae;" horiz-adv-x="551" d="M196 0l60 304l-160 396h46l111 -276l29 -79h2q31 43 58 78l219 277h53l-315 -397l-60 -303h-43z" />
<glyph unicode="&#x4af;" horiz-adv-x="493" d="M177 39l-109 461h42l84 -359l9 -51h2q13 26 29 51l224 359h47l-288 -461l-47 -239h-40z" />
<glyph unicode="&#x4b0;" horiz-adv-x="551" d="M117 265l8 39h132l-161 396h46l112 -276l28 -79h2q30 45 58 79l220 276h52l-314 -396h133l-8 -39h-133l-52 -265h-43l52 265h-132z" />
<glyph unicode="&#x4b1;" horiz-adv-x="492" d="M55 0l8 39h114l-107 461h42l83 -359l9 -51h2q13 26 29 51l221 359h47l-286 -461h114l-8 -39h-114l-39 -200h-40l39 200h-114z" />
<glyph unicode="&#x4b2;" horiz-adv-x="593" d="M-35 0l297 373l-137 327h46l91 -221l32 -78h2q25 36 57 76l180 223h54l-270 -334l140 -326h78l-35 -180h-42l27 140h-57l-112 263l-30 75h-2q-21 -31 -55 -73l-213 -265h-51z" />
<glyph unicode="&#x4b3;" horiz-adv-x="491" d="M-35 0l233 265l-120 235h48l89 -179l13 -28h1q9 12 20 25l157 182h53l-209 -240l114 -221h60l-31 -159h-42l24 120h-38l-103 203l-13 30h-2q-8 -13 -21 -27l-180 -206h-53z" />
<glyph unicode="&#x4b4;" horiz-adv-x="877" d="M190 0l128 660h-231l8 40h505l-8 -40h-231l-120 -620h417l128 660h43l-128 -660h86l-35 -180h-42l27 140h-547z" />
<glyph unicode="&#x4b5;" horiz-adv-x="711" d="M152 0l89 461h-186l8 39h414l-8 -39h-186l-82 -422h311l90 461h42l-90 -461h70l-31 -159h-42l24 120h-423z" />
<glyph unicode="&#x4b6;" horiz-adv-x="617" d="M252 283q-82 0 -123.5 38t-41.5 105q0 28 5 50l44 224h43l-43 -217q-5 -24 -5 -51q0 -108 124 -108q59 0 116.5 20.5t93.5 43.5l61 312h43l-129 -660h87l-35 -180h-42l27 140h-88l60 304l8 33h-2q-105 -54 -203 -54z" />
<glyph unicode="&#x4b7;" horiz-adv-x="499" d="M194 190q-72 0 -106 30.5t-34 81.5q0 18 5 43l30 155h42l-30 -155q-4 -24 -4 -36q0 -78 95 -78q90 0 158 47l43 222h42l-90 -461h84l-31 -159h-42l24 120h-84l38 196l9 34h-2q-31 -16 -74.5 -28t-72.5 -12z" />
<glyph unicode="&#x4b8;" horiz-adv-x="595" d="M218 170l22 113q-77 2 -115.5 39.5t-38.5 103.5q0 28 5 50l44 224h43l-43 -217q-5 -24 -5 -51q0 -107 118 -108l29 146h41l-29 -144q96 10 175 62l61 312h43l-137 -700h-43l60 304l8 33h-2q-87 -45 -173 -53l-22 -114h-41z" />
<glyph unicode="&#x4b9;" horiz-adv-x="482" d="M161 109l16 81q-123 7 -123 112q0 18 5 43l30 155h42l-30 -155q-4 -24 -4 -36q0 -75 88 -78l25 127h39l-25 -125q72 8 126 45l43 222h42l-97 -500h-42l38 196l9 34h-2q-53 -30 -125 -39l-16 -82h-39z" />
<glyph unicode="&#x4ba;" horiz-adv-x="601" d="M49 0l137 700h43l-50 -258l-10 -35h2q100 53 207 53q80 0 121 -36.5t41 -98.5q0 -27 -6 -58l-52 -267h-43l51 260q7 33 7 54q0 105 -122 105q-59 0 -118 -19.5t-95 -41.5l-70 -358h-43z" />
<glyph unicode="&#x4bb;" horiz-adv-x="585" d="M30 0l136 700h42l-54 -283l-13 -46h2q25 50 88.5 95.5t145.5 45.5q69 0 104 -32.5t35 -93.5q0 -29 -8 -69l-61 -317h-42l58 302q9 47 9 76q0 46 -26 69.5t-70 23.5q-91 0 -165.5 -70t-93.5 -167l-45 -234h-42z" />
<glyph unicode="&#x4bc;" horiz-adv-x="840" d="M84 477q0 51 42 150h46q-44 -97 -44 -149q0 -71 71 -71h9q39 130 138.5 217.5t232.5 87.5q107 0 168 -60t61 -172q0 -40 -14 -113h-550q-8 -48 -9.5 -95.5t14 -91.5t41 -77.5t72.5 -53.5t108 -20q64 0 129 22.5t115 67.5l24 -36q-44 -41 -114.5 -68t-150.5 -27 q-134 0 -209 77.5t-75 209.5q0 45 9 92h-8q-49 0 -77.5 29.5t-28.5 80.5zM255 407h501q7 40 7 71q0 84 -45.5 138.5t-139.5 54.5q-110 0 -198.5 -74t-124.5 -190z" />
<glyph unicode="&#x4bd;" horiz-adv-x="648" d="M55 342q0 52 33 113h44q-36 -57 -36 -108q0 -50 51 -50h8q30 93 104 154t171 61q87 0 130.5 -48.5t43.5 -128.5q0 -33 -13 -78h-401q-6 -28 -6 -55q0 -76 46 -124.5t130 -48.5q89 0 167 63l16 -38q-33 -27 -83 -46.5t-100 -19.5q-98 0 -159.5 57t-61.5 152q0 27 5 60h-2 q-87 0 -87 85zM200 296h355q4 15 4 42q0 67 -35.5 101t-93.5 34q-73 0 -136.5 -46.5t-93.5 -130.5z" />
<glyph unicode="&#x4be;" horiz-adv-x="840" d="M84 477q0 51 42 150h46q-44 -97 -44 -149q0 -71 71 -71h9q39 130 138.5 217.5t232.5 87.5q107 0 168 -60t61 -172q0 -40 -14 -113h-550q-8 -48 -9.5 -95.5t14 -91.5t41 -77.5t72.5 -53.5t108 -20q64 0 129 22.5t115 67.5l24 -36q-44 -41 -114.5 -68t-150.5 -27h-7 l-24 -128h-42l25 131q-112 13 -174 89t-62 195q0 45 9 92h-8q-49 0 -77.5 29.5t-28.5 80.5zM255 407h501q7 40 7 71q0 84 -45.5 138.5t-139.5 54.5q-110 0 -198.5 -74t-124.5 -190z" />
<glyph unicode="&#x4bf;" horiz-adv-x="648" d="M55 342q0 52 33 113h44q-36 -57 -36 -108q0 -50 51 -50h8q30 93 104 154t171 61q87 0 130.5 -48.5t43.5 -128.5q0 -33 -13 -78h-401q-6 -28 -6 -55q0 -76 46 -124.5t130 -48.5q89 0 167 63l16 -38q-33 -27 -83 -46.5t-100 -19.5h-12l-20 -108h-42l21 113 q-77 15 -122.5 68.5t-45.5 135.5q0 27 5 60h-2q-87 0 -87 85zM200 296h355q4 15 4 42q0 67 -35.5 101t-93.5 34q-73 0 -136.5 -46.5t-93.5 -130.5z" />
<glyph unicode="&#x4c0;" horiz-adv-x="256" d="M49 0l137 700h43l-137 -700h-43z" />
<glyph unicode="&#x4c1;" horiz-adv-x="829" d="M-33 0l300 368v2l-150 330h49l139 -312h107l61 312h43l-61 -312h100l261 312h56l-280 -330v-2l157 -368h-49l-146 348h-107l-68 -348h-43l68 348h-101l-282 -348h-54zM507 734q-42 0 -73.5 24.5t-31.5 64.5q0 14 6 38h41q-5 -17 -5 -31q0 -27 18.5 -41.5t46.5 -14.5 q34 0 61 21.5t33 65.5h41q-19 -127 -137 -127z" />
<glyph unicode="&#x4c2;" horiz-adv-x="689" d="M-33 0l226 261v2l-113 237h45l107 -224h90l43 224h42l-43 -224h88l186 224h53l-207 -247v-2l127 -251h-49l-118 237h-88l-46 -237h-42l46 237h-89l-203 -237h-55zM405 573q-42 0 -73.5 24.5t-31.5 64.5q0 14 6 38h41q-5 -17 -5 -31q0 -27 18.5 -41.5t46.5 -14.5 q34 0 61 21.5t33 65.5h41q-19 -127 -137 -127z" />
<glyph unicode="&#x4c3;" horiz-adv-x="596" d="M50 0l136 700h43l-61 -312q92 0 125 -2l263 314h55l-270 -323q79 -18 124 -75t45 -144q0 -81 -35 -155.5t-102.5 -123.5t-150.5 -49l8 41q100 0 168.5 87.5t68.5 198.5q0 95 -59 143t-162 48h-85l-68 -348h-43z" />
<glyph unicode="&#x4c4;" horiz-adv-x="481" d="M30 0l97 500h42l-43 -223q58 0 82 -2l209 225h58l-220 -232q134 -33 134 -176q0 -91 -51 -171t-139 -126l-20 37q74 34 120.5 107t46.5 152q0 147 -178 147h-50l-46 -238h-42z" />
<glyph unicode="&#x4c5;" horiz-adv-x="672" d="M443 0l129 660h-277l-21 -106q-17 -85 -33 -150.5t-37 -131.5t-45.5 -112.5t-55 -84.5t-69 -59t-84.5 -24l8 42q96 13 160.5 144.5t112.5 374.5l29 147h363l-129 -660h89l-6 -33l-90 -147h-44l78 140h-78z" />
<glyph unicode="&#x4c6;" horiz-adv-x="531" d="M-39 -4l7 39q68 12 113 91.5t74 224.5l28 149h280l-90 -462h70l-6 -33l-74 -125h-41l65 120h-63l90 461h-196l-21 -110q-35 -180 -92.5 -264t-143.5 -91z" />
<glyph unicode="&#x4c7;" horiz-adv-x="744" d="M50 0l136 700h43l-64 -329h444l64 329h43l-133 -686q-36 -184 -198 -184l8 39q18 0 37 5.5t41.5 19.5t41 46t27.5 77l61 314h-444l-64 -331h-43z" />
<glyph unicode="&#x4c8;" horiz-adv-x="586" d="M30 0l97 500h42l-43 -223h327l43 223h43l-91 -467q-10 -52 -29 -93t-46 -68.5t-50.5 -43.5t-55.5 -33l-19 36q130 60 157 202l40 205h-327l-46 -238h-42z" />
<glyph unicode="&#x4c9;" horiz-adv-x="762" d="M49 0l137 700h43l-64 -329h444l64 329h43l-129 -660h96l-6 -33l-90 -147h-44l78 140h-85l65 331h-444l-65 -331h-43z" />
<glyph unicode="&#x4ca;" horiz-adv-x="600" d="M30 0l97 500h42l-43 -223h327l43 223h42l-90 -462h77l-6 -33l-74 -125h-41l65 120h-70l46 238h-327l-46 -238h-42z" />
<glyph unicode="&#x4cb;" horiz-adv-x="596" d="M252 283q-82 0 -123.5 38t-41.5 105q0 28 5 50l44 224h43l-43 -217q-5 -24 -5 -51q0 -108 124 -108q59 0 116.5 20.5t93.5 43.5l61 312h43l-137 -700h-87l-27 -140h-42l35 180h86l52 264l8 33h-2q-105 -54 -203 -54z" />
<glyph unicode="&#x4cc;" horiz-adv-x="482" d="M206 -120l31 159h66l31 157l9 34h-2q-31 -16 -74.5 -28t-72.5 -12q-72 0 -106 30.5t-34 81.5q0 18 5 43l30 155h42l-30 -155q0 -6 -2 -18t-2 -18q0 -78 95 -78q90 0 158 47l43 222h42l-97 -500h-66l-24 -120h-42z" />
<glyph unicode="&#x4cd;" horiz-adv-x="848" d="M22 0l194 700h39l118 -440l19 -79h2q26 44 49 79l290 440h44l-77 -660h93l-6 -33l-90 -147h-44l78 140h-78l62 534l15 93h-2q-31 -59 -54 -93l-265 -399h-44l-110 399l-20 95h-2q-10 -61 -19 -95l-149 -534h-43z" />
<glyph unicode="&#x4ce;" horiz-adv-x="724" d="M11 0l137 500h38l105 -331l20 -73h2q24 40 48 73l234 331h42l-53 -462h79l-6 -33l-74 -125h-41l65 120h-69l39 347l16 86h-2q-15 -28 -47 -72l-216 -306h-43l-98 304q-6 18 -11 36.5t-6 28.5l-2 9h-2q-11 -62 -18 -86l-95 -347h-42z" />
<glyph unicode="&#x4cf;" horiz-adv-x="217" d="M30 0l137 700h43l-137 -700h-43z" />
<glyph unicode="&#x4d0;" horiz-adv-x="625" d="M-25 0l397 700h45l127 -700h-44l-43 242h-297l-137 -242h-48zM182 282h267l-50 284l-12 84h-2q-25 -54 -42 -84zM407 734q-42 0 -73.5 24.5t-31.5 64.5q0 14 6 38h41q-5 -17 -5 -31q0 -27 18.5 -41.5t46.5 -14.5q34 0 61 21.5t33 65.5h41q-19 -127 -137 -127z" />
<glyph unicode="&#x4d1;" horiz-adv-x="509" d="M8 113q0 57 32 97.5t86.5 59.5t108 27t113.5 8h39q7 38 7 64q0 102 -112 102q-82 0 -152 -48l-18 38q71 51 170 51q156 0 156 -137q0 -25 -6 -57l-62 -318h-42l13 65l12 46h-2q-23 -45 -74.5 -84t-118.5 -39q-64 0 -107 34t-43 91zM52 117q0 -38 28 -64t82 -26 q75 0 135 67t78 149l5 23h-32q-296 0 -296 -149zM319 573q-42 0 -73.5 24.5t-31.5 64.5q0 14 6 38h41q-5 -17 -5 -31q0 -27 18.5 -41.5t46.5 -14.5q34 0 61 21.5t33 65.5h41q-19 -127 -137 -127z" />
<glyph unicode="&#x4d2;" horiz-adv-x="625" d="M-25 0l397 700h45l127 -700h-44l-43 242h-297l-137 -242h-48zM182 282h267l-50 284l-12 84h-2q-25 -54 -42 -84zM456 788l14 73h46l-14 -73h-46zM319 788l14 73h46l-14 -73h-46z" />
<glyph unicode="&#x4d3;" horiz-adv-x="509" d="M8 113q0 57 32 97.5t86.5 59.5t108 27t113.5 8h39q7 38 7 64q0 102 -112 102q-82 0 -152 -48l-18 38q71 51 170 51q156 0 156 -137q0 -25 -6 -57l-62 -318h-42l13 65l12 46h-2q-23 -45 -74.5 -84t-118.5 -39q-64 0 -107 34t-43 91zM52 117q0 -38 28 -64t82 -26 q75 0 135 67t78 149l5 23h-32q-296 0 -296 -149zM362 627l14 73h46l-14 -73h-46zM225 627l14 73h46l-14 -73h-46z" />
<glyph unicode="&#x4d4;" horiz-adv-x="824" d="M-35 0l423 700h452l-8 -40h-340l-56 -287h279l-8 -40h-279l-57 -293h359l-8 -40h-402l65 333h-170l-201 -333h-49zM239 373h154l56 287h-36z" />
<glyph unicode="&#x4d5;" horiz-adv-x="869" d="M9 113q0 58 30 97.5t84 58t105.5 25t117.5 6.5h40q9 50 9 70q0 101 -117 101q-80 0 -147 -48l-18 38q30 22 76 36.5t89 14.5q150 0 157 -108h2q80 108 213 108q86 0 130.5 -48t44.5 -130q0 -14 -3 -32.5t-6 -29.5l-3 -11h-392q-7 -32 -7 -64q0 -80 45 -124t121 -44 q88 0 168 63l16 -38q-33 -28 -85 -47t-97 -19q-82 0 -137 40t-69 109h-2q-6 -15 -20.5 -35.5t-40.5 -48.5t-67.5 -46.5t-89.5 -18.5q-64 0 -105.5 33t-41.5 92zM432 300h345q3 21 3 40q0 67 -36.5 100t-93.5 33q-71 0 -130 -44.5t-88 -128.5zM54 116q0 -38 28 -63.5 t81 -25.5q76 0 134.5 65t76.5 147l5 22h-69q-256 0 -256 -145z" />
<glyph unicode="&#x4d6;" horiz-adv-x="553" d="M49 0l137 700h383l-9 -40h-339l-56 -287h279l-8 -40h-278l-58 -293h358l-7 -40h-402zM395 734q-42 0 -73.5 24.5t-31.5 64.5q0 14 6 38h41q-5 -17 -5 -31q0 -27 18.5 -41.5t46.5 -14.5q34 0 61 21.5t33 65.5h41q-19 -127 -137 -127z" />
<glyph unicode="&#x4d7;" horiz-adv-x="547" d="M38 197q0 124 84 219.5t207 95.5q87 0 130.5 -48.5t43.5 -128.5q0 -33 -13 -78h-401q-6 -29 -6 -55q0 -76 46 -124.5t130 -48.5q89 0 167 63l16 -38q-33 -27 -83 -46.5t-100 -19.5q-98 0 -159.5 57t-61.5 152zM99 296h355q4 15 4 42q0 67 -35.5 101t-93.5 34 q-73 0 -136.5 -46.5t-93.5 -130.5zM351 573q-42 0 -73.5 24.5t-31.5 64.5q0 14 6 38h41q-5 -17 -5 -31q0 -27 18.5 -41.5t46.5 -14.5q34 0 61 21.5t33 65.5h41q-19 -127 -137 -127z" />
<glyph unicode="&#x4d8;" horiz-adv-x="716" d="M53 225q0 60 18 146h550q7 39 7 73q0 103 -59.5 165t-166.5 62q-60 0 -120.5 -20.5t-90.5 -40.5l-30 -20l-23 34q4 4 12.5 9.5t35.5 21t56 27t73 21t88 9.5q127 0 198.5 -73t71.5 -205q0 -61 -15 -123t-47 -120t-75.5 -103.5t-106 -72.5t-134.5 -27q-107 0 -174.5 59 t-67.5 178zM98 229q0 -97 49 -148t144 -51q124 0 209 81.5t113 219.5h-504q-11 -52 -11 -102z" />
<glyph unicode="&#x4d9;" horiz-adv-x="549" d="M28 165q0 36 18 94h399q3 9 3 39q0 76 -46 124.5t-130 48.5q-90 0 -165 -62l-18 37q33 27 84 46.5t101 19.5q97 0 158 -58t61 -156q0 -122 -83.5 -216t-205.5 -94q-87 0 -131.5 48.5t-44.5 128.5zM73 162q0 -67 35.5 -101t93.5 -34q74 0 141.5 51t93.5 142h-356 q-8 -27 -8 -58z" />
<glyph unicode="&#x4da;" horiz-adv-x="714" d="M51 233q0 44 16 118h552q9 36 9 74q0 102 -60 174t-170 72q-62 0 -126 -21.5t-111 -60.5l-23 35q47 38 117 63t146 25q121 0 196 -80t75 -207q0 -75 -27 -151.5t-74 -140.5t-119 -104.5t-154 -40.5q-113 0 -180 63.5t-67 181.5zM96 233q0 -92 50.5 -147.5t155.5 -55.5 q106 0 188.5 79t118.5 202h-504q-9 -49 -9 -78zM494 788l14 73h46l-14 -73h-46zM357 788l14 73h46l-14 -73h-46z" />
<glyph unicode="&#x4db;" horiz-adv-x="548" d="M376 627l14 73h46l-14 -73h-46zM239 627l14 73h46l-14 -73h-46zM28 165q0 36 18 94h399q3 9 3 39q0 76 -46 124.5t-130 48.5q-90 0 -165 -62l-18 37q33 27 84 46.5t101 19.5q97 0 158 -58t61 -156q0 -122 -83.5 -216t-205.5 -94q-87 0 -131.5 48.5t-44.5 128.5zM73 162 q0 -67 35.5 -101t93.5 -34q74 0 141.5 51t93.5 142h-356q-8 -27 -8 -58z" />
<glyph unicode="&#x4dc;" horiz-adv-x="829" d="M558 788l14 73h46l-14 -73h-46zM421 788l14 73h46l-14 -73h-46zM-33 0l300 368v2l-150 330h49l139 -312h107l61 312h43l-61 -312h100l261 312h56l-280 -330v-2l157 -368h-49l-146 348h-107l-68 -348h-43l68 348h-101l-282 -348h-54z" />
<glyph unicode="&#x4dd;" horiz-adv-x="689" d="M458 627l14 73h46l-14 -73h-46zM321 627l14 73h46l-14 -73h-46zM-33 0l226 261v2l-113 237h45l107 -224h90l43 224h42l-43 -224h88l186 224h53l-207 -247v-2l127 -251h-49l-118 237h-88l-46 -237h-42l46 237h-89l-203 -237h-55z" />
<glyph unicode="&#x4de;" horiz-adv-x="524" d="M397 788l14 73h46l-14 -73h-46zM260 788l14 73h46l-14 -73h-46zM-5 76l29 30q54 -76 161 -76q91 0 155 53.5t64 133.5q0 62 -40.5 93.5t-103.5 31.5h-89l8 40h71q73 0 132 48t59 120q0 52 -34 86t-102 34q-88 0 -163 -57l-21 34q89 65 179 65t138 -42t48 -116 q0 -70 -40 -118t-104 -69v-2q107 -32 107 -144q0 -99 -75.5 -166t-180.5 -67q-57 0 -111 22t-87 66z" />
<glyph unicode="&#x4df;" horiz-adv-x="429" d="M324 627l14 73h46l-14 -73h-46zM187 627l14 73h46l-14 -73h-46zM-12 59l29 31q18 -22 53.5 -42t80.5 -20q61 0 107.5 35.5t46.5 96.5q0 80 -116 80h-65l7 39h59q59 0 101 29.5t42 86.5q0 38 -28 57t-75 19q-71 0 -127 -47l-23 34q69 54 157 54q63 0 102 -29t39 -83 q0 -49 -26.5 -85.5t-74.5 -51.5v-2q73 -20 73 -99q0 -77 -57 -125.5t-137 -48.5q-56 0 -100 21t-68 50z" />
<glyph unicode="&#x4e0;" horiz-adv-x="514" d="M17 88q20 -22 62.5 -39.5t89.5 -17.5q93 0 161 54.5t68 138.5q0 61 -43 91t-142 30h-77l6 34l257 239l52 43l-1 2q-25 -2 -60 -2h-265l8 39h388l-6 -30l-277 -257l-34 -26v-2q133 5 186 -38.5t53 -120.5q0 -99 -78.5 -167.5t-193.5 -68.5q-59 0 -108.5 21.5t-69.5 40.5z " />
<glyph unicode="&#x4e1;" horiz-adv-x="465" d="M-50 -112q20 -22 62.5 -39.5t89.5 -17.5q93 0 161 54.5t68 138.5q0 61 -43 91t-142 30h-77l6 34l257 239l52 43l-1 2q-25 -2 -60 -2h-265l8 39h388l-6 -30l-277 -257l-34 -26v-2q133 5 186 -38.5t53 -120.5q0 -99 -78.5 -167.5t-193.5 -68.5q-59 0 -108.5 21.5 t-69.5 40.5z" />
<glyph unicode="&#x4e2;" horiz-adv-x="749" d="M353 787l7 40h239l-7 -40h-239zM49 0l137 700h43l-106 -545l-21 -86h2q49 59 78 91l500 540h40l-137 -700h-43l106 545l21 86h-2q-46 -56 -75 -88l-503 -543h-40z" />
<glyph unicode="&#x4e3;" horiz-adv-x="584" d="M240 625l7 40h239l-7 -40h-239zM30 0l97 500h42l-69 -356l-18 -78h2q43 52 72 82l342 352h39l-97 -500h-42l69 357l17 75h-2q-42 -49 -71 -79l-342 -353h-39z" />
<glyph unicode="&#x4e4;" horiz-adv-x="749" d="M516 788l14 73h46l-14 -73h-46zM379 788l14 73h46l-14 -73h-46zM49 0l137 700h43l-106 -545l-21 -86h2q49 59 78 91l500 540h40l-137 -700h-43l106 545l21 86h-2q-46 -56 -75 -88l-503 -543h-40z" />
<glyph unicode="&#x4e5;" horiz-adv-x="584" d="M408 627l14 73h46l-14 -73h-46zM271 627l14 73h46l-14 -73h-46zM30 0l97 500h42l-69 -356l-18 -78h2q43 52 72 82l342 352h39l-97 -500h-42l69 357l17 75h-2q-42 -49 -71 -79l-342 -353h-39z" />
<glyph unicode="&#x4e6;" horiz-adv-x="826" d="M64 288q0 112 61 210.5t159 156t203 57.5q132 0 215 -82t83 -210q0 -114 -61.5 -214.5t-159 -159t-202.5 -58.5q-132 0 -215 84t-83 216zM109 288q0 -114 70.5 -186.5t182.5 -72.5q93 0 180.5 52.5t142.5 143.5t55 194q0 111 -70.5 181.5t-182.5 70.5q-95 0 -182 -51 t-141.5 -140.5t-54.5 -191.5zM553 788l14 73h46l-14 -73h-46zM416 788l14 73h46l-14 -73h-46z" />
<glyph unicode="&#x4e7;" horiz-adv-x="620" d="M38 205q0 125 93.5 216t212.5 91q98 0 159.5 -60t61.5 -154q0 -126 -94 -218t-212 -92q-98 0 -159.5 61t-61.5 156zM82 206q0 -78 49.5 -127.5t127.5 -49.5q100 0 181 79.5t81 188.5q0 76 -49.5 125t-127.5 49q-102 0 -182 -78.5t-80 -186.5zM420 627l14 73h46l-14 -73 h-46zM283 627l14 73h46l-14 -73h-46z" />
<glyph unicode="&#x4e8;" horiz-adv-x="826" d="M64 288q0 112 61 210.5t159 156t203 57.5q132 0 215 -82t83 -210q0 -114 -61.5 -214.5t-159 -159t-202.5 -58.5q-132 0 -215 84t-83 216zM109 288q0 -114 70.5 -186.5t182.5 -72.5q122 0 229.5 88t138.5 218h-618q-3 -24 -3 -47zM487 671q-123 0 -229.5 -85t-137.5 -211 h617q3 21 3 44q0 111 -70.5 181.5t-182.5 70.5z" />
<glyph unicode="&#x4e9;" horiz-adv-x="620" d="M38 205q0 125 93.5 216t212.5 91q98 0 159.5 -60t61.5 -154q0 -126 -94 -218t-212 -92q-98 0 -159.5 61t-61.5 156zM82 206q0 -78 49.5 -127.5t127.5 -49.5q83 0 156.5 58.5t96.5 145.5h-429q-1 -9 -1 -27zM344 471q-85 0 -158 -57t-96 -142h429q2 16 2 25 q0 76 -49.5 125t-127.5 49z" />
<glyph unicode="&#x4ea;" horiz-adv-x="826" d="M64 288q0 112 61 210.5t159 156t203 57.5q132 0 215 -82t83 -210q0 -114 -61.5 -214.5t-159 -159t-202.5 -58.5q-132 0 -215 84t-83 216zM109 288q0 -114 70.5 -186.5t182.5 -72.5q122 0 229.5 88t138.5 218h-618q-3 -24 -3 -47zM487 671q-123 0 -229.5 -85t-137.5 -211 h617q3 21 3 44q0 111 -70.5 181.5t-182.5 70.5zM417 788l14 73h46l-14 -73h-46zM554 788l14 73h46l-14 -73h-46z" />
<glyph unicode="&#x4eb;" horiz-adv-x="620" d="M38 205q0 125 93.5 216t212.5 91q98 0 159.5 -60t61.5 -154q0 -126 -94 -218t-212 -92q-98 0 -159.5 61t-61.5 156zM82 206q0 -78 49.5 -127.5t127.5 -49.5q83 0 156.5 58.5t96.5 145.5h-429q-1 -9 -1 -27zM344 471q-85 0 -158 -57t-96 -142h429q2 16 2 25 q0 76 -49.5 125t-127.5 49zM283 627l14 73h46l-14 -73h-46zM420 627l14 73h46l-14 -73h-46z" />
<glyph unicode="&#x4ec;" horiz-adv-x="715" d="M195 331l8 40h420q4 32 4 49q0 108 -65.5 179.5t-181.5 71.5q-132 0 -235 -79l-25 32q48 40 118 64t146 24q130 0 210 -81.5t80 -209.5q0 -113 -59.5 -213.5t-157.5 -160t-208 -59.5q-72 0 -140 27t-107 79l30 29q33 -42 93 -68t127 -26q123 0 227.5 87t136.5 215h-421z M329 788l14 73h46l-14 -73h-46zM466 788l14 73h46l-14 -73h-46z" />
<glyph unicode="&#x4ed;" horiz-adv-x="537" d="M153 230l7 39h275q2 20 2 32q0 79 -50 124.5t-126 45.5q-90 0 -162 -63l-25 32q35 33 86 52.5t104 19.5q95 0 156.5 -59t61.5 -157q0 -120 -89.5 -214t-219.5 -94q-52 0 -99.5 20t-76.5 58l24 34q24 -33 65 -52t90 -19q88 0 158 57.5t93 143.5h-274zM223 627l14 73h46 l-14 -73h-46zM360 627l14 73h46l-14 -73h-46z" />
<glyph unicode="&#x4ee;" horiz-adv-x="578" d="M262 788l7 40h239l-7 -40h-239zM35 30l26 33q41 -35 77 -35q35 0 58.5 25t58.5 85l-170 562h45l129 -426l23 -92h2q29 52 52 92l243 426h50l-353 -606q-62 -106 -141 -106q-47 0 -100 42z" />
<glyph unicode="&#x4ef;" horiz-adv-x="518" d="M-46 -149q21 -21 58 -21q61 0 116 89l53 85l-112 496h44l87 -406l9 -47h1q13 23 27 47l244 406h48l-379 -620q-56 -90 -138 -90q-46 0 -82 28zM207 625l7 40h239l-7 -40h-239z" />
<glyph unicode="&#x4f0;" horiz-adv-x="578" d="M424 788l14 73h46l-14 -73h-46zM287 788l14 73h46l-14 -73h-46zM35 30l26 33q41 -35 77 -35q35 0 58.5 25t58.5 85l-170 562h45l129 -426l23 -92h2q29 52 52 92l243 426h50l-353 -606q-62 -106 -141 -106q-47 0 -100 42z" />
<glyph unicode="&#x4f1;" horiz-adv-x="518" d="M-46 -149q21 -21 58 -21q61 0 116 89l53 85l-112 496h44l87 -406l9 -47h1q13 23 27 47l244 406h48l-379 -620q-56 -90 -138 -90q-46 0 -82 28zM368 627l14 73h46l-14 -73h-46zM231 627l14 73h46l-14 -73h-46z" />
<glyph unicode="&#x4f2;" horiz-adv-x="578" d="M35 30l26 33q41 -35 77 -35q35 0 58.5 25t58.5 85l-170 562h45l129 -426l23 -92h2q29 52 52 92l243 426h50l-353 -606q-62 -106 -141 -106q-47 0 -100 42zM402 750l89 111h60l-101 -111h-48zM287 750l84 111h54l-87 -111h-51z" />
<glyph unicode="&#x4f3;" horiz-adv-x="518" d="M-46 -149q21 -21 58 -21q61 0 116 89l53 85l-112 496h44l87 -406l9 -47h1q13 23 27 47l244 406h48l-379 -620q-56 -90 -138 -90q-46 0 -82 28zM339 589l89 111h60l-101 -111h-48zM224 589l84 111h54l-87 -111h-51z" />
<glyph unicode="&#x4f4;" horiz-adv-x="596" d="M422 788l14 73h46l-14 -73h-46zM285 788l14 73h46l-14 -73h-46zM252 283q-82 0 -123.5 38t-41.5 105q0 28 5 50l44 224h43l-43 -217q-5 -24 -5 -51q0 -108 124 -108q59 0 116.5 20.5t93.5 43.5l61 312h43l-137 -700h-43l60 304l8 33h-2q-105 -54 -203 -54z" />
<glyph unicode="&#x4f5;" horiz-adv-x="482" d="M340 627l14 73h46l-14 -73h-46zM203 627l14 73h46l-14 -73h-46zM194 190q-72 0 -106 30.5t-34 81.5q0 18 5 43l30 155h42l-30 -155q-4 -24 -4 -36q0 -78 95 -78q90 0 158 47l43 222h42l-97 -500h-42l38 196l9 34h-2q-31 -16 -74.5 -28t-72.5 -12z" />
<glyph unicode="&#x4f6;" horiz-adv-x="480" d="M50 0l136 700h353l-8 -40h-310l-120 -620h86l-35 -180h-42l27 140h-87z" />
<glyph unicode="&#x4f7;" horiz-adv-x="399" d="M30 0l97 500h284l-8 -38h-242l-82 -423h75l-31 -159h-42l24 120h-75z" />
<glyph unicode="&#x4f8;" horiz-adv-x="784" d="M534 788l14 73h46l-14 -73h-46zM397 788l14 73h46l-14 -73h-46zM577 0l137 700h43l-137 -700h-43zM49 0l137 700h43l-59 -300h165q78 0 125.5 -40.5t47.5 -118.5q0 -106 -69.5 -173.5t-164.5 -67.5h-225zM100 40h173q80 0 135 54t55 145q0 57 -35 89t-94 32h-172z" />
<glyph unicode="&#x4f9;" horiz-adv-x="634" d="M426 627l14 73h46l-14 -73h-46zM289 627l14 73h46l-14 -73h-46zM448 0l97 500h42l-97 -500h-42zM30 0l97 500h42l-39 -200h109q150 0 150 -123q0 -77 -54 -127t-144 -50h-161zM79 39h113q67 0 109.5 36.5t42.5 97.5q0 88 -106 88h-115z" />
<glyph unicode="&#x524;" horiz-adv-x="754" d="M50 0l136 700h520l-128 -660h86l-35 -180h-42l27 140h-87l128 660h-434l-128 -660h-43z" />
<glyph unicode="&#x525;" horiz-adv-x="591" d="M30 0l97 500h401l-90 -461h75l-31 -159h-42l24 120h-75l89 461h-317l-89 -461h-42z" />
<glyph unicode="&#x1e9e;" horiz-adv-x="658" d="M44 0l103 528q14 75 71.5 123.5t134.5 48.5h302l-6 -30l-220 -242l-34 -36v-2q194 0 194 -163q0 -69 -44 -129.5t-111 -83.5q-42 -14 -119 -14h-132l8 40h126q70 0 100 10q54 18 91 68.5t37 108.5q0 123 -159 123h-59l6 32l198 220l56 58v2q-6 -2 -42 -2h-191 q-60 0 -106.5 -39t-57.5 -96l-103 -525h-43z" />
<glyph unicode="&#x2009;" horiz-adv-x="10" />
<glyph unicode="&#x2013;" horiz-adv-x="632" d="M72 263l7 40h476l-7 -40h-476z" />
<glyph unicode="&#x2014;" horiz-adv-x="832" d="M72 263l7 40h676l-7 -40h-676z" />
<glyph unicode="&#x2018;" horiz-adv-x="230" d="M125 557l77 151h41l-64 -151h-54z" />
<glyph unicode="&#x2019;" horiz-adv-x="227" d="M127 557l64 151h54l-77 -151h-41z" />
<glyph unicode="&#x201a;" horiz-adv-x="247" d="M59 61h54l-77 -151h-41z" />
<glyph unicode="&#x201c;" horiz-adv-x="330" d="M225 557l77 151h41l-64 -151h-54zM125 557l77 151h41l-64 -151h-54z" />
<glyph unicode="&#x201d;" horiz-adv-x="327" d="M227 557l64 151h54l-77 -151h-41zM127 557l64 151h54l-77 -151h-41z" />
<glyph unicode="&#x201e;" horiz-adv-x="347" d="M95 -90l64 151h54l-77 -151h-41zM-5 -90l64 151h54l-77 -151h-41z" />
<glyph unicode="&#x2020;" horiz-adv-x="383" d="M101 -50l99 510h-114l8 40h114l38 200h42l-38 -200h119l-8 -40h-119l-99 -510h-42z" />
<glyph unicode="&#x2021;" horiz-adv-x="400" d="M110 -50l45 236h-114l8 40h114l46 234h-114l8 40h114l38 200h42l-38 -200h119l-8 -40h-119l-46 -234h119l-8 -40h-119l-45 -236h-42z" />
<glyph unicode="&#x2022;" horiz-adv-x="443" d="M220 159q-55 0 -93.5 38.5t-38.5 93.5t38.5 93.5t93.5 38.5t93.5 -38.5t38.5 -93.5t-38.5 -93.5t-93.5 -38.5z" />
<glyph unicode="&#x2026;" horiz-adv-x="644" d="M448 0l13 63h61l-13 -63h-61zM235 0l13 63h61l-13 -63h-61zM22 0l13 63h61l-13 -63h-61z" />
<glyph unicode="&#x2030;" horiz-adv-x="999" d="M230 451q-52 0 -83 31t-31 84q0 55 47 100.5t106 45.5q51 0 82 -31t31 -82q0 -58 -46.5 -103t-105.5 -45zM5 0l662 700h57l-663 -700h-56zM232 491q42 0 74.5 32.5t32.5 76.5q0 31 -20 51.5t-52 20.5q-42 0 -75 -33t-33 -76q0 -31 20 -51.5t53 -20.5zM663 103 q0 55 47 100.5t106 45.5q51 0 82 -31t31 -82q0 -58 -46.5 -103t-105.5 -45q-52 0 -83 31t-31 84zM342 103q0 55 47 100.5t106 45.5q51 0 82 -31t31 -82q0 -58 -46.5 -103t-105.5 -45q-52 0 -83 31t-31 84zM706 100q0 -31 20 -51.5t53 -20.5q42 0 74.5 32.5t32.5 76.5 q0 31 -20 51.5t-52 20.5q-42 0 -75 -33t-33 -76zM385 100q0 -31 20 -51.5t53 -20.5q42 0 74.5 32.5t32.5 76.5q0 31 -20 51.5t-52 20.5q-42 0 -75 -33t-33 -76z" />
<glyph unicode="&#x2039;" horiz-adv-x="327" d="M179 77l-128 208l192 203h57l-199 -208l126 -203h-48z" />
<glyph unicode="&#x203a;" horiz-adv-x="325" d="M21 77l199 208l-126 203h48l128 -208l-192 -203h-57z" />
<glyph unicode="&#x2044;" horiz-adv-x="150" d="M-125 0h-47l472 700h46z" />
<glyph unicode="&#x2070;" horiz-adv-x="376" d="M218 413q-121 0 -121 138q0 45 10 95.5t30.5 102t61 85t94.5 33.5q121 0 121 -141q0 -45 -10 -94.5t-31 -101t-61.5 -84.5t-93.5 -33zM218 449q42 0 74.5 29t49.5 73.5t25 89t8 84.5q0 106 -82 106q-42 0 -74.5 -29.5t-49.5 -74.5t-25 -89.5t-8 -85.5q0 -103 82 -103z " />
<glyph unicode="&#x2074;" horiz-adv-x="376" d="M266 423l24 121h-218l5 26l278 287h34l-54 -277h68l-7 -36h-68l-24 -121h-38zM137 580h160l28 147l16 65h-2q-22 -27 -45 -50l-157 -160v-2z" />
<glyph unicode="&#x2075;" horiz-adv-x="376" d="M211 413q-40 0 -75 18t-53 52l33 20q10 -23 35.5 -38.5t58.5 -15.5q50 0 90.5 38.5t40.5 89.5q0 38 -26.5 63t-67.5 25q-44 0 -86 -27l-24 10l67 209h206l-7 -36h-174l-28 -91l-15 -43h2q30 14 59 14q60 0 96.5 -34.5t36.5 -89.5q0 -65 -52.5 -114.5t-116.5 -49.5z" />
<glyph unicode="&#x2076;" horiz-adv-x="376" d="M227 413q-62 0 -94 41.5t-32 110.5q0 40 16 90.5t44 98.5t74.5 80.5t99.5 32.5q52 0 86 -21l-23 -30q-32 15 -63 15q-60 0 -108 -52t-72 -126h2q48 48 119 48q52 0 83 -30.5t31 -83.5q0 -81 -50.5 -127.5t-112.5 -46.5zM227 449q54 0 89 40.5t35 96.5q0 36 -22.5 57.5 t-60.5 21.5q-44 0 -86 -32t-42 -72q0 -44 23 -78t64 -34z" />
<glyph unicode="&#x2077;" horiz-adv-x="376" d="M97 423l239 333l50 65v2q-20 -2 -55 -2h-176l7 36h279l-5 -26l-294 -408h-45z" />
<glyph unicode="&#x2078;" horiz-adv-x="376" d="M219 413q-56 0 -93.5 29.5t-37.5 83.5q0 82 100 144q-39 31 -39 73q0 57 45.5 90.5t101.5 33.5q50 0 84 -25t34 -70q0 -31 -19 -64t-34.5 -48.5t-29.5 -27.5q50 -34 50 -82q0 -54 -48.5 -95.5t-113.5 -41.5zM300 650q14 10 28.5 24t30.5 41.5t16 54.5q0 29 -23.5 45 t-56.5 16q-40 0 -73.5 -23t-33.5 -63q0 -14 5.5 -25.5t20 -22t23 -16t32.5 -17t31 -14.5zM219 449q45 0 84 29t39 70q0 15 -7 27.5t-21.5 23t-27 17.5t-34.5 17.5t-33 16.5q-92 -50 -92 -123q0 -35 27 -56.5t65 -21.5z" />
<glyph unicode="&#x2079;" horiz-adv-x="376" d="M89 434l23 30q22 -15 63 -15q60 0 108 52t72 126h-2q-48 -48 -119 -48q-52 0 -83 30.5t-31 83.5q0 81 50.5 127.5t112.5 46.5t94 -41.5t32 -110.5q0 -40 -16 -90.5t-44 -98.5t-74.5 -80.5t-99.5 -32.5q-51 0 -86 21zM242 615q44 0 86 32t42 72q0 44 -23 78t-64 34 q-54 0 -89 -40.5t-35 -96.5q0 -36 22.5 -57.5t60.5 -21.5z" />
<glyph unicode="&#x2080;" horiz-adv-x="376" d="M105 -167q-121 0 -121 138q0 45 10 95.5t30.5 102t61 85t94.5 33.5q121 0 121 -141q0 -45 -10 -94.5t-31 -101t-61.5 -84.5t-93.5 -33zM105 -131q42 0 74.5 29t49.5 73.5t25 89t8 84.5q0 106 -82 106q-42 0 -74.5 -29.5t-49.5 -74.5t-25 -89.5t-8 -85.5q0 -103 82 -103z " />
<glyph unicode="&#x2081;" horiz-adv-x="376" d="M-3 -157l7 36h96l62 322l6 22h-2q-5 -8 -27 -27l-51 -42l-22 29l112 94h38l-78 -398h93l-7 -36h-227z" />
<glyph unicode="&#x2082;" horiz-adv-x="376" d="M-33 -157q1 44 23 81t53.5 59.5t68 46t67.5 43t51.5 47.5t20.5 61q0 30 -20.5 50t-55.5 20q-50 0 -104 -50l-21 28q23 24 57.5 41t68.5 17q56 0 85 -29t29 -75q0 -45 -25 -80t-62.5 -59t-76 -45.5t-71 -52t-42.5 -67.5h227l-7 -36h-266z" />
<glyph unicode="&#x2083;" horiz-adv-x="376" d="M103 -168q-83 0 -140 65l30 24q47 -53 111 -53q45 0 81.5 35t36.5 84q0 36 -27 57t-64 21h-32l-7 24l133 127l30 25v2q-18 -3 -38 -3h-164l7 36h255l-5 -26l-158 -150q38 -3 73.5 -30t35.5 -83q0 -61 -47.5 -108t-110.5 -47z" />
<glyph unicode="&#x2084;" horiz-adv-x="376" d="M153 -157l24 121h-218l5 26l278 287h34l-54 -277h68l-7 -36h-68l-24 -121h-38zM24 0h160l28 147l16 65h-2q-22 -27 -45 -50l-157 -160v-2z" />
<glyph unicode="&#x2085;" horiz-adv-x="376" d="M98 -167q-40 0 -75 18t-53 52l33 20q10 -23 35.5 -38.5t58.5 -15.5q50 0 90.5 38.5t40.5 89.5q0 38 -26.5 63t-67.5 25q-44 0 -86 -27l-24 10l67 209h206l-7 -36h-174l-28 -91l-15 -43h2q30 14 59 14q60 0 96.5 -34.5t36.5 -89.5q0 -65 -52.5 -114.5t-116.5 -49.5z" />
<glyph unicode="&#x2086;" horiz-adv-x="376" d="M114 -167q-62 0 -94 41.5t-32 110.5q0 40 16 90.5t44 98.5t74.5 80.5t99.5 32.5q52 0 86 -21l-23 -30q-32 15 -63 15q-60 0 -108 -52t-72 -126h2q48 48 119 48q52 0 83 -30.5t31 -83.5q0 -81 -50.5 -127.5t-112.5 -46.5zM114 -131q54 0 89 40.5t35 96.5q0 36 -22.5 57.5 t-60.5 21.5q-44 0 -86 -32t-42 -72q0 -44 23 -78t64 -34z" />
<glyph unicode="&#x2087;" horiz-adv-x="376" d="M-15 -158l239 333l50 65v2q-20 -2 -55 -2h-176l7 36h279l-5 -26l-294 -408h-45z" />
<glyph unicode="&#x2088;" horiz-adv-x="376" d="M106 -166q-56 0 -93.5 29.5t-37.5 83.5q0 81 100 144q-39 31 -39 73q0 57 45.5 90.5t101.5 33.5q50 0 84 -25t34 -70q0 -31 -19 -64t-34.5 -48.5t-29.5 -27.5q50 -34 50 -82q0 -54 -48.5 -95.5t-113.5 -41.5zM187 71q14 10 28.5 24t30.5 41.5t16 54.5q0 29 -23.5 45 t-56.5 16q-40 0 -73.5 -23t-33.5 -63q0 -14 5.5 -25.5t20 -22t23 -16t32.5 -17t31 -14.5zM106 -130q45 0 84 29t39 70q0 15 -7 27.5t-21.5 23t-27 17.5t-34.5 17.5t-33 16.5q-92 -50 -92 -123q0 -35 27 -56.5t65 -21.5z" />
<glyph unicode="&#x2089;" horiz-adv-x="376" d="M-24 -146l23 30q22 -15 63 -15q60 0 108 52t72 126h-2q-48 -48 -119 -48q-52 0 -83 30.5t-31 83.5q0 81 50.5 127.5t112.5 46.5t94 -41.5t32 -110.5q0 -40 -16 -90.5t-44 -98.5t-74.5 -80.5t-99.5 -32.5q-51 0 -86 21zM129 35q44 0 86 32t42 72q0 44 -23 78t-64 34 q-54 0 -89 -40.5t-35 -96.5q0 -36 22.5 -57.5t60.5 -21.5z" />
<glyph unicode="&#x20ac;" d="M22 273l7 40h55q3 44 17 89h-54l7 40h61q50 119 155 194.5t226 75.5q48 0 94 -12l-18 -40q-33 10 -77 10q-104 0 -195.5 -63.5t-137.5 -164.5h328l-15 -40h-328q-14 -42 -19 -89h313l-14 -40h-300q2 -106 65 -174.5t178 -68.5q55 0 91 13l4 -42q-42 -13 -96 -13 q-128 0 -207 79t-80 206h-60z" />
<glyph unicode="&#x2116;" horiz-adv-x="1009" d="M743 459q0 55 43 99t101 44q46 0 76 -29.5t30 -74.5q0 -55 -43.5 -99t-101.5 -44q-46 0 -75.5 29t-29.5 75zM784 461q0 -29 19 -48.5t48 -19.5q38 0 69.5 31t31.5 73q0 29 -19 47.5t-49 18.5q-39 0 -69.5 -30.5t-30.5 -71.5zM709 243l7 37h226l-7 -37h-226zM43 0l137 700 h35l292 -549l40 -88h2q4 53 11 88l107 549h43l-137 -700h-35l-292 549l-40 88h-2q-4 -53 -11 -88l-107 -549h-43z" />
<glyph unicode="&#x2122;" horiz-adv-x="1027" d="M536 264l35 436h35l126 -270l14 -40h2q5 20 14 40l126 270h35l35 -436h-38l-28 328l1 28h-2l-127 -274h-34l-127 274h-2l1 -28l-28 -328h-38zM295 264v398h-160v38h360v-38h-161v-398h-39z" />
<glyph unicode="&#x2212;" d="M29 263v40h496v-40h-496z" />
<glyph unicode="&#x221e;" horiz-adv-x="462" d="M240 184q-68 0 -116.5 48.5t-48.5 116.5t48.5 116t116.5 48t116 -48t48 -116t-48 -116.5t-116 -48.5z" />
<glyph unicode="&#x2248;" d="M62 321l-25 30q64 66 141 66q50 0 107.5 -35t90.5 -35q60 0 116 56l25 -30q-64 -66 -141 -66q-50 0 -107.5 35t-90.5 35q-60 0 -116 -56zM62 161l-25 30q64 66 141 66q50 0 107.5 -35t90.5 -35q60 0 116 56l25 -30q-64 -66 -141 -66q-50 0 -107.5 35t-90.5 35 q-60 0 -116 -56z" />
<glyph unicode="&#x2260;" d="M106 92l68 91h-126v40h156l91 120h-247v40h277l90 119l33 -25l-71 -94h127v-40h-157l-91 -120h248v-40h-278l-87 -116z" />
<glyph unicode="&#x2264;" d="M21 265v36l439 197v-48l-377 -166v-2l377 -166v-48zM21 -113h439v-40h-439v40z" />
<glyph unicode="&#x2265;" d="M39 68v48l377 166v2l-377 166v48l439 -197v-36zM38 -113h439v-40h-439v40z" />
<glyph unicode="&#x25fc;" horiz-adv-x="500" d="M0 500h500v-500h-500v500z" />
<glyph unicode="&#xf6c3;" horiz-adv-x="335" d="M71 -66h48v-13q0 -53 -42 -121h-39q36 61 36 106q0 13 -3 28z" />
<glyph unicode="&#xf6d4;" horiz-adv-x="276" d="M284 734q-42 0 -73.5 24.5t-31.5 64.5q0 14 6 38h41q-5 -17 -5 -31q0 -27 18.5 -41.5t46.5 -14.5q34 0 61 21.5t33 65.5h41q-19 -127 -137 -127z" />
<glyph unicode="&#xf8ff;" horiz-adv-x="1130" d="M167 -5v152l-126 72v278l126 71v151l265 142l134 -71l132 71l265 -142v-151l124 -71v-278l-124 -72v-152l-265 -141l-132 71l-134 -71zM207 30l238 -126l121 66l118 -66l238 126v139l114 64v249l-114 66v136l-238 126l-118 -64l-121 64l-238 -126v-136l-114 -66v-249 l114 -64v-139zM241 64v121l-99 60v225l99 58v123l215 114l110 -59l107 59l214 -114v-123l100 -58v-225l-100 -60v-121l-214 -114l-107 58l-110 -58zM446 91h43v228h228v40h-228v192h199q17 0 23 -6.5t6 -22.5v-42h42v54q0 30 -13 43.5t-45 13.5h-320v-40h65v-460z" />
<glyph d="M39 209q0 58 9.5 122t33.5 133t58.5 123t90 89.5t123.5 35.5q188 0 188 -223q0 -74 -16.5 -155t-51 -161.5t-99 -132.5t-148.5 -52q-188 0 -188 221zM83 207q0 -177 145 -177q58 0 106 32.5t77.5 82t49.5 113t28 121.5t8 111q0 180 -144 180q-68 0 -122.5 -45t-85 -116.5 t-46.5 -149t-16 -152.5z" />
<glyph d="M60 0l7 40h159l110 565l8 35h-2q-10 -13 -46 -43l-96 -81l-26 32l181 152h43l-129 -660h155l-8 -40h-356z" />
<glyph d="M13 0q1 51 21 94t60 80.5t74 61.5t92 59q115 71 150 101q77 67 77 146q0 60 -38.5 94t-99.5 34q-53 0 -103.5 -27t-86.5 -72l-31 26q38 51 98 83t126 32q81 0 130.5 -45.5t49.5 -121.5q0 -47 -17 -86t-61.5 -77.5t-70 -56.5t-91.5 -58q-9 -6 -14 -9q-47 -29 -74.5 -47.5 t-61.5 -47t-53 -59t-26 -64.5h383l-8 -40h-425z" />
<glyph d="M12 85l34 29q73 -84 179 -84q78 0 143.5 60t65.5 145q0 65 -45.5 99.5t-114.5 34.5h-52l-6 30l241 229l37 32v2q-19 -2 -54 -2h-283l8 40h401l-6 -30l-277 -261q24 0 48 -4.5t51.5 -16.5t48 -30.5t34.5 -50.5t14 -72q0 -99 -78.5 -173t-177.5 -74q-63 0 -118.5 25 t-92.5 72z" />
<glyph d="M7 200l6 30l449 470h45l-90 -460h104l-8 -40h-104l-39 -200h-43l39 200h-359zM79 240h295l64 328l15 63h-2q-22 -25 -44 -48l-328 -342v-1z" />
<glyph d="M22 89l37 25q55 -84 156 -84q90 0 158.5 64t68.5 152q0 69 -45 110.5t-118 41.5q-36 0 -72 -10.5t-54 -21.5l-18 -10l-31 11l105 333h326l-8 -40h-287l-65 -207l-15 -43h2q48 30 123 30q90 0 146 -53.5t56 -139.5q0 -106 -81.5 -182.5t-192.5 -76.5q-59 0 -110.5 26.5 t-80.5 74.5z" />
<glyph d="M49 236q0 50 14.5 111t46 125.5t75 118t107 87.5t135.5 34q69 0 126 -28l-26 -37q-40 23 -100 23q-59 0 -112.5 -28.5t-93 -75.5t-67.5 -102.5t-44 -115.5h2q37 44 92.5 70t114.5 26q85 0 135.5 -47.5t50.5 -130.5q0 -68 -30.5 -131t-90 -105t-134.5 -42q-97 0 -149 68.5 t-52 179.5zM94 221q0 -75 40.5 -133t112.5 -58q89 0 151 68.5t62 167.5q0 64 -38.5 100t-105.5 36q-45 0 -95.5 -21.5t-88.5 -65t-38 -94.5z" />
<glyph d="M68 0l408 595l50 65v2q-20 -2 -55 -2h-336l8 40h443l-6 -30l-463 -670h-49z" />
<glyph d="M27 168q0 39 16.5 77t37.5 62.5t48.5 47.5t40.5 31t23 13q-70 48 -70 119q0 76 65.5 135t168.5 59q90 0 137.5 -39.5t47.5 -109.5q0 -40 -18.5 -82t-45.5 -73.5t-43.5 -48t-27.5 -24.5q82 -52 82 -127q0 -94 -78 -157t-181 -63q-87 0 -145 47t-58 133zM368 356 q14 10 29.5 24.5t41 43t41.5 65.5t16 74q0 49 -38 78t-101 29q-81 0 -134.5 -44.5t-53.5 -106.5q0 -25 10.5 -45t35 -37t43.5 -27.5t56.5 -28t53.5 -25.5zM73 168q0 -64 45.5 -101t111.5 -37q82 0 147.5 50t65.5 127q0 25 -12 46t-36.5 38t-47 28.5t-59 28.5t-56.5 28 q-18 -10 -38 -23.5t-51 -40t-50.5 -64.5t-19.5 -80z" />
<glyph d="M29 16l26 37q46 -23 100 -23q59 0 112.5 28.5t93 75.5t67.5 102.5t44 115.5h-2q-37 -44 -92.5 -70t-114.5 -26q-85 0 -135.5 47.5t-50.5 130.5q0 68 30.5 131t90 105t134.5 42q97 0 149 -68.5t52 -179.5q0 -50 -14.5 -111t-46 -125.5t-75 -118t-107 -87.5t-135.5 -34 q-73 0 -126 28zM263 298q45 0 96 21.5t90 65t39 94.5q0 75 -40.5 133t-112.5 58q-89 0 -151 -68.5t-62 -167.5q0 -63 38 -99.5t103 -36.5z" />
<glyph horiz-adv-x="434" d="M85 329l7 40h276l-7 -40h-276z" />
<glyph horiz-adv-x="264" d="M105 -65q-46 125 -46 263q0 306 201 557h46q-206 -262 -206 -558q0 -136 47 -262h-42z" />
<glyph horiz-adv-x="264" d="M-22 -65q206 262 206 558q0 136 -47 262h42q46 -125 46 -263q0 -306 -201 -557h-46z" />
<glyph horiz-adv-x="264" d="M28 -65l159 820h108l-8 -40h-65l-143 -740h65l-8 -40h-108z" />
<glyph horiz-adv-x="263" d="M-3 -25h64l143 740h-65l8 40h108l-159 -820h-107z" />
<glyph horiz-adv-x="325" d="M91 59q0 21 7 60l18 94q3 18 3 32q0 70 -65 87l8 40q41 8 70 40t38 79l16 81q36 183 172 183h8l-7 -39h-5q-12 0 -25 -3.5t-34 -16t-39 -44t-27 -79.5l-18 -93q-9 -45 -36 -79.5t-68 -47.5v-2q25 -14 41 -40.5t16 -58.5q0 -13 -3 -28l-21 -106q-6 -30 -6 -52 q0 -30 8.5 -50t23 -28t24.5 -10.5t20 -2.5h5l-8 -39q-3 -1 -9 -1q-13 0 -27.5 4t-34.5 15.5t-32.5 38.5t-12.5 66z" />
<glyph horiz-adv-x="324" d="M-5 -26q6 0 14 1.5t25 9.5t31 21.5t28.5 42.5t21.5 68l20 105q9 49 36 83.5t68 46.5v2q-56 34 -56 96q0 13 3 28l18 94q6 30 6 52q0 30 -9 50t-23 28t-24 10.5t-20 2.5h-5l8 39q3 1 9 1q13 0 27.5 -4t34.5 -15.5t32.5 -38.5t12.5 -66q0 -21 -7 -60l-16 -82q-3 -18 -3 -32 q0 -33 17 -56.5t48 -30.5l-8 -40q-43 -9 -71.5 -41.5t-36.5 -77.5l-18 -93q-37 -184 -172 -184h-8l7 40h10z" />
<glyph horiz-adv-x="759" d="M67 281q0 112 61 213.5t158 161t200 59.5q107 0 156 -41t49 -106q0 -17 -3 -35l-66 -339h70l-8 -40h-257q-74 0 -120.5 46t-46.5 117q0 88 70.5 157.5t156.5 69.5h158q2 14 2 22q0 48 -37 78.5t-120 30.5q-149 0 -263.5 -118.5t-114.5 -275.5q0 -111 69.5 -183t182.5 -72 l-8 -41q-124 0 -206.5 84t-82.5 212zM305 318q0 -54 35.5 -89t91.5 -35h145l60 310h-143q-73 0 -131 -56.5t-58 -129.5z" />
<glyph horiz-adv-x="489" d="M346 137l-128 208l204 203h57l-211 -208l126 -203h-48zM191 137l-128 208l192 203h57l-199 -208l126 -203h-48z" />
<glyph horiz-adv-x="489" d="M196 137l199 208l-126 203h48l128 -208l-192 -203h-57zM29 137l211 208l-126 203h48l128 -208l-204 -203h-57z" />
<glyph horiz-adv-x="329" d="M191 137l-128 208l192 203h57l-199 -208l126 -203h-48z" />
<glyph horiz-adv-x="325" d="M32 137l199 208l-126 203h48l128 -208l-192 -203h-57z" />
<glyph horiz-adv-x="636" d="M85 323l7 40h476l-7 -40h-476z" />
<glyph horiz-adv-x="834" d="M84 323l7 40h676l-7 -40h-676z" />
<glyph horiz-adv-x="217" d="M81 315l12 63h61l-12 -63h-61z" />
<glyph horiz-adv-x="434" d="M289 639l13 61h59l-13 -61h-59zM21 133q0 49 22.5 89.5t55.5 69t67.5 55t63.5 61t37 73.5l9 44h43l-9 -44q-10 -47 -39 -86.5t-62.5 -66.5t-66 -54t-54 -62t-21.5 -77q0 -46 33 -75.5t89 -29.5q72 0 136 42l17 -37q-71 -47 -155 -47q-77 0 -121.5 40t-44.5 105z" />
<glyph horiz-adv-x="248" d="M161 639l13 61h59l-13 -61h-59zM45 0l103 525h43l-103 -525h-43z" />
<glyph horiz-adv-x="442" d="M230 219q-55 0 -93.5 38.5t-38.5 93.5t38.5 93.5t93.5 38.5t93.5 -38.5t38.5 -93.5t-38.5 -93.5t-93.5 -38.5z" />
<glyph horiz-adv-x="583" d="M50 201q0 82 34 161.5t102 134.5t151 55q92 0 139.5 -61t47.5 -155q0 -81 -33.5 -159.5t-100.5 -133.5t-152 -55q-93 0 -140.5 60t-47.5 153zM95 204q0 -76 37 -125.5t109 -49.5q69 0 125.5 48t85 117.5t28.5 139.5q0 77 -37 127t-109 50q-53 0 -99 -28.5t-76 -73.5 t-47 -99t-17 -106z" />
<glyph horiz-adv-x="450" d="M18 0l8 39h159l78 404l10 48h-2q-18 -12 -44 -26l-128 -70l-15 35l198 110h42l-97 -501h140l-8 -39h-341z" />
<glyph horiz-adv-x="525" d="M11 0l6 32q229 136 317.5 217t88.5 164q0 48 -36 73t-93 25q-87 0 -176 -82l-23 33q94 90 201 90q89 0 130.5 -40t41.5 -97q0 -94 -86 -178.5t-285 -197.5v-2q19 2 54 2h272l-7 -39h-405z" />
<glyph horiz-adv-x="524" d="M-20 -37l34 27q53 -77 158 -77q76 0 142 53.5t66 136.5q0 60 -45.5 91.5t-116.5 31.5h-51l-5 32l233 213l37 30v2q-19 -2 -54 -2h-251l7 39h372l-5 -28l-274 -245q31 0 61.5 -7t63 -23.5t53 -50t20.5 -80.5q0 -101 -77.5 -167.5t-177.5 -66.5q-58 0 -109 23t-81 68z" />
<glyph horiz-adv-x="577" d="M-12 41l6 29l439 470h38l-89 -460h113l-8 -39h-113l-30 -157h-42l30 157h-344zM59 80h281l63 325l15 63h-2q-23 -31 -46 -55l-311 -332v-1z" />
<glyph horiz-adv-x="533" d="M-8 -24l36 23q21 -35 60 -55t85 -20q85 0 156 55.5t71 147.5q0 62 -45.5 97t-111.5 35q-75 0 -143 -38l-30 10l100 309h315l-7 -39h-277l-60 -186l-15 -40h2q57 25 120 25q84 0 140.5 -44.5t56.5 -126.5q0 -109 -82.5 -177.5t-189.5 -68.5q-58 0 -107 24t-74 69z" />
<glyph horiz-adv-x="586" d="M58 218q0 49 14.5 107.5t46 119t74 110.5t105 81.5t133.5 31.5q68 0 126 -27l-26 -35q-36 21 -100 21q-114 0 -198 -90.5t-116 -215.5h2q38 44 93 68.5t115 24.5q86 0 137 -45t51 -123q0 -101 -75 -179.5t-183 -78.5q-96 0 -147.5 63.5t-51.5 166.5zM102 206 q0 -69 42 -123t115 -54q89 0 150 62.5t61 153.5q0 60 -39.5 94t-108.5 34q-79 0 -149.5 -51t-70.5 -116z" />
<glyph horiz-adv-x="497" d="M20 -116l388 557l46 60v2q-20 -2 -55 -2h-320l7 39h429l-5 -28l-439 -628h-51z" />
<glyph horiz-adv-x="583" d="M42 158q0 45 21 86t53 68.5t52 41t35 21.5q-70 48 -70 113q0 70 64 125.5t164 55.5q86 0 133.5 -38t47.5 -102q0 -38 -17 -76.5t-44 -68.5t-41.5 -44t-27.5 -24q81 -49 81 -121q0 -84 -77 -145.5t-176 -61.5q-82 0 -140 45.5t-58 124.5zM375 336q14 10 28.5 23t38.5 39.5 t39.5 60.5t15.5 68q0 47 -37.5 74t-99.5 27q-77 0 -129.5 -41t-52.5 -98q0 -23 10.5 -41.5t34 -34.5t43 -26t55.5 -26t54 -25zM87 158q0 -59 45 -94t109 -35q74 0 140.5 48t66.5 116q0 24 -11.5 43.5t-36 36t-45.5 27.5t-57.5 27t-55.5 26q-19 -9 -38.5 -22t-49 -38 t-48.5 -60.5t-19 -74.5z" />
<glyph horiz-adv-x="571" d="M40 -66q40 -21 100 -21q114 0 198 90.5t116 215.5h-2q-38 -44 -93 -68.5t-115 -24.5q-86 0 -137 45t-51 123q0 101 75 179.5t183 78.5q96 0 147.5 -63.5t51.5 -166.5q0 -49 -14.5 -107.5t-46 -119t-74 -110.5t-105 -81.5t-133.5 -31.5q-73 0 -126 27zM246 167 q79 0 151 51t72 116q0 69 -42 123t-115 54q-89 0 -150 -62.5t-61 -153.5q0 -60 39 -94t106 -34z" />
<glyph d="M38 201q0 82 34 161.5t102 134.5t151 55q92 0 139.5 -61t47.5 -155q0 -81 -33.5 -159.5t-100.5 -133.5t-152 -55q-93 0 -140.5 60t-47.5 153zM83 204q0 -76 37 -125.5t109 -49.5q69 0 125.5 48t85 117.5t28.5 139.5q0 77 -37 127t-109 50q-53 0 -99 -28.5t-76 -73.5 t-47 -99t-17 -106z" />
<glyph d="M73 0l8 39h159l78 404l10 48h-2q-18 -12 -44 -26l-128 -70l-15 35l198 110h42l-97 -501h140l-8 -39h-341z" />
<glyph d="M28 0l6 32q229 136 317.5 217t88.5 164q0 48 -36 73t-93 25q-87 0 -176 -82l-23 33q94 90 201 90q89 0 130.5 -40t41.5 -97q0 -94 -86 -178.5t-285 -197.5v-2q19 2 54 2h272l-7 -39h-405z" />
<glyph d="M-2 -37l34 27q53 -77 158 -77q76 0 142 53.5t66 136.5q0 60 -45.5 91.5t-116.5 31.5h-51l-5 32l233 213l37 30v2q-19 -2 -54 -2h-251l7 39h372l-5 -28l-274 -245q31 0 61.5 -7t63 -23.5t53 -50t20.5 -80.5q0 -101 -77.5 -167.5t-177.5 -66.5q-58 0 -109 23t-81 68z" />
<glyph d="M-21 41l6 29l439 470h38l-89 -460h113l-8 -39h-113l-30 -157h-42l30 157h-344zM50 80h281l63 325l15 63h-2q-23 -31 -46 -55l-311 -332v-1z" />
<glyph d="M5 -24l36 23q21 -35 60 -55t85 -20q85 0 156 55.5t71 147.5q0 62 -45.5 97t-111.5 35q-75 0 -143 -38l-30 10l100 309h315l-7 -39h-277l-60 -186l-15 -40h2q57 25 120 25q84 0 140.5 -44.5t56.5 -126.5q0 -109 -82.5 -177.5t-189.5 -68.5q-58 0 -107 24t-74 69z" />
<glyph d="M45 218q0 49 14.5 107.5t46 119t74 110.5t105 81.5t133.5 31.5q68 0 126 -27l-26 -35q-36 21 -100 21q-114 0 -198 -90.5t-116 -215.5h2q38 44 93 68.5t115 24.5q86 0 137 -45t51 -123q0 -101 -75 -179.5t-183 -78.5q-96 0 -147.5 63.5t-51.5 166.5zM89 206 q0 -69 42 -123t115 -54q89 0 150 62.5t61 153.5q0 60 -39.5 94t-108.5 34q-79 0 -149.5 -51t-70.5 -116z" />
<glyph d="M51 -116l388 557l46 60v2q-20 -2 -55 -2h-320l7 39h429l-5 -28l-439 -628h-51z" />
<glyph d="M31 158q0 45 21 86t53 68.5t52 41t35 21.5q-70 48 -70 113q0 70 64 125.5t164 55.5q86 0 133.5 -38t47.5 -102q0 -38 -17 -76.5t-44 -68.5t-41.5 -44t-27.5 -24q81 -49 81 -121q0 -84 -77 -145.5t-176 -61.5q-82 0 -140 45.5t-58 124.5zM364 336q14 10 28.5 23t38.5 39.5 t39.5 60.5t15.5 68q0 47 -37.5 74t-99.5 27q-77 0 -129.5 -41t-52.5 -98q0 -23 10.5 -41.5t34 -34.5t43 -26t55.5 -26t54 -25zM76 158q0 -59 45 -94t109 -35q74 0 140.5 48t66.5 116q0 24 -11.5 43.5t-36 36t-45.5 27.5t-57.5 27t-55.5 26q-19 -9 -38.5 -22t-49 -38 t-48.5 -60.5t-19 -74.5z" />
<glyph d="M34 -66q40 -21 100 -21q114 0 198 90.5t116 215.5h-2q-38 -44 -93 -68.5t-115 -24.5q-86 0 -137 45t-51 123q0 101 75 179.5t183 78.5q96 0 147.5 -63.5t51.5 -166.5q0 -49 -14.5 -107.5t-46 -119t-74 -110.5t-105 -81.5t-133.5 -31.5q-73 0 -126 27zM240 167 q79 0 151 51t72 116q0 69 -42 123t-115 54q-89 0 -150 -62.5t-61 -153.5q0 -60 39 -94t106 -34z" />
<glyph horiz-adv-x="497" d="M8 86l35 27q65 -84 165 -84q61 0 110.5 35.5t49.5 95.5q0 33 -27 57t-66 40.5t-78 35t-66 49t-27 72.5q0 73 55.5 118.5t136.5 50.5l17 85h43l-17 -86q79 -8 130 -59l-31 -30q-19 23 -56.5 37t-77.5 14q-60 0 -108 -32t-48 -95q0 -34 27 -58.5t66 -40.5t78 -34t66 -49 t27 -75q0 -71 -57 -120.5t-144 -50.5l-18 -93h-43l19 96q-48 6 -92.5 30.5t-68.5 63.5z" />
<glyph horiz-adv-x="551" d="M209 -25l17 84q-81 9 -130 61t-49 135q0 116 82 195t190 88l17 86h43l-18 -86q100 -10 154 -78l-27 -32q-22 33 -61.5 51.5t-87.5 18.5q-95 0 -171 -69t-76 -173q0 -72 47 -115t122 -43q46 0 93.5 19.5t82.5 52.5l17 -37q-36 -33 -85.5 -54t-99.5 -22l-17 -82h-43z" />
<glyph horiz-adv-x="577" d="M2 0l6 39h66l41 209h-46l7 39h46l25 128q14 74 78 122t149 48q91 0 152 -52l-32 -30q-46 41 -122 41q-74 0 -123.5 -40.5t-61.5 -99.5l-23 -117h243l-7 -39h-243l-41 -209h351l-7 -39h-458z" />
<glyph horiz-adv-x="582" d="M77 157l8 40h168l6 32l-21 48h-138l8 40h114l-109 258h46l96 -232l31 -76h2q29 42 56 76l184 232h53l-208 -258h111l-8 -40h-136l-38 -48l-6 -32h165l-8 -40h-165l-30 -157h-43l30 157h-168z" />
<glyph horiz-adv-x="477" d="M-109 -84q21 -5 60 -5q19 0 37.5 5t42.5 18.5t45 45t34 76.5l78 275h-96l7 38h100l34 122q16 56 42.5 94.5t56.5 55t53.5 22.5t46.5 6q49 0 89 -8l-7 -38q-35 7 -81 7q-116 0 -159 -145l-33 -116h132l-7 -38h-136l-81 -284q-16 -56 -42.5 -93.5t-56.5 -54t-52.5 -22 t-45.5 -5.5q-36 0 -69 6z" />
<glyph horiz-adv-x="604" d="M39 208l8 40h64q4 43 12 73h-62l8 40h68q40 97 128.5 160.5t213.5 63.5q49 0 97 -14l-19 -38q-35 10 -79 10q-104 0 -180 -51t-113 -131h301l-17 -40h-300q-11 -32 -14 -73h288l-17 -40h-270q7 -78 63.5 -128t159.5 -50q46 0 90 13l4 -42q-41 -13 -95 -13 q-123 0 -191 62.5t-75 157.5h-73z" />
<glyph horiz-adv-x="376" d="M187 256q-121 0 -121 138q0 45 10 95.5t30.5 102t61 85t94.5 33.5q121 0 121 -141q0 -45 -10 -94.5t-31 -101t-61.5 -84.5t-93.5 -33zM187 292q42 0 74.5 29t49.5 73.5t25 89t8 84.5q0 106 -82 106q-42 0 -74.5 -29.5t-49.5 -74.5t-25 -89.5t-8 -85.5q0 -103 82 -103z " />
<glyph horiz-adv-x="376" d="M79 266l7 36h96l62 322l6 22h-2q-5 -8 -27 -27l-51 -42l-22 29l112 94h38l-78 -398h93l-7 -36h-227z" />
<glyph horiz-adv-x="376" d="M50 266q1 44 23 81t53.5 59.5t68 46t67.5 43t51.5 47.5t20.5 61q0 30 -20.5 50t-55.5 20q-50 0 -104 -50l-21 28q23 24 57.5 41t68.5 17q56 0 85 -29t29 -75q0 -45 -25 -80t-62.5 -59t-76 -45.5t-71 -52t-42.5 -67.5h227l-7 -36h-266z" />
<glyph horiz-adv-x="376" d="M185 256q-83 0 -140 65l30 24q47 -53 111 -53q45 0 81.5 35t36.5 84q0 36 -27 57t-64 21h-32l-7 24l133 127l30 25v2q-18 -3 -38 -3h-164l7 36h255l-5 -26l-158 -150q38 -3 73.5 -30t35.5 -83q0 -61 -47.5 -108t-110.5 -47z" />
<glyph horiz-adv-x="376" d="M236 266l24 121h-218l5 26l278 287h34l-54 -277h68l-7 -36h-68l-24 -121h-38zM107 423h160l28 147l16 65h-2q-22 -27 -45 -50l-157 -160v-2z" />
<glyph horiz-adv-x="376" d="M180 256q-40 0 -75 18t-53 52l33 20q10 -23 35.5 -38.5t58.5 -15.5q50 0 90.5 38.5t40.5 89.5q0 38 -26.5 63t-67.5 25q-44 0 -86 -27l-24 10l67 209h206l-7 -36h-174l-28 -91l-15 -43h2q30 14 59 14q60 0 96.5 -34.5t36.5 -89.5q0 -65 -52.5 -114.5t-116.5 -49.5z" />
<glyph horiz-adv-x="376" d="M197 256q-62 0 -94 41.5t-32 110.5q0 40 16 90.5t44 98.5t74.5 80.5t99.5 32.5q51 0 86 -21l-23 -30q-32 15 -63 15q-60 0 -108 -52t-72 -126h2q48 48 119 48q52 0 83 -30.5t31 -83.5q0 -81 -50.5 -127.5t-112.5 -46.5zM197 292q54 0 89 40.5t35 96.5q0 36 -22.5 57.5 t-60.5 21.5q-44 0 -86 -32t-42 -72q0 -44 23 -78t64 -34z" />
<glyph horiz-adv-x="376" d="M67 266l239 333l50 65v2q-20 -2 -55 -2h-176l7 36h279l-5 -26l-294 -408h-45z" />
<glyph horiz-adv-x="376" d="M188 255q-56 0 -93.5 29.5t-37.5 83.5q0 82 100 144q-39 31 -39 73q0 57 45.5 90.5t101.5 33.5q50 0 84 -25t34 -70q0 -31 -19 -64t-34.5 -48.5t-29.5 -27.5q50 -34 50 -82q0 -54 -48.5 -95.5t-113.5 -41.5zM269 492q14 10 28.5 24t30.5 41.5t16 54.5q0 29 -23.5 45 t-56.5 16q-40 0 -73.5 -23t-33.5 -63q0 -14 5.5 -25.5t20 -22t23 -16t32.5 -17t31 -14.5zM188 291q45 0 84 29t39 70q0 15 -7 27.5t-21.5 23t-27 17.5t-34.5 17.5t-33 16.5q-92 -50 -92 -123q0 -35 27 -56.5t65 -21.5z" />
<glyph horiz-adv-x="376" d="M58 277l23 30q22 -15 63 -15q60 0 108 52t72 126h-2q-48 -48 -119 -48q-52 0 -83 30.5t-31 83.5q0 81 50.5 127.5t112.5 46.5t94 -41.5t32 -110.5q0 -40 -16 -90.5t-44 -98.5t-74.5 -80.5t-99.5 -32.5q-51 0 -86 21zM211 458q44 0 86 32t42 72q0 44 -23 78t-64 34 q-54 0 -89 -40.5t-35 -96.5q0 -36 22.5 -57.5t60.5 -21.5z" />
<glyph horiz-adv-x="376" d="M136 -10q-121 0 -121 138q0 45 10 95.5t30.5 102t61 85t94.5 33.5q121 0 121 -141q0 -45 -10 -94.5t-31 -101t-61.5 -84.5t-93.5 -33zM136 26q42 0 74.5 29t49.5 73.5t25 89t8 84.5q0 106 -82 106q-42 0 -74.5 -29.5t-49.5 -74.5t-25 -89.5t-8 -85.5q0 -103 82 -103z" />
<glyph horiz-adv-x="376" d="M27 0l7 36h96l62 322l6 22h-2q-5 -8 -27 -27l-51 -42l-22 29l112 94h38l-78 -398h93l-7 -36h-227z" />
<glyph horiz-adv-x="376" d="M-2 0q1 44 23 81t53.5 59.5t68 46t67.5 43t51.5 47.5t20.5 61q0 30 -20.5 50t-55.5 20q-50 0 -104 -50l-21 28q23 24 57.5 41t68.5 17q56 0 85 -29t29 -75q0 -45 -25 -80t-62.5 -59t-76 -45.5t-71 -52t-42.5 -67.5h227l-7 -36h-266z" />
<glyph horiz-adv-x="376" d="M133 -10q-83 0 -140 65l30 24q47 -53 111 -53q45 0 81.5 35t36.5 84q0 36 -27 57t-64 21h-32l-7 24l133 127l30 25v2q-18 -3 -38 -3h-164l7 36h255l-5 -26l-158 -150q38 -3 73.5 -30t35.5 -83q0 -61 -47.5 -108t-110.5 -47z" />
<glyph horiz-adv-x="376" d="M184 0l24 121h-218l5 26l278 287h34l-54 -277h68l-7 -36h-68l-24 -121h-38zM55 157h160l28 147l16 65h-2q-22 -27 -45 -50l-157 -160v-2z" />
<glyph horiz-adv-x="376" d="M129 -10q-40 0 -75 18t-53 52l33 20q10 -23 35.5 -38.5t58.5 -15.5q50 0 90.5 38.5t40.5 89.5q0 38 -26.5 63t-67.5 25q-44 0 -86 -27l-24 10l67 209h206l-7 -36h-174l-28 -91l-15 -43h2q30 14 59 14q60 0 96.5 -34.5t36.5 -89.5q0 -65 -52.5 -114.5t-116.5 -49.5z" />
<glyph horiz-adv-x="376" d="M145 -10q-62 0 -94 41.5t-32 110.5q0 40 16 90.5t44 98.5t74.5 80.5t99.5 32.5q51 0 86 -21l-23 -30q-32 15 -63 15q-60 0 -108 -52t-72 -126h2q48 48 119 48q52 0 83 -30.5t31 -83.5q0 -81 -50.5 -127.5t-112.5 -46.5zM145 26q54 0 89 40.5t35 96.5q0 36 -22.5 57.5 t-60.5 21.5q-44 0 -86 -32t-42 -72q0 -44 23 -78t64 -34z" />
<glyph horiz-adv-x="376" d="M15 0l239 333l50 65v2q-20 -2 -55 -2h-176l7 36h279l-5 -26l-294 -408h-45z" />
<glyph horiz-adv-x="376" d="M137 -10q-56 0 -93.5 29.5t-37.5 83.5q0 82 100 144q-39 31 -39 73q0 57 45.5 90.5t101.5 33.5q50 0 84 -25t34 -70q0 -31 -19 -64t-34.5 -48.5t-29.5 -27.5q50 -34 50 -82q0 -54 -48.5 -95.5t-113.5 -41.5zM218 227q14 10 28.5 24t30.5 41.5t16 54.5q0 29 -23.5 45 t-56.5 16q-40 0 -73.5 -23t-33.5 -63q0 -14 5.5 -25.5t20 -22t23 -16t32.5 -17t31 -14.5zM137 26q45 0 84 29t39 70q0 15 -7 27.5t-21.5 23t-27 17.5t-34.5 17.5t-33 16.5q-92 -50 -92 -123q0 -35 27 -56.5t65 -21.5z" />
<glyph horiz-adv-x="376" d="M7 11l23 30q22 -15 63 -15q60 0 108 52t72 126h-2q-48 -48 -119 -48q-52 0 -83 30.5t-31 83.5q0 81 50.5 127.5t112.5 46.5t94 -41.5t32 -110.5q0 -40 -16 -90.5t-44 -98.5t-74.5 -80.5t-99.5 -32.5q-51 0 -86 21zM160 192q44 0 86 32t42 72q0 44 -23 78t-64 34 q-54 0 -89 -40.5t-35 -96.5q0 -36 22.5 -57.5t60.5 -21.5z" />
<glyph horiz-adv-x="428" d="M9 100q0 48 34.5 84t83.5 57.5t98 41.5t83.5 49t34.5 67q0 36 -28 54t-72 18q-80 0 -132 -47l-22 34q61 54 156 54q64 0 103 -28.5t39 -83.5q0 -49 -34.5 -84.5t-83.5 -56.5t-97.5 -40.5t-83 -48.5t-34.5 -67q0 -37 29 -55.5t75 -18.5q94 0 162 63l25 -32 q-81 -72 -190 -72q-66 0 -106 28.5t-40 83.5z" />
<glyph horiz-adv-x="571" d="M32 -136q56 -33 130 -33q84 0 144.5 43t78.5 129l11 53l13 46h-2q-64 -102 -178 -102q-87 0 -138 53t-51 143q0 73 29 144t91 121.5t142 50.5q61 0 106.5 -23t58.5 -75h2q-1 12 1 24l12 62h42l-97 -502q-21 -107 -93 -157.5t-167 -50.5q-87 0 -159 39zM84 197 q0 -73 39 -114.5t107 -41.5q53 0 95 28t67.5 72.5t38.5 95t13 100.5q0 134 -140 134q-100 0 -160 -84t-60 -190z" />
<glyph horiz-adv-x="688" d="M-33 0l226 261v2l-113 237h45l107 -224h89l83 424h42l-83 -424h88l186 224h53l-207 -247v-2l127 -251h-49l-118 237h-88l-46 -237h-42l46 237h-87l-203 -237h-56z" />
<glyph horiz-adv-x="580" d="M52 114q0 29 8 69l61 317h42l-58 -300q-9 -44 -9 -78q0 -44 22 -68.5t77 -24.5q90 0 162 73t89 166l45 232h42l-97 -500h-42l16 83l13 46h-2q-27 -51 -88.5 -96t-144.5 -45q-60 0 -98 30.5t-38 95.5z" />
<glyph horiz-adv-x="580" d="M52 114q0 29 8 69l61 317h42l-58 -300q-9 -44 -9 -78q0 -44 22 -68.5t77 -24.5q90 0 162 73t89 166l45 232h42l-97 -500h-42l16 83l13 46h-2q-27 -51 -88.5 -96t-144.5 -45q-60 0 -98 30.5t-38 95.5zM348 573q-42 0 -73.5 24.5t-31.5 64.5q0 14 6 38h41q-5 -17 -5 -31 q0 -27 18.5 -41.5t46.5 -14.5q34 0 61 21.5t33 65.5h41q-19 -127 -137 -127z" />
<glyph horiz-adv-x="470" d="M30 0l137 700h42l-78 -397h85l202 197h57l-222 -216v-2l142 -282h-48l-131 264h-92l-52 -264h-42z" />
<glyph horiz-adv-x="493" d="M-27 0l293 500h40l99 -500h-42l-78 392l-6 54h-2q-14 -30 -28 -54l-230 -392h-46z" />
<glyph horiz-adv-x="585" d="M30 0l97 500h42l-15 -83l-14 -46h2q25 49 89 95t146 46q69 0 104 -32.5t35 -93.5q0 -29 -8 -69l-61 -317h-42l58 302q9 47 9 76q0 46 -26 69.5t-70 23.5q-92 0 -166 -70t-93 -167l-45 -234h-42z" />
<glyph horiz-adv-x="917" d="M30 0l97 500h42l-16 -83l-13 -46h2q30 60 92 100.5t128 40.5q71 0 101 -34.5t30 -101.5h2q31 59 90.5 97.5t124.5 38.5q68 0 103 -33.5t35 -95.5q0 -28 -8 -66l-61 -317h-42l58 302q9 47 9 73q0 98 -100 98q-83 0 -149 -71.5t-82 -157.5l-47 -244h-42l58 302q9 47 9 76 q0 95 -96 95q-83 0 -151 -70.5t-85 -159.5l-47 -243h-42z" />
<glyph horiz-adv-x="600" d="M52 114q0 29 8 69l61 317h42l-58 -302q-9 -47 -9 -76q0 -46 26 -69.5t70 -23.5q92 0 166 70t93 167l45 234h42l-90 -461h76l-31 -159h-42l23 120h-75l15 83l14 46h-2q-25 -49 -89 -95t-146 -46q-69 0 -104 32.5t-35 93.5z" />
<glyph horiz-adv-x="917" d="M870 500l-97 -500h-42l16 83l13 46h-2q-30 -60 -92 -100.5t-128 -40.5q-71 0 -101 34.5t-30 101.5h-2q-31 -59 -90.5 -97.5t-124.5 -38.5q-68 0 -103 33.5t-35 95.5q0 28 8 66l61 317h42l-58 -302q-9 -47 -9 -73q0 -98 100 -98q83 0 149 71.5t82 157.5l47 244h42 l-58 -302q-9 -47 -9 -76q0 -95 96 -95q83 0 151 70.5t85 159.5l47 243h42z" />
<glyph horiz-adv-x="932" d="M870 500l-90 -461h76l-31 -159h-42l23 120h-75l16 83l13 46h-2q-30 -60 -92 -100.5t-128 -40.5q-71 0 -101 34.5t-30 101.5h-2q-31 -59 -90.5 -97.5t-124.5 -38.5q-68 0 -103 33.5t-35 95.5q0 28 8 66l61 317h42l-58 -302q-9 -47 -9 -73q0 -98 100 -98q83 0 149 71.5 t82 157.5l47 244h42l-58 -302q-9 -47 -9 -76q0 -95 96 -95q83 0 151 70.5t85 159.5l47 243h42z" />
<glyph horiz-adv-x="551" d="M116 134q0 20 5 47l54 281h-117l7 38h159l-29 -151l-12 -52h2q26 30 69 50t92 20q66 0 107 -36.5t41 -108.5q0 -92 -63.5 -163t-161.5 -71q-72 0 -112.5 40.5t-40.5 105.5zM158 142q0 -53 29 -83.5t83 -30.5q77 0 128 57t51 134q0 56 -29.5 82t-77.5 26q-76 0 -130 -54.5 t-54 -130.5z" />
<glyph horiz-adv-x="490" d="M55 134q0 20 5 47l61 319h42l-29 -151l-12 -52h2q26 30 69 50t92 20q66 0 107 -36.5t41 -108.5q0 -92 -63.5 -163t-161.5 -71q-72 0 -112.5 40.5t-40.5 105.5zM97 142q0 -53 29 -83.5t83 -30.5q77 0 128 57t51 134q0 56 -29.5 82t-77.5 26q-76 0 -130 -54.5t-54 -130.5z " />
<glyph horiz-adv-x="786" d="M224 205q0 16 1 25h-109l-44 -230h-42l136 700h42l-84 -431h107q23 104 106.5 173.5t182.5 69.5q94 0 152.5 -60t58.5 -154q0 -126 -91 -218t-205 -92q-94 0 -152.5 61t-58.5 156zM268 206q0 -78 46.5 -127.5t120.5 -49.5q97 0 174.5 79.5t77.5 188.5q0 76 -46.5 125 t-120.5 49q-98 0 -175 -78.5t-77 -186.5z" />
<glyph horiz-adv-x="571" d="M58 172q0 21 8 65l38 196q23 121 94 200t177 79q62 0 103 -29.5t41 -81.5q0 -62 -52 -107t-123 -72v-2q28 -1 54 -9t52.5 -25t43 -50t16.5 -78q0 -107 -81.5 -188.5t-193.5 -81.5q-89 0 -133 51.5t-44 132.5zM122 327h2q31 48 106 81l91 40q156 69 156 149q0 39 -31 57 t-75 18q-92 0 -150.5 -70t-77.5 -169zM99 168q0 -67 38.5 -103.5t101.5 -36.5q93 0 160 71.5t67 157.5q0 68 -43.5 99t-104.5 31q-93 0 -156 -65t-63 -154z" />
<glyph horiz-adv-x="424" d="M-42 -132q49 -38 112 -38q88 0 153 58t65 141q0 65 -43.5 97t-123.5 32h-45l7 38h45q75 0 136.5 50t61.5 123q0 49 -29.5 76t-79.5 27q-70 0 -140 -56l-21 34q78 62 164 62q73 0 112 -39.5t39 -98.5q0 -61 -40.5 -114t-103.5 -79v-2q106 -34 106 -147q0 -97 -75.5 -169.5 t-180.5 -72.5q-85 0 -141 43z" />
<glyph horiz-adv-x="686" d="M-67 -140l35 180h71l360 660h46l104 -660h72l-35 -180h-43l27 140h-567l-27 -140h-43zM87 40h418l-82 520l-9 85h-2q-25 -55 -41 -85z" />
<glyph horiz-adv-x="602" d="M-30 0l388 700h46l115 -700h-43l-94 560l-8 85h-2q-25 -55 -42 -85l-311 -560h-49z" />
<glyph d="M-54 -120l31 159h52l272 461h40l90 -461h55l-31 -159h-42l24 120h-426l-23 -120h-42zM75 39h313l-69 353l-7 54h-2q-14 -30 -27 -54z" />
<glyph horiz-adv-x="493" d="M-27 0l293 500h40l99 -500h-42l-78 392l-6 54h-2q-14 -30 -28 -54l-230 -392h-46z" />
<glyph horiz-adv-x="840" d="M-29 0l439 700h114l-61 -310h141q85 0 135.5 -42t50.5 -119q0 -93 -70 -161t-174 -68h-202l129 660h-38l-414 -660h-50zM395 40h150q83 0 141.5 54t58.5 132q0 61 -38 92.5t-101 31.5h-150z" />
<glyph horiz-adv-x="685" d="M-24 0l313 500h115l-39 -200h110q149 0 149 -124q0 -80 -56.5 -128t-142.5 -48h-160l90 461h-43l-290 -461h-46zM314 39h113q65 0 108.5 34.5t43.5 98.5q0 89 -106 89h-115z" />
<glyph horiz-adv-x="646" d="M-30 0l387 700h46l109 -660h84l-7 -33l-88 -147h-40l76 140h-62l-94 560l-9 85h-2q-24 -55 -41 -85l-312 -560h-47z" />
<glyph horiz-adv-x="531" d="M363 0l-78 392l-7 54h-2q-14 -30 -27 -54l-230 -392h-46l293 500h40l91 -462h78l-6 -33l-76 -125h-38l66 120h-58z" />
</font>
</defs>
</svg>
